#TITLE:Arrival of Tears;
#SUBTITLE:11eyes Opening Theme;
#ARTIST:UTatsh feat. 彩音;
#TITLETRANSLIT:;
#SUBTITLETRANSLIT:;
#ARTISTTRANSLIT:Tatsh feat. AYANE;
#CREDIT:;
#BANNER:Arrival of Tears.png;
#BACKGROUND:Arrival of Tears-bg.png;
#LYRICSPATH:Arrival of Tears.lrc;
#CDTITLE:;
#MUSIC:Arrival of Tears.mp3;
#OFFSET:0.000;
#SAMPLESTART:54.850;
#SAMPLELENGTH:12.000;
#SELECTABLE:YES;
#BPMS:0.000=200.001,180.500=100.001,182.250=200.001;
#STOPS:279.000=2.400
;
#BGCHANGES:0.000=Arrival of Tears (TV Size).avi=1.000=0=0=0,
99999=-nosongbg-=1.000=0=0=0 // don't automatically add -songbackground-
;

//---------------dance-single - ----------------
#NOTES:
     dance-single:
     :
     Hard:
     15:
     0.621,0.771,0.186,0.743,1.000:
1000
0100
0002
0000
0000
0000
0000
0000
0000
0000
0000
0000
0000
0000
0000
0000
,
0003
0010
2000
0000
0000
0000
0000
0000
0000
0000
0000
0000
0000
0000
0000
0000
,
3100
0010
0002
0000
0000
0000
0000
0000
0000
0000
0000
0000
0000
0000
0000
0000
,
0000
0000
0003
0100
0000
0010
0000
0100
0000
0001
0000
1000
0010
0100
1000
0010
,
1000
0001
0100
0010
0000
0000
0000
2000
0000
0001
0000
0100
0000
0010
0000
3100
,
0000
0000
0000
0002
0000
0000
0000
1000
0000
0010
0000
0100
0000
1000
0000
1003
,
0000
0000
0000
0020
0000
0000
0000
0100
0000
0001
0000
1000
0000
0001
0000
0130
,
0000
0000
0200
0000
0000
0000
0000
0010
0000
0001
0000
0010
0000
0001
0000
0010
,
0300
0000
0000
2000
0000
0000
0000
0010
0000
0000
0000
3002
0000
0000
0000
1000
,
0000
0000
0000
0203
0000
0000
0000
0010
0000
0000
0000
0320
0000
0000
0000
0001
,
0000
0000
0000
2030
0000
0000
0000
0010
0000
0100
0000
0001
0000
0100
0000
0010
,
0000
0100
0000
0001
0000
0000
0000
0100
0000
0010
0000
0100
3000
0000
1000
0100
,
0010
0001
1000
0000
0000
0000
0000
0100
0000
0000
0000
0010
0000
0000
0000
1000
,
0000
0002
0000
0000
0000
0000
0000
0103
0000
0000
0000
0010
0000
0000
0000
2000
,
0000
0000
0000
3002
0000
0000
0000
0000
0000
0000
0203
0000
0000
0000
0000
0000
,
0000
0000
0000
0010
0000
0000
0000
0000
0010
0000
0000
0000
0000
0000
0302
0000
,
0000
0000
0000
0000
0000
0000
0000
1000
0003
0000
0000
0100
0000
0000
0000
0010
,
0000
1000
0000
0000
0000
0000
0001
0000
0000
0000
0000
0010
0000
0000
0000
0001
,
0000
0000
0000
0020
0000
0000
0000
0000
0000
0000
0032
0000
0000
0000
0000
0000
,
0000
0003
0000
0000
0000
0000
0000
0000
0000
0000
0000
0000
0000
0000
0000
0000
0000
0000
0000
0000
0000
0000
0000
0000
0000
0000
0000
0000
0000
0000
0000
0000
0000
0000
0000
0000
1000
0000
0000
0000
0000
0000
0000
0000
0000
0000
0000
0000
0000
0000
0000
0000
0000
0000
0000
0000
0000
0000
0000
0000
0000
0000
0000
0000
0000
0000
0000
0000
0000
0000
0000
0000
0000
0000
0000
0000
0000
0000
0000
0000
0000
0000
0000
0000
0001
0000
0000
0000
0000
0000
0000
0000
0000
0000
0000
0000
0000
0000
0000
0000
0000
0000
0000
0000
0000
0000
0000
0000
0100
0000
0000
0000
0000
0000
0000
0000
0000
0000
0000
0000
0000
0000
0000
0000
0000
0000
0000
0000
0000
0000
0000
0000
0000
0000
0000
0000
0000
0000
0000
0000
0000
0000
0000
0000
0000
0000
0000
0000
0000
0000
0000
0000
0000
0000
0000
0000
0010
0000
0000
0000
0000
0000
0000
0000
0000
0000
0000
0000
0000
0000
0000
0000
0000
0000
0000
0000
0000
0000
0000
0000
1000
0000
0000
0000
0000
0000
0000
0000
0000
0000
0000
0000
,
0000
1000
0100
0010
0000
0000
0000
0100
0000
0000
0010
0000
0000
0000
1000
0000
,
0002
0000
0000
0000
0000
0000
0003
0200
0000
0000
0000
0320
0000
0000
0000
1030
,
0000
0000
0000
0002
0000
0000
0000
0000
0000
0000
2003
0000
0000
0000
0000
0000
,
0000
0000
3020
0000
0000
0000
0000
0000
0000
0200
0000
0000
0000
0000
0000
0000
,
0000
0030
0000
0300
0000
0000
0000
1000
0000
0000
0000
0100
0000
0000
0000
0010
,
0000
1000
0000
0000
0000
0000
0001
0000
0000
0000
0000
0100
0000
0000
0010
0000
,
0000
0000
0000
1001
0000
0000
0000
0100
0000
0110
0000
0000
0000
1000
0000
0101
,
0000
0000
0000
0000
1000
0000
0100
0000
0010
0000
0000
1000
0000
0001
0000
0100
,
0010
0100
0010
0100
0000
0000
0000
1000
0000
0000
0000
0001
0000
0000
0000
0100
,
0000
0020
0000
0000
0000
0000
0030
2000
0000
0000
0000
3002
0000
0000
0000
0203
,
0000
0000
0000
0320
0000
0000
0000
0000
0000
2030
0000
0000
0000
0000
0002
0000
,
0000
3000
0000
0200
0000
0000
0000
0000
0000
0000
0000
0000
0000
0000
0000
0000
,
0003
0000
0300
0000
0000
0000
0000
2000
0000
0000
0000
3200
0000
0000
0000
0320
,
0000
2030
0000
0000
0000
0000
0000
0000
0000
0000
3002
0000
0000
0000
0000
0000
,
0000
0000
0203
0000
0000
0000
0000
0000
0000
0000
0000
0300
0000
0000
0000
1100
,
0000
0000
0000
1001
0000
0000
0000
1010
0000
0000
0000
1000
0010
1000
0010
1000
,
0010
1000
0010
1000
0000
0000
0000
0100
0000
0000
0000
0001
0000
0000
0000
0100
,
0000
0000
0000
0010
0000
0000
0000
1000
0000
0001
0000
0000
0000
0100
0000
0010
,
0000
0000
0000
1000
0000
0000
0000
0100
0000
1000
0000
0000
0000
0100
0000
0010
,
0000
0000
0000
0100
0000
0000
0001
0000
1000
0000
0000
0000
0100
0000
0010
0000
,
0000
0000
0000
1001
0000
0000
0000
0110
0000
0000
0000
0011
0000
0000
0000
1100
,
0000
0000
0000
0110
0000
0000
0000
1001
0000
0000
0000
0100
0000
0000
0000
0011
,
0000
0000
0000
1000
0000
0000
0000
0000
0000
1000
0100
0010
0000
0000
0000
0000
,
0000
0100
1000
0001
0000
0000
0000
0000
0000
0100
0000
0000
0000
0000
0010
0000
,
0000
0000
0000
0000
0000
0000
0000
0000
0010
1000
0010
1000
0010
1000
0010
1000
,
0010
1000
0020
0000
0000
0000
0000
0000
0000
0030
0000
0000
1001
0000
0000
0000
,
0100
0000
0010
0000
1000
0000
0100
0000
0000
0002
0000
0000
0000
0000
0000
0000
,
0000
0000
0000
0000
0000
0000
0000
0003
2000
0000
0000
0000
3010
0000
0000
0000
,
0100
0002
0000
0000
2003
0000
0001
0000
,
0100
0001
0100
3001
,
1000
0000
0010
0000
0100
0001
0000
0000
,
1000
0000
0000
0000
0010
0000
0000
0100
0000
0000
0000
0000
1001
0000
0000
0000
,
0100
0000
0110
0000
0000
0000
1000
0000
0101
0000
0000
0000
0100
0000
0000
0010
,
0000
0100
0000
0001
0100
0001
0100
0001
0100
0001
0100
0001
0100
0000
0000
0000
,
1000
0001
0000
0100
0000
0020
0000
0000
,
0000
0000
0030
0000
1000
1000
2000
0000
,
0001
3000
0200
0000
0000
0000
0000
0000
0310
0000
0000
0000
2000
0000
0000
0000
,
0000
0000
3001
0000
0200
0000
0000
0000
0000
0000
0000
0000
0000
0300
0000
0000
,
0010
0000
0000
0000
1000
0000
0000
0000
0001
0000
0200
0000
0000
0000
0000
0310
,
0000
0000
0000
2000
0000
0000
0000
0000
3001
0000
0000
0200
0000
0000
0000
0000
,
0300
0010
0000
2000
0000
0000
3001
0000
0100
0000
0000
0000
0010
0000
1000
0000
,
0001
0000
0100
0000
0010
1000
0010
1000
0010
1000
0010
2000
0000
0000
0000
3001
,
0000
0200
0000
0000
0000
0300
0010
0000
0200
0000
0000
0000
0000
0000
0000
0000
,
0000
0000
0000
0300
0000
0000
0000
1000
0000
0010
0000
2000
0000
0000
0000
0000
,
3001
0000
0200
0000
0000
0000
0000
0310
0000
2000
0000
0000
0000
0000
0000
0000
,
0000
0000
0000
0000
3000
0000
0000
0001
0100
0010
0100
0002
0000
0000
0000
0000
,
0000
2003
0020
0000
0000
3000
0030
0100
0002
0000
0000
0000
0000
0000
0000
0000
,
0000
0003
0000
0000
1000
0000
0000
0000
0010
0000
0000
0000
0100
0000
0000
0001
,
0000
2000
0000
0000
0000
0000
3010
0000
0000
0000
0000
0200
0000
0000
0000
0000
,
0000
0000
0300
0001
0000
0000
0000
2000
0000
0020
0000
0000
0000
0000
0000
0000
,
0000
0000
0000
0000
0000
0000
0000
0000
0000
3030
0000
0000
0000
0000
0000
0000
;

//---------------dance-single - ----------------
#NOTES:
     dance-single:
     :
     Medium:
     9:
     0.434,0.578,0.175,0.481,0.634:
0000
2002
0000
0000
0000
0000
0000
0000
,
3003
0220
0000
0000
0000
0000
0330
0000
,
0000
0000
2002
0000
0000
0000
0000
0000
0000
0000
0000
0000
0000
0000
0000
3003
,
0000
0000
0000
0100
0000
0010
0000
1000
0000
0001
0000
0100
0000
0010
0000
0001
,
0000
0000
0000
0000
0000
0000
0000
1000
0000
0100
0000
0010
0000
0001
0000
0010
,
0000
0000
0000
0000
0000
0000
0000
0100
0000
0010
0000
1000
0000
0001
0000
0100
,
0000
0000
0000
0000
0000
0000
0000
1000
0000
0010
0000
0100
0000
0001
0000
0000
,
1000
0000
0000
0010
0000
0000
0000
0100
0000
0000
0001
0000
0000
0000
0000
0000
,
0000
0000
0002
0000
0000
0000
0000
0000
0000
0000
0000
2003
0000
0000
0000
0000
,
0000
0000
3002
0000
0000
0000
0000
0000
0000
0000
0000
2003
0000
0000
0000
0000
,
0000
0000
0000
3002
0000
0000
0000
0000
0000
0000
0000
0000
0000
0000
0000
0000
,
0000
0000
0000
0000
0000
0000
0000
0000
0000
0003
0000
0000
0000
0000
0000
0000
,
0000
0000
0000
0000
0000
0000
0000
1000
0000
0000
0000
0000
0010
0000
0000
0100
,
0000
0001
0000
0000
0000
0000
0000
1000
0000
0000
0000
0010
0000
0000
0000
0100
,
0000
0000
0000
0001
0000
0000
0000
0000
0000
0000
0000
1000
0000
0000
0000
0000
,
0000
0000
0000
1000
0000
0000
0000
0000
0000
1000
0000
0000
0000
0000
0000
1000
,
0000
0000
0000
0000
0000
0000
0010
0000
0000
0000
0000
0100
0000
0000
0000
0001
,
0000
1000
0000
0000
0000
0000
0000
0010
0000
0000
0000
0100
0000
0000
0000
0001
,
0000
0000
0000
2000
0000
0000
0000
0000
0000
3000
0002
0000
0000
0000
0000
0000
,
0000
0003
0000
0100
0000
0000
0000
0010
0000
2000
0000
0000
0000
0000
0000
0000
,
3000
0000
0000
0000
0000
0000
0000
0100
0000
0000
0000
0010
0000
0000
1000
0000
,
0000
0001
0000
0000
0000
0000
0000
0100
0000
0000
0000
0010
0000
0000
0100
0000
,
0000
0000
0001
0000
0000
0000
0000
0000
0000
0000
0000
1000
0000
0000
0000
0000
,
0000
0000
0000
0010
0000
0000
0000
0000
0000
0001
0000
0000
0000
0000
0000
0010
,
0000
0000
0000
0100
0000
0000
0001
0000
0000
0000
1000
0000
0000
0000
0000
0010
,
0100
0000
0000
0000
0000
0000
0000
0001
0000
0000
0000
0100
0000
0000
0000
0010
,
0000
0000
0000
0011
0000
0000
0000
0000
0000
0110
0000
0000
0000
0000
0000
1001
,
0000
0000
0000
0000
0000
0000
0010
0000
0000
0000
0000
0001
0000
0000
0000
0100
,
0000
0000
0000
1000
0000
0000
0000
0010
0000
0000
0000
0100
0000
0000
0000
0001
,
0000
1000
0000
0000
0000
0000
0000
0010
0000
0000
0000
0000
0100
0000
0000
0010
,
0000
0000
0001
0000
0000
0001
0000
0000
,
0001
0000
0000
0000
0002
0000
0000
0000
0000
0000
0000
0000
0000
0000
0000
0003
,
0000
0000
0000
0000
0000
0000
0000
1000
0000
0000
0000
0010
0000
0000
0000
0100
,
0000
0002
0000
0000
0000
0000
0000
0000
0003
0000
2000
0000
0000
0000
0000
0000
,
0000
0000
3000
0020
0000
0000
0000
0000
0000
0000
0000
0030
0000
0000
0000
0100
,
0000
0000
0000
0100
0000
0000
0000
0100
0000
0000
0000
1000
0000
0100
0000
0010
,
0000
0001
0000
0010
0000
0000
0000
0100
0000
0000
0000
0002
0000
0000
0000
0003
,
1000
0000
0000
0000
0020
0000
0000
0000
0000
0230
0000
0000
0000
0000
0300
0001
,
0000
0000
0000
2000
0000
0000
0000
0000
3000
0020
0000
0000
0000
0000
0130
0000
,
0000
0000
0002
0000
0000
0000
0003
1000
0020
0000
0000
0000
0000
0000
0000
0000
,
0030
0000
0000
0100
0000
0000
0000
0100
0000
0000
0000
0100
0000
0000
0000
0100
,
0000
0000
0000
0100
0000
0000
0000
0100
0000
0000
0000
0100
0000
0000
0000
0100
,
0000
0000
2002
0000
0000
0000
0000
0000
0000
3003
0220
0000
0000
0000
0000
0000
,
0000
0000
0330
2002
0000
0000
0000
0000
3003
0110
0000
0000
0000
0000
0002
0000
,
0000
0000
0000
0000
,
0000
0003
0000
0000
0000
0000
1000
0000
,
0010
0100
0000
0001
0000
2000
0000
0000
,
0000
0000
3000
0000
0010
0100
0001
0000
,
1000
0010
0000
0000
0100
0000
0001
0000
,
0010
0001
0010
1000
,
0001
0000
0000
0000
0100
0000
0000
0000
0010
0000
1000
0000
0000
0000
0000
0001
,
0000
0000
0000
0000
0100
0000
0000
0010
0000
0000
0000
1001
0000
0000
0000
0000
,
0000
0110
0000
0000
0001
0000
0000
0100
,
0000
0000
0010
1000
0001
0100
0010
0000
,
1000
0000
0001
0000
0000
0000
0000
0001
0000
0000
0002
0000
0000
0000
0000
0000
,
0000
0000
0003
0000
1000
0100
0010
0000
,
1000
0001
0000
0000
0100
0000
0010
0000
,
0000
1000
0002
0000
0000
0000
0003
0000
,
1000
0000
0100
0000
1000
0100
0000
0000
,
0010
0100
0010
1001
,
0000
0000
0110
0000
0000
0000
0000
0000
0011
0000
0000
0000
0000
0000
0000
1000
,
0000
0100
0000
0010
0000
0001
0000
0010
0000
0100
0000
1000
0000
0000
0000
0000
,
0000
0100
0000
0000
0020
0000
0000
0000
,
0000
0000
0000
0030
0000
0000
0000
0000
0100
0000
0100
0000
0200
0000
0000
0000
,
0000
0000
0302
0000
0000
0000
0000
0000
2000
0003
0000
0000
0000
0000
0000
0000
,
0000
0000
0000
3000
0000
0000
0000
0000
1000
0000
1000
0000
2000
0000
0000
0000
,
0000
0000
0000
3002
0000
0000
0000
0000
0203
0000
0000
0000
0000
0000
0000
0300
,
0000
1000
1000
0100
,
0010
0001
0000
0000
0010
0000
0100
0000
,
0000
0000
0000
0000
1000
0000
0000
0100
0000
0000
2020
0000
0000
0000
0000
0000
,
0000
0000
0000
0000
0000
0000
0000
0000
0000
0000
0000
0000
0000
0000
0000
0000
0000
0000
0000
0000
0000
0000
0000
0000
0000
0000
0000
0000
0000
0000
0000
0000
0000
0000
0000
0000
0000
0000
0000
0000
0000
0000
0000
0000
0000
0000
0000
0000
0000
0000
0000
0000
0000
0000
0000
0000
0000
0000
0000
0000
0000
0000
0000
0000
0000
0000
0000
0000
0000
0000
0000
0000
0000
0000
0000
0000
0000
0000
0000
0000
0000
0000
0000
0000
0000
0000
0000
0000
0000
0000
0000
0000
0000
0000
0000
0000
0000
0000
0000
0000
0000
0000
0000
0000
0000
0000
0000
0000
0030
3000
0000
0000
0000
0000
0000
0000
0000
0000
0000
0000
0000
0000
0000
0000
0000
0000
0000
0000
0000
0000
0000
0000
0000
0000
0000
0000
0000
0000
0000
0000
0000
0000
0000
0000
0000
0000
0000
0000
0000
0000
0000
0000
0000
0000
0000
0000
0000
0000
0000
0000
0000
0000
0000
0000
0000
0000
0000
0000
0000
0000
0000
0000
0000
0000
0000
0000
0000
0000
0000
0000
0000
0000
0000
0000
0000
0000
0000
0000
0000
0000
0000
0000
;

//---------------dance-single - ----------------
#NOTES:
     dance-single:
     :
     Easy:
     7:
     0.326,0.347,0.000,0.448,0.519: // measure 1
0000
2000
0000
0000
0000
0000
0000
0000
0000
0000
0000
0000
0000
0000
0000
3000
,  // measure 2
0000
0002
0000
0000
0000
0000
0000
0000
,  // measure 3
0003
0000
0000
2000
0000
0000
0000
0000
0000
0000
0000
0000
0000
0000
0000
3000
,  // measure 4
0000
0000
0000
0010
0000
0000
0000
0100
0000
0000
0000
0001
0000
0000
0000
1000
,  // measure 5
0000
0000
0020
0000
0000
0000
0000
0000
0000
0000
0000
0000
0000
0000
0000
0030
,  // measure 6
0000
0000
0000
2000
0000
0000
0000
0000
0000
0000
0000
0000
0000
0000
0000
0000
,  // measure 7
3000
0000
0000
0002
0000
0000
0000
0000
0000
0000
0000
0000
0000
0000
0000
0003
,  // measure 8
0000
0000
0000
1000
0000
0000
0000
0100
0000
0000
0000
0010
0000
0000
0000
0001
,  // measure 9
0000
0000
0000
0002
0000
0000
0000
0000
0000
0000
0003
2000
0000
0000
0000
0000
,  // measure 10
0000
0000
3000
0020
0000
0000
0000
0000
0000
0000
0030
0200
0000
0000
0000
0000
,  // measure 11
0000
0000
0300
0002
0000
0000
0000
0000
0000
0000
0000
0000
0000
0000
0000
0000
,  // measure 12
0000
0000
0000
0003
0000
0000
0000
0000
0000
0000
0000
0000
0000
0000
0000
1000
,  // measure 13
0000
0000
0001
0000
0000
0000
0000
0000
0010
0000
0000
0010
0000
0000
0000
0001
,  // measure 14
0000
0000
0000
0000
0000
0000
0000
0010
0000
0000
0000
0100
0000
0000
0000
0001
,  // measure 15
0000
0000
0000
1000
0000
0000
0000
0000
0000
0000
0000
0100
0000
0000
0000
0000
,  // measure 16
0000
0000
0000
1000
0000
0000
0000
0000
0000
1000
0000
0000
0000
0000
0000
1000
,  // measure 17
0000
0000
0010
0100
,  // measure 18
0000
0001
0000
0000
0010
0000
0001
0000
,  // measure 19
0010
0000
0000
0100
0000
0000
0000
0000
0000
0000
0000
0100
0000
0000
0000
0000
,  // measure 20
0000
0000
0000
0100
0000
0000
0000
0000
0000
1000
0000
0000
0000
0000
0000
0010
,  // measure 21
0000
0000
0000
0100
0000
0000
0000
0000
0000
0000
0000
0001
0000
0000
0000
0010
,  // measure 22
0000
0000
0000
0001
0000
0000
0000
0010
0000
0000
0000
0001
0000
0000
0000
0010
,  // measure 23
0000
0000
0000
0100
0000
0000
0000
0000
0000
0000
0000
0100
0000
0000
0000
0000
,  // measure 24
0000
0000
0000
0100
0000
0000
0000
0000
0000
0100
0000
0000
0000
0000
0000
0000
,  // measure 25
0000
0000
0000
0000
0000
0000
0000
1000
0000
0000
0000
0010
0000
0000
0000
0100
,  // measure 26
0000
0001
0000
0000
0000
0000
0000
0010
0000
0000
0000
0000
0000
0000
0000
0001
,  // measure 27
0000
0000
0000
0010
0000
0000
0000
0000
0000
0010
0000
0000
0000
0000
0000
0010
,  // measure 28
0000
0000
0000
0000
,  // measure 29
0000
0000
0000
0000
0000
0000
0000
1000
0000
0000
0000
0001
0000
0000
0000
0100
,  // measure 30
0000
0010
0000
0000
0001
0000
0000
0000
0001
0000
0000
0000
0001
0000
0000
0000
,  // measure 31
0001
0000
0000
0000
0001
0000
0000
0000
0000
0000
0000
0000
0000
0000
0000
1000
,  // measure 32
0000
0000
0000
2000
0000
0000
0000
0000
0000
0000
0000
0000
0000
0000
0000
0000
,  // measure 33
3000
0000
0000
0000
0000
0000
0000
0001
0000
0000
0000
0000
0010
0000
0000
0100
,  // measure 34
0000
0001
0000
0000
0000
0000
0000
0000
0000
0000
0000
0001
0000
0000
0000
0000
,  // measure 35
0000
0000
0000
0002
0000
0000
0000
0000
0000
0000
0000
0000
0003
0000
0000
1000
,  // measure 36
0000
0000
0000
1000
0000
0000
0000
1000
0000
0000
0000
1000
0000
0000
0000
2000
,  // measure 37
0000
0000
3000
0010
,  // measure 38
0100
0000
0001
0000
0000
0001
0000
0000
,  // measure 39
0010
0000
0000
0000
0100
0000
0000
0000
0000
0001
0000
0000
0000
0000
0000
0001
,  // measure 40
0000
0000
0000
0010
0000
0000
0000
0100
0000
0001
0000
0000
0000
0000
0000
0000
,  // measure 41
0000
0000
0000
2000
0000
0000
0000
0000
3000
0020
0000
0000
0000
0000
0030
0200
,  // measure 42
0000
0000
0000
0000
0000
0000
0000
0300
0000
0000
0000
1000
0000
0100
0000
0010
,  // measure 43
0000
0001
0000
0010
0000
0000
0000
0000
0000
0000
0000
0020
0000
0000
0000
0000
,  // measure 44
0000
0000
0030
0000
0200
0000
0000
0000
0300
0000
0100
0000
0000
0000
0000
0200
,  // measure 45
0000
0000
0000
0000
,  // measure 46
0000
0000
0000
0000
0000
0300
0000
0000
,  // measure 47
0000
1000
0000
0000
0000
0000
1000
0000
0000
0000
2000
0000
0000
0000
0000
0000
,  // measure 48
0000
0000
0000
0000
0000
3000
0000
0000
0000
0010
0000
0000
0000
0010
0000
0000
,  // measure 49
1000
0001
0000
0000
0100
0000
0200
0000
,  // measure 50
0000
0000
0300
0010
2000
0000
0000
0000
0000
0000
0000
0000
3000
0000
0000
0000
,  // measure 51
0100
0000
0100
0000
1000
0100
0000
0000
,  // measure 52
0010
0100
0001
0002
,  // measure 53
0000
0003
2000
0000
0000
0000
0000
0000
3000
2000
0000
0000
0000
0000
0000
0000
,  // measure 54
0000
0000
0000
3000
0000
0000
0100
0000
,  // measure 55
0000
1000
0000
0100
0000
0020
0000
0000
,  // measure 56
0000
0000
0000
0030
0000
0000
0000
0000
1000
0000
0100
0000
0001
0000
0000
0000
,  // measure 57
0000
0000
0010
0002
,  // measure 58
0000
0003
1000
0000
0020
0000
0000
0000
0000
0000
0000
0000
0000
0030
0000
0000
,  // measure 59
0100
0000
0001
0000
1000
0010
0000
0000
,  // measure 60
0100
0000
0000
0000
0001
0000
0000
1000
0000
0000
0000
0000
0002
0000
0000
0000
,  // measure 61
0000
0003
2000
0000
0000
0000
0000
3000
0000
0002
0000
0000
0000
0000
0000
0000
,  // measure 62
0000
0000
0000
0003
0000
0000
0000
0000
0000
0000
0000
0000
0200
0000
0000
0000
,  // measure 63
0000
0300
0020
0000
0000
0000
0000
0030
0200
0000
0000
0000
0000
0000
0000
0000
,  // measure 64
0000
0300
0000
0000
0000
0000
0000
0000
0000
0000
0000
0000
0000
0010
0000
0000
,  // measure 65
0000
0000
0000
0001
0000
0000
0000
0000
2000
0000
0000
0000
0000
0000
0000
0000
,  // measure 66
0000
3000
0000
0000
0000
0000
0000
0000
0000
0000
0000
0000
2000
0000
0000
0000
,  // measure 67
3000
0000
2000
0000
0000
0000
0000
3000
0000
2000
0000
0000
0000
0000
0000
3000
,  // measure 68
0000
0000
0000
0000
0100
0000
0000
0000
0000
0010
0000
0000
1000
0000
0000
0000
,  // measure 69
0000
0001
0000
0000
0100
0000
0010
0000
,  // measure 70
0000
0000
1000
0000
0002
2000
0000
0000
,  // measure 71
0000
0000
0000
0000
0000
0000
0000
0000
0000
0000
0000
0000
0000
0000
0000
0000
0000
0000
0000
0000
0000
0000
0000
0000
0000
0000
0000
0000
0000
0000
0000
0000
0000
0000
0000
0000
0000
0000
0000
0000
0000
0000
0000
0000
0000
0000
0000
0000
0000
0000
0000
0000
0000
0000
0000
0000
0000
0000
0000
0000
0000
0000
0000
0000
0000
0000
0000
0000
0000
0000
0000
0000
0000
0000
0000
0000
0000
0000
0000
0000
0000
0000
0000
0000
0000
0000
0000
0000
0000
0000
0000
0000
0000
0000
0000
0000
0000
0000
0000
0000
0000
0000
0000
0000
0000
0000
0000
0000
0000
0000
3003
0000
0000
0000
0000
0000
0000
0000
0000
0000
0000
0000
0000
0000
0000
0000
0000
0000
0000
0000
0000
0000
0000
0000
0000
0000
0000
0000
0000
0000
0000
0000
0000
0000
0000
0000
0000
0000
0000
0000
0000
0000
0000
0000
0000
0000
0000
0000
0000
0000
0000
0000
0000
0000
0000
0000
0000
0000
0000
0000
0000
0000
0000
0000
0000
0000
0000
0000
0000
0000
0000
0000
0000
0000
0000
0000
0000
0000
0000
0000
0000
0000
;

//---------------dance-single - ----------------
#NOTES:
     dance-single:
     :
     Beginner:
     4:
     0.200,0.194,0.000,0.240,0.235:
0000
0000
2000
0000
0000
0000
0000
0000
0000
0000
0000
0000
0000
0000
0000
3000
,
0000
0000
0000
0002
0000
0000
0000
0000
0000
0000
0000
0000
0000
0000
0000
0000
,
0000
0003
0000
2000
0000
0000
0000
0000
0000
0000
0000
0000
0000
0000
0000
3000
,
0000
0000
0000
0100
0000
0000
0000
0000
1000
0000
0000
0000
0100
0000
0000
0000
,
0000
0010
0000
0000
,
0000
0000
0000
0002
0000
0000
0000
0000
0000
0000
0000
0000
0000
0000
0003
0000
,
0000
0000
0000
2000
0000
0000
0000
0000
0000
0000
0000
0000
0000
0000
3000
0000
,
0000
0010
0100
0010
,
0000
0200
0000
0000
,
0000
0300
0000
2000
0000
0000
0000
0000
0000
0000
0000
0000
0000
0000
3000
0000
,
0000
0000
0000
0000
0002
0000
0000
0000
0000
0000
0000
0000
0000
0000
0000
0003
,
0000
0000
1000
0000
,
0000
0100
0000
1000
,
0000
0000
0000
0001
0000
0000
0000
0000
0000
0000
0000
0000
0100
0000
0000
0000
,
0000
0000
0000
0010
0000
0000
0000
0000
0000
0000
0000
0000
0001
0000
0000
0000
,
0000
0001
0000
0000
,
0001
0000
0100
0000
,
0000
1000
0000
0000
0000
0000
0000
0000
0000
0000
0000
0000
0000
0000
0000
0000
,
0000
0010
0000
1000
,
0000
0001
0000
0100
,
0000
0010
0000
1000
,
0000
1000
0000
0001
,
0000
0001
0000
0100
,
0000
0100
0000
0010
,
0000
0000
0000
0010
0000
0000
0000
0000
0000
0000
0000
0000
1000
0000
0000
0000
,
0000
1000
0000
0001
,
0000
0000
0000
0001
0000
0000
0000
0000
0000
0000
0000
0000
0000
0000
0000
0000
,
0200
0000
0000
0000
,
0300
0000
0000
1000
,
0000
0000
0000
0001
0000
0000
0000
0000
0000
0000
0000
0000
1000
0000
0000
0000
,
0000
0010
0000
1000
,
0000
0001
0000
0100
,
0000
1000
0000
0001
,
0000
0000
0000
0000
0100
0000
0000
0000
0000
0000
0000
1000
0000
0000
0000
0000
,
0000
0000
0000
0000
0020
0000
0000
0000
0000
0000
0000
0000
0000
0000
0000
0030
,
0000
0000
0000
0000
,
0000
1000
0000
0001
,
0000
0001
0000
1000
,
0000
1000
0000
0010
,
0000
0010
0000
0100
,
0000
0100
0000
0100
,
0000
0000
0000
1000
0000
0000
0000
0000
0000
0000
0000
0000
1000
0000
0000
0000
,
0000
0000
2000
0000
0000
0000
0000
3000
,
0000
0000
0000
0002
0000
0000
0000
0000
0000
0000
0000
0000
0000
0000
0000
0000
,
0003
0000
0000
0000
,
0000
0000
2000
0000
0000
0000
0000
0000
0000
3000
0000
0000
0000
0100
0000
0000
,
0000
0000
0000
0100
0000
0000
0000
0100
0000
0000
0000
2000
0000
0000
0000
0000
,
0000
0000
0000
0000
0000
0000
3000
0000
0000
0000
0000
0000
0000
0100
0000
0000
,
0000
0000
0000
0000
0000
1000
0000
0000
0000
0000
0000
0000
0000
0020
0000
0000
,
0000
0000
0000
0000
0000
0000
0000
0000
0000
0000
0000
0000
0000
0030
0000
0000
,
0000
0000
0000
0000
0000
0100
0000
0000
0000
0000
0000
0000
0000
1000
0000
0000
,
0000
0000
0000
0000
0000
0100
0000
0000
0000
0000
0000
0000
0000
1000
0000
0000
,
0000
0000
0000
0000
0100
0000
0000
0000
0000
0000
0000
0000
0000
0002
0000
0000
,
0000
0000
0000
0000
0000
0000
0000
0000
0000
0000
0000
0000
0000
0003
0000
0000
,
0000
0000
0000
0000
0000
2000
0000
0000
,
0000
0000
0000
0000
0000
3000
0000
0000
0000
0000
0000
0000
0000
0100
0000
0000
,
0000
0000
0000
0000
0000
0010
0000
0000
0000
0000
0000
0000
0000
0010
0000
0000
,
0000
0000
0000
0000
0000
0002
0000
0000
0000
0000
0000
0000
0000
0003
0000
0000
,
0000
0000
0000
0000
0000
0100
0000
0000
0000
0000
0000
0000
0000
1000
0000
0000
,
0000
0000
0000
0000
0000
0100
0000
0000
0000
0000
0000
0000
0000
0000
0000
0000
,
0000
0000
0000
0000
0100
0000
0000
0000
0000
0000
0000
0000
0000
1000
0000
0000
,
0000
0000
0000
0000
0000
0001
0000
0000
0000
0000
0000
0000
0000
0010
0000
0000
,
0000
0000
0020
0000
,
0000
0000
0000
0030
0000
0000
0000
0000
0000
0000
0000
0000
0000
1000
0000
0000
,
0000
0000
2000
0000
,
0000
0000
0000
3000
0000
0000
0000
0000
0000
0000
0000
0000
0000
0010
0000
0000
,
0000
0000
0002
0000
,
0003
0000
0000
0000
0000
0000
0000
0000
0000
0000
0000
0000
0000
0100
0000
0000
,
0000
0000
0000
0000
0000
0010
0000
0000
0000
0000
0000
0000
0000
1000
0000
0000
,
0000
0000
0000
0000
0000
0001
0000
0000
0000
0000
0000
0000
2000
0000
0000
0000
,
0000
0000
0000
0000
,
3000
0000
0000
0000
;
