#TITLE:Almagest;
#SUBTITLE:;
#ARTIST:Galdeira;
#TITLETRANSLIT:;
#SUBTITLETRANSLIT:;
#ARTISTTRANSLIT:;
#GENRE:;
#CREDIT:;
#BANNER:Almagest.png;
#BACKGROUND:Almagest-bg.png;
#LYRICSPATH:;
#CDTITLE:;
#MUSIC:Almagest.mp3;
#OFFSET:-0.124;
#SAMPLESTART:0.050;
#SAMPLELENGTH:12.000;
#SELECTABLE:YES;
#BPMS:0.000=178.000
,112.500=356.000
,118.500=178.000
,148.000=356.000
,152.000=178.000
;
#STOPS:47.250=0.084,
47.500=0.084,
118.500=0.169
;
#BGCHANGES:;
#KEYSOUNDS:;
#ATTACKS:;

//---------------dance-single - ----------------
#NOTES:
     dance-single:
     :
     Hard:
     18:
     1.000,1.000,0.756,0.328,1.000,739.000,76.000,33.000,0.000,0.000,0.000,1.000,1.000,0.756,0.328,1.000,739.000,76.000,33.000,0.000,0.000,0.000:
0000
0000
0000
0000
,
0000
0000
0000
0000
,
0000
0000
0000
0000
0100
0010
0100
1000
0010
0100
1000
0100
0001
0010
0100
0010
,
1000
0100
0001
0010
0100
0010
1000
0010
0100
0001
0010
1000
0001
0010
0100
1000
,
0100
1000
0100
0010
0100
0010
0001
0010
0100
0010
1000
0010
0100
0001
0010
1000
,
0100
0010
0001
0010
1000
0010
0100
1000
0010
1000
0001
0010
0100
0001
0010
0001
,
0100
0010
0001
0100
1000
0010
1000
0100
0001
0010
0001
1000
0100
0010
0100
0000
,
0010
0100
0010
0000
1000
0001
1000
0000
0001
0010
0001
0000
0100
1000
0010
0000
,
0110
0110
1001
1001
0110
0110
0011
0011
,
0110
0000
0110
0000
0100
0010
0100
0010
0100
0010
0100
0010
0100
0010
0100
0010
,
0100
0010
0110
0000
1000
0100
1000
0100
0010
0100
0010
0001
0010
0001
0010
0100
,
0010
0100
1000
0100
1000
0100
0010
0100
0010
0001
0010
0000
0100
1100
0011
0110
,
0000
0000
0001
0100
1000
0000
0100
0000
0010
0000
0001
0000
0100
0000
0010
0000
,
0100
0000
0001
0010
1000
0000
0100
0000
0010
0000
0001
0000
0100
0000
0010
0000
,
0100
0000
0110
0010
0100
0000
0001
0000
0100
0000
1000
0000
0100
0000
0010
0000
,
0001
0100
0010
0100
0001
1000
0100
0010
,
0001
0000
0101
0000
0100
0000
0010
0000
0100
0000
0002
0010
0103
2000
0100
3010
,
0001
0000
0001
0000
0100
0000
0010
0000
0100
0000
0002
0100
0013
2000
0100
3001
,
2000
0010
3100
0000
0010
0000
0001
0000
0100
0000
0010
0000
0100
0000
0001
0000
,
0100
0110
0110
0010
0110
0100
0110
0100
,
0101
0000
0101
0000
0100
0000
0010
0000
2000
0100
3001
0020
0100
1030
0001
0000
,
0100
0000
0010
0000
1000
0000
0100
0000
0010
0000
0002
1000
0013
1000
0200
0010
,
1300
0100
0010
0001
0100
0010
1000
0001
,
0101
0100
0110
1000
1010
0010
1000
0001
,
1000
0010
0100
0010
1000
0010
0100
0010
,
0001
0101
0100
0010
0100
0010
0100
0010
,
1000
1010
0100
0010
0100
0110
0010
0001
,
0010
0000
0011
0000
0100
0000
0010
0000
0100
0000
0010
1000
0100
0010
0001
0010
,
0100
0010
2002
0000
0000
0000
0000
0000
0000
0000
0000
0000
0000
0000
0000
0000
,
0000
0000
0000
0000
3003
0110
1000
0100
,
0010
0000
0100
0000
0001
0000
0100
0000
0010
0000
1000
0000
1000
0000
1000
0100
,
0010
0100
0010
0001
0100
0010
0100
0010
0101
0000
0000
0000
0100
0000
0100
0000
,
0010
0000
0010
0000
1000
0000
1000
0000
0010
0000
0010
0000
1000
0100
1000
0100
,
0001
0010
0001
0010
0100
1000
0100
1000
0010
0100
0010
0100
1001
0000
1001
0000
,
1000
0000
0001
0000
0100
0000
0001
0000
0100
0000
0010
0000
1000
0010
0100
1000
,
0100
1000
0010
0100
0010
0100
0010
0100
0001
0010
0001
0100
0010
0100
0110
0000
,
0100
0010
0110
0000
1000
0001
1001
0000
0010
0100
0110
0000
2002
0000
0000
0000
,
0000
0000
0000
0000
0000
0000
0000
3003
,
0110
0000
0000
0000
1000
0100
1000
0100
1000
0100
0010
0100
0010
0100
0010
0100
,
1000
0100
1000
0100
0001
0010
1000
0010
1000
0010
1000
0001
0010
1000
0010
1000
,
1010
0100
0101
0101
0100
0010
0100
0010
,
0100
0000
0010
0000
0001
0010
0001
0100
0001
1000
0001
1000
0001
0100
0001
0010
,
0001
0010
0100
0001
1010
0000
1010
0000
0100
0000
0001
0000
0100
0000
0001
0000
,
0100
0010
1010
0100
0001
0100
0010
0100
,
0001
0000
0100
0010
0110
0000
0200
0010
0301
0000
0100
0000
0101
0000
0100
0000
,
0010
0000
0100
0000
0110
0000
1000
0100
0010
0000
1000
0000
1010
0000
0100
0000
,
0010
0000
0100
0000
1000
0000
1000
0000
0100
0000
0100
0000
0010
1000
0010
0100
,
0001
0010
0001
0100
1000
0100
1000
0010
0100
1000
0010
0100
0001
0010
0001
0100
,
0010
1000
0010
0000
0201
0000
0010
0000
0010
0000
0001
0000
0010
0000
0001
0000
,
0010
0010
0302
0100
1000
0100
1000
0100
,
1000
0103
2010
0010
0001
0010
0001
0010
,
0001
3010
0102
0100
1000
0103
2010
0010
,
0001
3010
0201
0010
0001
0010
0001
0010
,
0001
0310
2001
0010
0100
0010
0001
0100
,
0010
3001
0102
0100
1000
0100
0010
0100
,
0010
1003
2010
0010
0001
0100
3020
0000
,
0200
0030
2300
0100
0010
0100
0001
0100
,
0010
3100
0102
0100
1000
0100
0010
0100
,
0010
1003
2010
0100
0001
0100
0010
0100
,
3001
0000
1020
0000
0100
0030
0101
0000
0100
0000
1001
0000
0100
0000
0010
0000
,
0100
0010
1001
0200
0010
0001
0010
0001
,
0010
0301
2010
0010
0001
0010
0001
0010
,
0001
3010
0210
0001
0010
0001
0010
0001
,
0010
0301
0021
0001
0100
0001
0100
0001
,
1000
0030
0000
0000
0000
0000
0000
0000
0000
0000
0000
0000
0000
0000
0000
0000
0000
0000
0000
0000
0000
0000
0000
0000
0100
0000
0000
0000
0000
0000
0000
0000
0000
0000
0000
0000
0000
0000
0000
0000
0000
0000
0000
0000
0000
0000
0000
0000
1001
0000
0000
0000
0000
0000
0000
0000
0000
0000
0000
0000
0010
0000
0000
0000
0000
0000
0000
0000
0000
0000
0000
0000
0100
0000
0000
0000
0000
0000
0000
0000
0000
0000
0000
0000
1000
0000
0000
0000
0000
0000
0000
0000
0000
0000
0000
0000
0010
0000
0000
0000
0000
0000
0000
0000
0000
0000
0000
0000
0001
0000
0000
0000
0000
0000
0000
0000
0000
0000
0000
0000
0100
0000
0000
0000
0000
0000
0000
0000
0000
0000
0000
0000
0010
0000
0000
0000
0000
0000
0000
0000
0000
0000
0000
0000
0001
0000
0000
0000
0000
0000
0000
0000
0000
0000
0000
0000
0010
0000
0000
0000
0000
0000
0000
0000
0000
0000
0000
0000
1000
0000
0000
0000
0000
0000
0000
0000
0000
0000
0000
0000
0010
0000
0000
0000
0000
0000
0000
0000
0000
0000
0000
0000
,
0100
1000
0010
0001
0010
1000
0100
0001
0010
0100
1000
0001
0100
1000
0010
0100
,
1001
0000
1001
0000
1001
0000
1000
0000
1001
1000
0100
0001
0010
1000
0100
0001
,
0010
0001
0100
1000
0010
0001
1000
0010
0100
0001
0010
0100
0001
0010
0100
1000
,
0010
0001
1000
0010
1001
0000
0100
1000
0010
0001
1000
0010
0100
1000
0010
0100
,
0001
0010
0100
0001
1000
0010
0100
0001
0010
0100
0001
0010
0001
0010
0001
0100
,
0010
0100
0010
0100
0010
1000
0010
0100
0001
0010
1000
0100
1000
0100
1000
0100
,
1000
0100
0010
0100
0010
0100
0010
0100
0010
0001
0010
0001
0010
0001
0010
0001
,
0100
1000
0001
1000
1001
0000
1001
0000
1001
0000
0000
0000
0000
0000
0000
0000
;

//---------------dance-single - ----------------
#NOTES:
     dance-single:
     :
     Medium:
     12:
     0.611,0.613,0.119,0.189,0.000,399.000,12.000,19.000,0.000,0.000,0.000,0.611,0.613,0.119,0.189,0.000,399.000,12.000,19.000,0.000,0.000,0.000:
0000
0000
0000
0000
,
0000
0000
0000
0000
,
0000
0000
1000
0100
0010
0001
0010
0100
,
1000
0100
0010
0100
0010
0100
1000
0100
,
0010
0001
0100
0010
0100
0010
1000
0100
,
0010
0001
0100
0010
0100
0010
1000
0100
,
0010
0001
0001
0001
1000
1000
0010
0010
,
0100
0100
0001
0001
1000
1000
0010
0010
,
0100
0100
0001
0010
0100
1000
0100
0010
,
0001
0010
0100
1000
0100
0010
0100
0010
,
0100
0000
1000
0010
1000
0000
0100
0010
,
0100
0000
1000
0001
0100
0000
1000
0001
,
0100
0010
0000
1000
0000
0010
0000
0100
,
0000
1000
0100
0010
0000
0100
0010
0100
,
0000
0001
0010
0100
0000
1000
0100
0010
,
0000
0001
0010
0100
1000
0100
0010
0001
,
0000
0100
0010
0100
0000
1000
0100
0010
,
0000
1000
0001
1000
0000
1000
0100
0010
,
0000
0001
0010
0100
0000
0010
0100
0001
,
0000
1000
0100
0010
0001
0100
0010
0100
,
0001
1001
0000
0100
0010
0100
0010
0100
,
0010
1000
0100
0010
0001
0010
0100
1000
,
0100
0001
0000
0100
0010
0100
0000
1000
,
1001
0000
0100
0000
0010
0000
0100
0001
,
1000
1001
0000
0100
0010
0100
0010
0100
,
0010
1000
0000
0100
0001
0100
0010
0100
,
0010
1010
0100
0001
0100
0101
0100
0010
,
0100
0110
0000
1000
0000
0001
1000
0001
,
0000
2000
0000
0000
0000
0000
0000
0000
,
0000
0000
0000
0000
0000
3001
0100
0000
,
0010
0000
0100
0000
0010
0000
1000
0100
,
0010
0001
0010
0100
1000
0000
0100
0010
,
0100
0010
0100
0010
0100
0000
1000
0100
,
0010
0000
0001
0001
0010
0010
0100
0010
,
0100
0000
1000
0100
0010
0000
0001
0010
,
0100
1000
0100
0010
0001
0010
0100
0000
,
1000
0100
0010
0001
0100
0010
2000
0000
,
0000
0000
0000
0000
,
3000
0100
0010
0100
,
0010
0000
1000
0100
0010
0001
0010
0100
,
1000
0000
0100
0010
0100
0000
0100
0010
,
0100
0000
0001
0010
0100
1000
0100
0010
,
0001
0010
0100
0010
0100
0000
1000
0100
,
0010
0000
0100
0010
0100
0010
0001
0010
,
0100
0000
0100
0010
0100
0010
1000
0100
,
0010
0001
0100
0010
0100
0010
1000
0100
,
0010
0001
0100
0010
0100
0010
2000
0000
,
0000
3000
0001
0000
0100
0000
0010
1000
,
0010
2000
0000
0010
,
0010
3000
0002
0000
0000
0000
0100
0000
,
0100
0003
2000
0000
0000
0000
0010
0000
,
0010
3000
0002
0000
0000
0000
0203
0000
,
0000
0000
0320
0000
0000
0030
2000
0000
,
0010
0020
0030
3002
,
0100
0000
0200
0000
0000
0303
2000
0000
,
0010
3000
2000
0000
0000
3020
0000
0000
,
0000
0000
0230
0000
0000
0300
0001
0000
,
0001
0002
0000
0100
,
0100
2003
0000
0010
,
0010
3000
0001
0000
0100
0000
1000
0000
,
0100
1001
0100
0010
,
0100
1001
0100
0010
,
0001
0000
1000
1000
0100
0100
0010
0010
,
0001
0001
0010
0000
0100
0000
1000
0100
,
0010
0001
0100
0000
0010
0000
1000
0000
,
0100
0000
0010
0000
0001
0000
0010
0100
,
0010
0000
1001
0000
1001
0000
0100
0010
,
0100
0000
1000
0100
0010
0001
0010
0100
,
1000
0100
1001
0000
0100
0000
0010
0100
,
0010
0000
1000
0100
0010
0001
0010
0100
,
1000
0100
0010
0000
0100
0000
1000
0100
,
0010
0001
0010
0100
1000
0100
0010
0100
,
0010
0100
0001
1000
1001
0000
0000
0000
;

//---------------dance-single - ----------------
#NOTES:
     dance-single:
     :
     Easy:
     6:
     0.365,0.397,0.109,0.209,0.000,225.000,11.000,21.000,0.000,0.000,0.000,0.365,0.397,0.109,0.209,0.000,225.000,11.000,21.000,0.000,0.000,0.000:
0000
0000
0000
0000
,
0000
0000
0000
0000
,
0000
1000
0010
0100
,
0001
1000
0100
0010
,
0001
0010
0100
1000
,
0100
0010
0001
0100
,
0001
0000
1000
0001
1000
0000
0010
0000
,
0010
0000
0001
1000
0001
0000
0100
0000
,
0100
0010
1000
0010
,
0100
1000
0100
0010
,
0001
1000
1000
0001
,
0001
0001
1000
0001
,
0000
1000
0000
0010
0000
0100
0000
0010
,
0000
1000
0000
1000
0000
1000
0000
1000
,
0000
0001
0000
0001
0000
0001
0000
0001
,
0000
1000
0000
0100
0000
0010
0000
0001
,
0000
0100
0000
0100
0000
0010
0000
0010
,
0000
1000
0000
1000
0000
0001
0000
0001
,
0000
1000
0000
1000
0000
0010
0000
0010
,
0000
1000
0000
0100
0000
0010
0000
1000
,
0000
1001
0000
0100
0000
0010
0000
0100
,
0000
1001
0000
0100
0000
0010
0000
0100
,
0000
1001
0000
0010
0000
0001
0000
0010
,
0100
0000
0010
0000
1000
0000
0000
0001
,
0000
1000
0000
0001
0000
0001
0000
0001
,
0000
1000
0000
0010
0000
1000
0000
0010
,
0000
1001
0000
0100
0000
0110
0000
0001
,
0000
1001
0000
0100
0000
0010
0000
0100
,
0000
2000
0000
0000
0000
0000
0000
0000
,
0000
0000
0000
0000
0000
3001
0100
0000
,
0010
0100
0010
1000
,
0100
0010
0001
0100
,
0010
0100
0010
0001
,
0010
0100
1000
0100
,
0100
0010
0010
1000
,
0001
1000
0001
1000
,
0100
0010
0100
0002
,
0000
0000
0000
0000
,
0003
0100
0010
0100
,
0010
0000
1000
0000
1000
0000
1000
0100
,
0010
0001
0001
0001
,
0001
0010
0010
0100
,
1000
0100
0010
0001
,
0010
1000
0010
0100
,
0001
1000
1000
1000
,
1000
0001
0001
0001
,
0001
0000
1000
0000
0001
0000
1000
0001
,
0000
2002
0000
0000
0000
0000
0000
0000
,
3003
2000
0000
0000
,
3000
0002
0000
0000
,
0003
0000
0200
0000
0000
0000
0000
0300
,
0000
0020
0000
0030
,
0000
2000
0000
3000
,
0000
0002
0000
0003
,
0000
0000
2000
0000
0000
0000
0000
3000
,
0000
0020
0000
0000
0000
0000
0000
0030
,
0000
0200
0000
0300
,
0000
0002
0000
0000
0000
0000
0003
0000
,
0000
2000
0000
0000
0000
0000
0000
3000
,
0000
0020
0000
0000
0000
0030
0200
0000
,
0000
0300
0002
0000
0003
0000
0000
0000
,
0000
2000
0000
3000
,
0000
0000
0002
0000
0000
0000
0000
0003
,
0000
2000
0000
3000
,
0000
1001
0000
0000
,
0010
0100
0010
0001
,
1000
0001
1001
0100
,
0010
0001
1000
0001
,
0100
1001
0100
0010
,
0100
0000
0001
0000
1000
0000
0001
1000
,
0001
0000
0100
0000
0010
0000
1000
0001
,
1000
0010
0100
0001
,
1000
0001
1001
0000
;

//---------------dance-single - ----------------
#NOTES:
     dance-single:
     :
     Beginner:
     2:
     0.125,0.144,0.060,0.040,0.000,78.000,6.000,4.000,0.000,0.000,0.000,0.125,0.144,0.060,0.040,0.000,78.000,6.000,4.000,0.000,0.000,0.000:
0000
0000
0000
0000
,
0000
0000
0000
0000
,
0000
0001
0000
0000
,
0000
0100
0000
0000
,
0000
1000
0000
0000
,
0000
0010
0000
0000
,
0000
0001
0000
0000
,
0000
1000
0000
0000
,
0000
0100
0000
0000
,
0000
0010
0000
0000
,
0000
1000
0000
0000
,
0000
0001
0000
1000
,
0000
0000
0000
0000
,
0000
0010
0000
0000
0000
0000
0000
0000
,
0000
0010
0000
0000
0000
0000
0000
0000
,
0000
0100
0000
0000
0000
0100
0000
0000
,
0000
0100
0000
0000
0000
0000
0000
0000
,
0000
0001
0000
0000
0000
0000
0000
0000
,
0000
1000
0000
0000
0000
0000
0000
0000
,
0000
0100
0000
0000
0000
0000
0000
0000
,
0010
0000
0000
0000
,
1000
0000
0000
0000
,
0000
0001
0000
0000
0000
0000
0000
0000
,
0000
0000
0000
0000
,
0000
1001
0000
0000
0000
0000
0000
0000
,
0000
1001
0000
0000
0000
0000
0000
0000
,
0000
1001
0000
0000
0000
0000
0000
0000
,
0000
1001
0000
0000
0000
0000
0000
0000
,
0000
2000
0000
0000
0000
0000
0000
0000
,
0000
0000
0000
0000
0000
3000
0000
0000
,
0000
0000
0000
0001
,
0000
0001
0000
0001
,
0000
0000
0000
0100
,
0000
0100
0000
0100
,
0000
0000
0000
0010
,
0000
0010
0000
0010
,
0000
1000
0000
0002
,
0000
0000
0000
0000
,
0003
1000
0000
0001
,
0000
1000
0000
0000
,
0010
0100
0000
0000
,
0000
1000
0000
0001
,
0000
1000
0000
0000
,
0000
0001
0000
0000
,
0000
1000
0000
0001
,
0000
0000
1000
0000
0000
0001
0000
0000
,
0000
2002
0000
0000
,
3003
0000
0000
0000
,
0000
1000
0000
0000
,
0000
0010
0000
0000
,
0000
0001
0000
0000
,
0000
1000
0000
0100
,
0000
0010
0000
0000
,
0000
0001
0000
0000
,
0000
1000
0000
0000
,
0000
0001
0000
0010
,
0000
0100
0000
0000
,
0000
1000
0000
0000
,
0000
0100
0000
0000
,
0000
0001
0000
0010
,
0000
0100
0000
0000
,
0000
1000
0000
0000
,
0000
0100
0000
0010
,
0000
0001
0000
0000
,
0000
1001
0000
0000
,
0000
0000
0000
0000
,
1000
0000
1000
0000
,
0000
0000
0000
0000
,
0000
0001
0000
0000
0000
0000
0000
0000
,
0000
0000
0000
0000
,
0000
0100
0000
0000
,
0000
0000
0000
0000
,
0000
1000
0000
0000
;
