#TITLE:ANAGRAMS I to Y;
#SUBTITLE:;
#ARTIST:Mayumi Morinaga;
#TITLETRANSLIT:;
#SUBTITLETRANSLIT:;
#ARTISTTRANSLIT:;
#GENRE:;
#CREDIT:;
#BANNER:ANAGRAMS I to Y.png;
#BACKGROUND:ANAGRAMS I to Y-bg.png;
#LYRICSPATH:;
#CDTITLE:;
#MUSIC:ANAGRAMS I to Y.mp3;
#OFFSET:-0.037;
#SAMPLESTART:100.030;
#SAMPLELENGTH:12.000;
#SELECTABLE:YES;
#BPMS:0.000=165.000
;
#STOPS:
;
#BGCHANGES:;
#KEYSOUNDS:;
#ATTACKS:;

//---------------dance-single - ----------------
#NOTES:
     dance-single:
     :
     Hard:
     14:
     0.617,0.691,0.474,0.326,0.035,497.000,67.000,46.000,0.000,0.000,0.000,0.617,0.691,0.474,0.326,0.035,497.000,67.000,46.000,0.000,0.000,0.000:
0000
0000
0000
0000
,
0000
0000
0000
0000
,
0000
0000
0000
0000
,
0000
0000
0000
0000
,
0000
0000
0000
0000
,
0000
0000
0000
0000
,
0000
0000
0000
0000
,
0000
0000
0000
0000
,
0000
0000
0000
0000
,
0000
0000
1000
0000
1000
0000
1000
0000
1000
0000
0000
1000
0000
0000
1000
0000
,
1001
0100
0010
0100
0010
1000
0010
2000
,
0000
3010
0100
0010
0100
0010
0100
0001
,
0010
0000
0100
0000
0010
0100
0010
0100
,
0010
0100
0020
0000
1030
0100
0010
0100
,
0020
0000
1030
0000
0010
0100
0010
0200
,
0000
0310
0100
0010
0100
0010
1000
0002
,
0000
0103
0020
0000
0230
0000
0310
2000
,
0000
3100
0020
0000
0030
0201
0000
0000
,
0301
0000
0100
0010
0100
0010
1000
0010
,
0000
0100
0010
0100
0000
0010
1000
0020
,
0000
1030
0000
0002
0000
0000
0000
0000
,
0000
0000
0100
0000
0100
0000
0100
0003
,
0101
1000
0010
0100
0010
1000
0010
0100
,
0000
0010
0100
0010
0000
1000
0100
0010
,
0000
1000
0100
0000
0002
0000
0103
0010
,
0000
0100
0010
0000
1000
0110
0000
1001
,
0101
0000
0100
0010
0100
0010
1000
0100
,
0010
0001
0100
0010
1000
0010
0100
0010
,
0110
1000
0001
0100
0010
0100
0010
1000
,
0100
0010
0001
0100
0010
1000
0001
0100
,
1001
0100
0010
0100
0010
1000
0100
0010
,
1000
0100
0010
0001
0100
0010
0100
1000
,
1001
0100
0010
0100
0110
1000
0001
0100
,
1001
1001
1001
1001
0000
0200
0000
0000
,
0301
1000
0010
0100
0010
0100
0010
0100
,
0001
1000
1001
0100
0101
0100
1010
0100
,
0020
0000
2030
0000
3020
0000
0130
0100
,
0020
0000
2030
0000
3020
0000
0130
0100
,
0101
0000
1000
0000
0010
0100
0010
0200
,
0000
0000
0302
0000
1000
0003
0200
0000
,
0320
2030
3020
0130
,
0001
1000
0100
0010
0100
0101
0100
0100
,
0110
1000
0010
0100
0010
1000
0100
0001
,
1000
0001
1001
1000
1001
1000
0110
0100
,
0002
2003
3010
0200
,
0310
0100
0020
0000
0000
1030
0100
0010
,
0100
0010
0100
0010
0100
0001
0100
0001
,
1001
0100
0010
0100
0010
0100
0010
0100
,
1000
0100
0001
0100
0001
0100
0001
0100
,
0010
0100
0010
0100
0020
0000
1030
0200
,
0000
0000
0010
0000
0010
0000
0010
0300
,
0002
0000
0100
0000
0100
0000
0100
0003
,
2010
0000
0001
0000
0010
0000
0001
3000
,
0102
0000
1000
0000
0100
0000
1000
0003
,
0110
1000
0100
0010
0100
0010
0100
0010
,
1000
0100
0010
0001
0100
0010
0100
0010
,
2000
0000
0100
0000
0100
0000
0100
3000
,
0101
0100
0101
0100
0101
0100
0101
0100
,
0102
0000
0000
0000
,
2003
0000
0000
0000
,
3002
0000
0000
0000
,
1003
0100
0010
0001
,
0200
0000
0000
0000
,
0320
0000
0230
0000
,
0301
0010
0100
1000
,
0100
0000
0010
0000
0100
0000
0010
0110
,
1001
0000
0100
0000
0010
0100
0010
0100
,
0100
0000
0010
0000
1000
0100
0100
0010
,
2000
0000
3010
0000
0100
0010
0100
0010
,
1000
0000
0001
0000
0100
0010
0100
0010
,
0110
1000
0010
0100
0010
0100
0001
0100
,
0101
0000
1000
0000
0010
0000
0100
0000
0110
0000
0000
0110
0000
0000
0110
0000
,
1010
0000
0100
0010
0100
0010
0100
0010
,
1000
0100
0010
0100
0001
0101
0100
0010
,
1010
0000
0101
0000
1010
0100
0010
0100
,
0001
1000
1001
0000
1001
0000
0110
0000
,
0101
1000
0100
0010
0100
0001
1000
0100
,
0010
0010
0200
0000
0301
0100
0010
0100
,
1010
0100
0010
0100
0010
0100
0010
0001
,
1000
0010
0100
0010
0100
0001
0100
0010
,
1001
0100
0010
0100
0110
1000
0010
0100
,
1001
0100
0010
0100
1000
0100
0010
0100
,
1001
0100
0010
0100
0110
1000
0100
0010
,
1010
0000
0100
0000
0010
0000
0100
0000
0011
0000
0000
0110
0000
0000
1001
0000
,
0100
0000
0010
0100
0010
0100
0010
0100
,
1000
0000
1000
0000
0100
0000
0100
0000
0010
0000
0010
0000
1000
0000
0001
1000
,
1001
0000
0000
0100
0010
0000
0100
0000
0000
0010
0100
0000
0010
0000
0000
1000
,
0100
0000
0010
0000
0000
1000
0001
0000
0000
0001
0100
0000
0010
0000
0100
0000
,
0010
1000
0100
0010
0100
0001
0100
0101
,
0000
0000
1001
0000
1001
0000
1001
0000
1001
0000
0000
1001
0000
0000
1001
0000
,
2002
0000
0000
0000
,
0000
0000
0000
0000
,
0000
0000
0000
0000
,
3003
0000
0000
0000
;

//---------------dance-single - ----------------
#NOTES:
     dance-single:
     :
     Medium:
     11:
     0.511,0.527,0.340,0.319,0.032,412.000,48.000,45.000,0.000,0.000,0.000,0.511,0.527,0.340,0.319,0.032,412.000,48.000,45.000,0.000,0.000,0.000:
0000
0000
0000
0000
,
0000
0000
0000
0000
,
0000
0000
0000
0000
,
0000
0000
0000
0000
,
0000
0000
0000
0000
,
0000
0000
0000
0000
,
0000
0000
0000
0000
,
0000
0000
0000
0000
,
0000
0000
0000
0000
,
0000
0000
1000
0000
0001
0000
1000
0000
0001
0000
0000
1000
0000
0000
0001
0000
,
1000
0000
0000
0100
0010
1000
0010
2000
,
0000
3010
0000
0010
0000
0010
0100
0001
,
0000
0010
0000
0000
0010
0100
0010
0100
,
0010
0100
0020
0000
1030
0000
0010
0100
,
0020
0000
1030
0000
0010
0100
0010
0200
,
0000
0310
0000
0010
0100
0000
1000
0002
,
0000
0103
0020
0000
0230
0000
0310
2000
,
0000
3100
0020
0000
0030
0201
0000
0000
,
0301
0000
0000
0010
0100
0010
1000
0010
,
0000
0100
0010
0100
0000
0010
1000
0020
,
0000
1030
0000
0002
0000
0000
0000
0000
,
0000
0000
0100
0000
0000
0000
0100
0003
,
0001
1000
0010
0000
0010
1000
0010
0100
,
0000
0010
0100
0010
0000
1000
0100
0010
,
0000
1000
0100
0000
0002
0000
0103
0010
,
0000
0100
0010
0000
0000
0110
0000
0000
,
0101
0000
0100
0010
0100
0010
1000
0000
,
0010
0001
0100
0010
1000
0010
0100
0000
,
0010
1000
0001
0100
0010
0100
0010
0000
,
0100
0010
0001
0100
0010
1000
0001
0000
,
1001
0000
0010
0100
0010
0000
0100
0010
,
1000
0000
0010
0001
0100
0010
0100
1000
,
1001
0100
0010
0100
0010
1000
0001
0100
,
1001
1000
0001
1000
0000
0200
0000
0000
,
0301
1000
0010
0100
0010
0100
0010
0100
,
0001
1001
0101
1010
,
0020
0000
2030
0000
3020
0000
0130
0200
,
0000
0000
2300
0000
3020
0000
0130
0001
,
0000
0000
1000
0000
0000
0100
0010
0200
,
0000
0000
0302
0000
1000
0003
0200
0000
,
0300
2000
3020
0130
,
0001
1000
0100
0010
0000
0101
0000
0000
,
0110
0000
0010
0100
0010
1000
0100
0000
,
1000
0001
1001
1000
0001
0000
0010
0000
,
0002
2003
3010
0200
,
0310
0100
0020
0000
0000
1030
0100
0010
,
0000
0010
0100
0010
0000
0001
0100
0001
,
0000
0010
0010
0010
,
1000
0100
0001
0000
0001
0100
1000
0000
,
0010
0100
0010
0100
0020
0000
1030
0200
,
0000
0010
0000
0310
,
0002
0100
0000
0103
,
2010
0001
0000
3001
,
0102
0000
1000
0000
0000
1003
0000
0000
,
0110
0000
0100
0010
0100
0010
0100
0010
,
0000
0100
0010
0001
0000
0010
0100
0010
,
2000
3100
0010
0100
,
0101
0101
0101
0101
,
0102
0000
0000
0000
,
2003
0000
0000
0000
,
3002
0000
0000
0000
,
1003
0100
0000
0001
,
0200
0000
0000
0000
,
0320
0000
0230
0000
,
0301
0010
0100
0000
,
0100
0010
0100
0010
,
1001
0000
0100
0000
0010
0100
0010
0100
,
0000
0000
0010
0000
1000
0100
0100
0010
,
2000
0000
3010
0000
0100
0010
0100
0010
,
0000
0000
0001
0000
0100
0010
0100
0000
,
0110
0000
0010
0100
0010
0100
0001
0000
,
0101
0000
1000
0000
0010
0000
0000
0000
0110
0000
0000
0110
0000
0000
0010
0000
,
1010
0000
0100
0010
0100
0000
0100
0010
,
1001
0000
0110
0000
0101
0001
0100
0010
,
1010
0000
0101
0000
0010
0100
0010
0100
,
0001
1000
1001
0000
1001
0000
0110
0000
,
0101
0000
0100
0010
0100
0001
1000
0100
,
0010
0010
0200
0000
0301
0100
0010
0000
,
1010
0000
0010
0100
0010
0100
0010
0000
,
1001
0000
0100
0010
0100
0001
0100
0000
,
1001
0000
0010
0100
0010
1000
0010
0000
,
1001
0000
0010
0100
1000
0100
0010
0000
,
1001
0000
0010
0100
0010
1000
0100
0000
,
1010
0000
0000
0000
0010
0000
0000
0000
0011
0000
0000
0110
0000
0000
1001
0000
,
0110
0000
0010
0100
0010
0100
0010
0100
,
1000
0000
0000
0000
0100
0000
0100
0000
0010
0000
0010
0000
1000
0000
0001
1000
,
0001
0000
0000
0100
0010
0000
0100
0000
0000
0010
0100
0000
0010
0000
0000
1000
,
0100
0000
0010
0000
0000
1000
0001
0000
0001
0000
0100
0000
0010
0000
0100
0000
,
0110
0000
0010
0000
0101
0000
0100
0001
,
0000
0000
1000
0000
0001
0000
1000
0000
0001
0000
0000
1000
0000
0000
0001
0000
,
2002
0000
0000
0000
,
0000
0000
0000
0000
,
0000
0000
0000
0000
,
3003
0000
0000
0000
;

//---------------dance-single - ----------------
#NOTES:
     dance-single:
     :
     Easy:
     8:
     0.423,0.494,0.269,0.255,0.035,344.000,38.000,36.000,0.000,0.000,0.000,0.423,0.494,0.269,0.255,0.035,344.000,38.000,36.000,0.000,0.000,0.000:
0000
0000
0000
0000
,
0000
0000
0000
0000
,
0000
0000
0000
0000
,
0000
0000
0000
0000
,
0000
0000
0000
0000
,
0000
0000
0000
0000
,
0000
0000
0000
0000
,
0000
0000
0000
0000
,
0000
0000
0000
0000
,
0000
0000
1000
0000
0001
0000
1000
0000
0001
0000
0000
1000
0000
0000
0001
0000
,
1000
0000
0000
0100
0010
1000
0010
2000
,
0000
3010
0000
0010
0000
0010
0100
0001
,
0000
0010
0000
0000
0010
0000
0010
0100
,
0000
0100
0020
0000
1030
0000
0000
0100
,
0020
0000
0030
0100
0010
0100
0010
0200
,
0000
0310
0000
0010
0000
0000
1000
0002
,
0000
0103
0020
0000
0230
0000
0310
2000
,
0000
3100
0020
0000
0030
1001
0000
0000
,
0001
0000
0000
0010
0100
0010
1000
0010
,
0000
0100
0010
0100
0000
0010
0000
0010
,
0000
1000
0100
0002
0000
0000
0000
0000
,
0000
0000
0100
0000
0000
0000
0100
0003
,
0001
0000
0010
0000
0010
1000
0010
0100
,
0000
0010
0100
0010
0000
1000
0100
0010
,
0000
1000
0100
0000
0002
0000
0103
0010
,
0000
0100
0010
0000
0000
0110
0000
0000
,
0101
0000
0100
0010
0100
0000
1000
0000
,
0010
0001
0100
0000
1000
0010
0100
0000
,
0010
0000
1000
0000
0001
0000
0000
0010
0000
0000
0000
0010
0000
0000
0010
0000
,
0000
0010
0000
0100
0000
0000
0001
0000
,
1001
0000
0010
0000
0010
0000
0100
0010
,
0000
0100
0010
0000
0100
0010
0100
1000
,
1001
0010
0110
0001
,
0001
1000
0001
1000
0000
0200
0000
0000
,
0301
1000
0010
0100
0010
0100
0000
0100
,
0000
1001
0101
1010
,
0020
0000
0030
0000
0020
0000
0130
0200
,
0000
0000
0300
0000
0000
0010
0100
0002
,
0000
0000
1003
0000
0000
0100
0010
0200
,
0000
0000
0301
0000
0000
0001
0100
0010
,
0000
0000
0000
0000
0000
0100
0100
0010
,
0000
0000
0000
0000
0000
0101
0000
0000
,
0110
0000
0010
0100
0010
1000
0000
0000
,
1000
0001
1000
1000
0001
0000
0010
0000
,
0002
2003
3010
0200
,
0310
0100
0020
0000
0000
1030
0100
0010
,
0000
0000
0000
0000
0000
0001
0100
0001
,
0000
0010
0010
0010
,
1000
0100
0001
0000
0001
0100
1000
0000
,
0010
0010
0020
1030
,
0200
0000
0000
0310
,
0002
0000
0000
0103
,
2010
0000
0000
3001
,
0102
0000
0000
0000
0000
1003
0000
0000
,
0110
0000
0100
0010
0000
0000
0100
0010
,
0000
0100
0010
0000
0000
0010
0100
0000
,
2000
3100
0010
0100
,
0101
0000
0101
0000
,
0102
0000
0000
0000
,
2003
0000
0000
0000
,
3002
0000
0000
0000
,
1003
0100
0000
0000
,
0200
0000
0000
0000
,
0320
0000
0230
0000
,
0301
0000
0000
0000
,
0100
0010
0000
0010
,
1001
0000
0100
0000
0000
0100
0010
0100
,
0000
0100
0010
0000
1000
0000
0100
0000
,
2000
0000
3010
0000
0000
0010
0100
0010
,
0000
0000
0001
0000
0100
0010
0100
0000
,
0110
0000
0010
0100
0010
0100
0001
0000
,
0101
0000
1000
0000
0010
0000
0000
0000
0100
0000
0000
0010
0000
0000
0010
0000
,
1000
0000
0100
0010
0100
0000
0100
0000
,
1001
0110
0101
0100
,
1010
0000
0101
0000
0010
0100
0010
0100
,
0001
1001
1001
0110
,
0101
0000
0100
0010
0100
0000
1000
0100
,
0010
0200
0301
0010
,
1010
0000
0010
0100
0010
0000
0010
0000
,
1001
0000
0100
0010
0100
0000
0100
0000
,
1001
0000
0010
0100
0010
0000
0010
0000
,
1001
0000
0010
0100
1000
0000
0010
0000
,
1001
0000
0010
0100
0010
0000
0100
0000
,
1010
0000
0000
0000
0010
0000
0000
0000
0011
0000
0000
0100
0000
0000
0001
0000
,
0110
0000
0010
0100
0010
0100
0010
0000
,
1000
0000
0100
0100
0010
0000
1000
0001
,
0001
0000
0000
0100
0000
0000
0100
0000
0000
0010
0000
0000
0010
0000
0000
1000
,
0000
0000
0010
0000
0000
1000
0000
0000
0001
0000
0000
0000
0010
0000
0100
0000
,
0010
0000
0010
0000
0101
0000
0100
0001
,
0000
0000
1000
0000
0001
0000
1000
0000
0001
0000
0000
1000
0000
0000
0001
0000
,
2000
0000
0000
0000
,
0000
0000
0000
0000
,
0000
0000
0000
0000
,
3000
0000
0000
0000
;

//---------------dance-single - ----------------
#NOTES:
     dance-single:
     :
     Beginner:
     4:
     0.154,0.255,0.227,0.014,0.000,118.000,32.000,2.000,0.000,0.000,0.000,0.154,0.255,0.227,0.014,0.000,118.000,32.000,2.000,0.000,0.000,0.000:
0000
0000
0000
0000
,
0000
0000
0000
0000
,
0000
0000
0000
0000
,
0000
0000
0000
0000
,
0000
0000
0000
0000
,
0000
0000
0000
0000
,
0000
0000
0000
0000
,
0000
0000
0000
0000
,
0000
0000
0000
0000
,
0000
0000
0000
0000
,
1001
0000
0000
0000
,
0010
0000
0000
0000
,
0010
0000
0010
0000
,
0010
0000
0000
0000
,
1000
0000
0000
0000
,
0001
0000
0000
0000
,
0100
0000
0100
0000
,
0100
0000
0000
0000
,
1001
0000
0000
0000
,
0010
0000
0100
0000
,
0010
0000
0000
0000
,
0100
0000
0010
0000
,
0100
0000
0000
0000
,
0001
0000
0000
0000
,
1000
0000
0001
0000
,
1000
0000
0000
0000
,
1001
0000
0000
0000
,
0110
0000
0000
0000
,
0110
0000
0000
0000
,
1001
0000
0000
0000
,
0110
0000
0000
0000
,
0110
0000
0000
0000
,
0110
0000
1001
0000
,
0110
0000
1001
0000
,
1001
0000
0010
0000
,
0100
0000
0010
0000
,
1000
0000
0000
0000
,
0001
0000
0000
0000
,
0010
0000
0000
0000
,
0100
0000
0000
0000
,
1000
0000
0100
0000
,
0010
0000
0001
0000
,
1001
0000
0000
0000
,
0010
0000
0100
0000
,
0010
0000
0000
0000
,
0010
0000
0100
0000
,
0010
0000
0000
0000
,
1000
0000
0001
0000
,
1000
0000
0000
0000
,
0010
0000
0100
0000
,
0020
0000
0000
0000
,
0000
0000
0000
0000
,
0030
0000
0000
0000
,
1000
0000
1000
0000
,
1001
0000
0000
0000
,
1000
0000
1000
0000
,
1001
0000
1001
0000
,
0110
0000
0110
0000
,
1001
0000
0000
0000
,
0001
0000
0000
0000
,
0010
0000
0000
0000
,
0100
0000
0000
0000
,
2000
0000
0000
0000
,
0000
0000
0000
0000
,
0000
0000
0000
0000
,
0000
0000
0000
0000
,
3000
0000
0000
0000
,
0010
0000
0000
0000
,
0010
0000
0000
0000
,
0010
0000
0000
0000
,
1001
0000
0100
0000
,
0110
0000
1000
0001
,
1001
0000
0010
0000
,
0100
0000
1001
0000
,
0000
0010
0000
0010
,
0000
1000
0000
1000
,
0000
0001
0000
0001
,
0000
0100
0000
0100
,
0000
0010
0000
0010
,
0000
1000
0000
1000
,
1001
0000
1001
0000
,
1001
0000
0010
0000
,
1001
0000
0010
0000
,
0110
0000
1001
0000
,
1001
0000
0010
0000
,
0010
0000
1000
0100
,
0001
0000
0001
0000
,
0100
0000
0010
0000
,
1000
0100
0010
0001
,
1000
0000
0001
0000
,
1001
0000
0000
0000
;
