#TITLE:ALBIDA;
#SUBTITLE:;
#ARTIST:DJ YOSHITAKA;
#TITLETRANSLIT:;
#SUBTITLETRANSLIT:;
#ARTISTTRANSLIT:;
#CREDIT:;
#BANNER:ALBIDA.png;
#BACKGROUND:ALBIDA-bg.png;
#LYRICSPATH:;
#CDTITLE:;
#MUSIC:ALBIDA.mp3;
#MENUCOLOR:1,0,0,1;
#METERTYPE:DDR X;
#OFFSET:-0.041;
#SAMPLESTART:100.070;
#SAMPLELENGTH:12.000;
#SELECTABLE:YES;
#BPMS:0.000=92.500,18.500=185.000,184.000=92.500,200.000=185.000,230.500=370.000,234.500=185.000,298.500=92.500,302.750=185.000;
#STOPS:42.500=0.324
,43.000=0.324
;
#BGCHANGES:;

//---------------dance-single - ----------------
#NOTES:
     dance-single:
     :
     Hard:
     18:
     0.992,1.000,1.000,0.269,0.607: // measure 1
0000
0000
1000
0100
0010
0200
0000
1300
0100
0020
0000
0130
0001
0200
0000
1300
,  // measure 2
0100
0010
1001
0000
0000
0000
0000
0100
0010
0100
0220
0000
0000
0330
1001
0000
,  // measure 3
0000
0000
1001
0100
0010
0120
0000
1030
0001
1002
0000
0103
0010
0210
0000
1300
,  // measure 4
0100
0000
0010
0000
1001
0000
0000
0000
0000
0000
0000
0000
0000
0000
0000
0000
0000
0000
1000
0100
1001
0000
0000
0000
0000
0000
0000
0000
0110
0000
0000
0000
,  // measure 5
0000
0000
1000
1000
0001
0001
0100
0100
0010
0010
1001
0000
0100
0000
0010
0000
,  // measure 6
0100
0010
0100
0010
0100
1001
0100
0010
,  // measure 7
0110
0000
0110
0000
0110
1000
0100
0010
,  // measure 8
0100
0001
0100
0010
0100
0101
1000
0010
,  // measure 9
1010
0000
0110
0000
0110
1000
0100
0010
,  // measure 10
0001
0100
0010
0100
0010
1010
0100
0001
,  // measure 11
0100
0010
1000
0001
0100
1001
0110
0101
,  // measure 12
0000
0000
1000
0010
0100
1000
0010
1000
0001
0010
0100
1000
0010
0001
0010
0100
,  // measure 13
1000
0010
1000
0010
1000
0000
1010
0000
1010
0000
0000
0000
0100
0010
0100
0000
,  // measure 14
0200
0000
0000
0000
0310
0100
0010
0000
0200
0000
0000
0000
1300
0000
0100
0000
,  // measure 15
0010
0001
0100
0010
0100
0010
1000
0100
,  // measure 16
0010
0001
0100
0010
0100
0001
0100
0010
,  // measure 17
0100
0000
0001
0010
0100
0001
0100
0000
0210
0000
0000
0000
1300
0010
1000
0000
,  // measure 18
1020
0000
0000
0000
1030
0100
0010
0000
0022
0000
0000
0033
0100
0000
0010
0000
,  // measure 19
1000
0100
0001
1000
0010
0100
0001
1000
,  // measure 20
0100
0000
0010
0000
0001
0000
0100
0000
0010
0000
0100
1000
0010
0001
0100
1000
,  // measure 21
0010
0001
1000
0001
1000
0001
1000
0000
1002
0000
0000
0000
0103
1000
0010
0000
,  // measure 22
0120
0000
0000
0000
1030
0100
0001
0000
1002
0000
0000
0000
1003
0000
0100
0000
,  // measure 23
1000
1100
0000
0100
0010
0100
0010
0110
,  // measure 24
0000
1000
0100
0010
0100
0010
0100
0001
,  // measure 25
0100
0000
0010
0100
1000
0001
0100
0000
0102
0000
0000
0000
0103
0001
0010
0000
,  // measure 26
0120
0000
0000
0000
0031
0100
1000
0000
1002
0000
0000
0000
1003
0000
0010
0000
,  // measure 27
0100
0110
1000
0100
0010
0001
0100
0010
,  // measure 28
0100
0000
0001
0000
1000
0000
0010
0000
1000
0000
0100
1000
0010
0100
0010
0100
,  // measure 29
0010
0000
0100
0010
0001
0000
0100
0000
0010
0000
1000
0000
0010
0000
1000
0000
,  // measure 30
0010
0000
1000
0100
0010
0000
0100
0000
0010
0000
0100
0000
0010
0000
0100
0000
,  // measure 31
0010
1100
0011
0110
0101
0000
0110
1010
,  // measure 32
0110
0000
1010
0000
1010
0100
0010
0001
,  // measure 33
0010
0000
0100
0001
0100
0010
0100
0001
0100
1000
0100
0010
0100
0010
1000
0100
,  // measure 34
0010
0001
0100
0001
0010
0001
0100
0001
0010
0001
0010
0100
1000
0100
0010
0001
,  // measure 35
0010
0100
1001
0000
0000
0000
0100
0000
0010
0000
0110
0000
0000
0000
1001
0000
,  // measure 36
0000
0000
1000
0001
0100
0000
0010
0000
0100
0000
0010
0000
0100
0000
1001
0000
,  // measure 37
0110
0000
0110
0000
1000
0001
0100
0000
0010
0000
0001
0000
0100
0000
0010
0000
,  // measure 38
0100
0000
0001
0100
1000
0000
0010
0000
0100
0000
0001
0000
1000
0000
0010
0000
,  // measure 39
0100
0000
0011
0000
0110
0000
0110
0000
1010
0000
1000
0100
1010
0000
0000
0000
,  // measure 40
1001
0000
0000
0000
1001
0000
0000
0000
1001
0010
0100
1000
0010
0100
0001
0010
,  // measure 41
0100
0000
0020
1000
0130
1000
0020
1000
0130
1000
0020
1000
0130
0000
0010
0000
,  // measure 42
1000
1001
0100
0010
0100
0001
0100
0010
,  // measure 43
0100
1001
0100
0010
0100
0110
1000
0010
,  // measure 44
0100
0000
1000
0100
0010
0001
0010
0100
1000
0000
0100
0000
0010
0000
0100
0000
,  // measure 45
0001
2002
0000
0000
0000
0000
0000
0000
,  // measure 46
0000
0000
0000
3003
,  // measure 47
0000
0010
1000
0010
1000
0000
0100
0010
0100
0000
1000
0100
0010
0000
1000
0100
,  // measure 48
0001
0101
0000
0000
0000
0000
0100
0010
0100
0110
0000
0000
0000
1001
0000
0000
,  // measure 49
0000
1001
0100
0010
0110
0000
1000
0001
1001
0000
0100
0010
0110
0000
1000
0001
,  // measure 50
0100
0000
1001
0000
0000
0000
0000
0000
0000
0000
0000
0000
0000
0000
0000
0000
0100
0001
1100
0000
0000
0000
0000
0000
0000
0000
0110
0000
0000
0000
0000
0000
,  // measure 51
0000
0000
1000
0100
1100
0000
0010
0000
0110
0000
0000
0000
1000
0100
0001
0000
,  // measure 52
0101
0000
0000
0000
1000
0100
0010
0000
0110
0000
0000
0000
1000
0000
0100
0000
,  // measure 53
0010
0100
0001
0100
0010
0100
0010
1000
,  // measure 54
0100
0010
0001
0100
0010
0100
0001
0100
,  // measure 55
0010
1010
1010
0101
0101
0110
0110
1001
,  // measure 56
1001
0110
0110
1001
1000
1100
0100
0110
,  // measure 57
0100
0000
0010
1000
0100
0001
0010
1000
0100
0001
0010
1000
0100
0001
0010
0000
,  // measure 58
1000
0100
0010
0001
0100
0220
0000
0330
,  // measure 59
0000
0000
2002
0000
0000
0000
0000
0000
3003
0000
0100
0001
1000
0000
0100
0000
,  // measure 60
0010
0000
0100
0000
0010
0000
0100
0000
1001
0000
0100
0001
0010
0000
0100
0000
,  // measure 61
0001
0100
0010
1000
0100
1010
0100
0010
,  // measure 62
0110
0100
0110
0100
0110
0000
0101
0000
,  // measure 63
0101
0000
0100
0000
0010
0000
0100
0000
0010
0000
1000
0100
1000
0000
0100
1000
,  // measure 64
0100
0000
0010
0001
0010
0000
0001
0010
0001
0000
0010
0100
0010
0000
0100
0010
,  // measure 65
0100
0000
1000
0001
1000
0000
0100
0000
0100
0000
0110
0000
0100
0000
0001
0000
,  // measure 66
0100
0101
1000
0010
0100
0110
0110
1000
,  // measure 67
0100
0010
0100
1001
1000
1001
0100
0010
,  // measure 68
0100
0000
0010
0000
0100
0000
0010
0000
1000
0001
0100
0000
0010
0000
0001
0000
,  // measure 69
0100
0010
0100
0001
0100
0110
0100
0110
,  // measure 70
0110
0100
0110
0100
0110
0000
1001
0000
,  // measure 71
1001
0000
1001
0000
0100
0000
0010
0000
0100
0000
1000
0100
1000
0000
0100
0010
,  // measure 72
0100
0000
0010
0001
0010
0000
0001
0010
0001
0000
0100
0010
0100
0000
0010
0100
,  // measure 73
0010
0000
1000
0001
1000
0000
0001
0000
0100
0000
0101
0000
0100
0000
0010
0000
,  // measure 74
0100
0000
0110
0000
1000
0000
0010
0000
1000
0000
1000
0100
0010
0100
0010
1000
,  // measure 75
0001
0010
0100
1000
0010
0001
0100
0010
0001
0100
2002
0000
0000
0000
0000
0000
,  // measure 76
0000
0000
0000
0000
0000
0000
0000
0000
0000
0000
0000
3003
0000
0000
0000
0000
;

//---------------dance-single - ----------------
#NOTES:
     dance-single:
     :
     Medium:
     11:
     0.540,0.557,0.217,0.130,0.074: // measure 1
0000
0000
1000
0010
0000
0000
0100
0000
0000
0010
0000
0000
0000
0001
0000
0000
,  // measure 2
0000
1001
0000
0000
1000
0010
0000
1001
,  // measure 3
0000
0000
0010
0000
0000
0100
0000
0000
0000
0010
0000
0000
0000
1000
0000
0000
,  // measure 4
0000
0000
1001
0000
0000
0000
0000
0000
0000
1000
0010
0000
0000
0000
1001
0000
,  // measure 5
0000
1000
1000
0001
0001
1000
0000
1000
,  // measure 6
0000
0100
0000
0100
0000
0010
0000
0010
,  // measure 7
1000
0000
0010
0000
0010
0100
0000
0001
,  // measure 8
0000
0001
0000
0001
0000
0001
0000
1000
,  // measure 9
0010
0000
0010
0000
0100
0001
1000
0010
,  // measure 10
0000
0100
0010
0100
0000
1000
0100
0010
,  // measure 11
0000
1000
0001
0100
0000
1000
0001
0100
,  // measure 12
0000
1000
0100
0010
0001
0010
0100
1000
,  // measure 13
0100
0010
0100
0010
0100
0000
1000
0100
,  // measure 14
0010
0000
0001
0010
0100
0000
1000
0010
,  // measure 15
1000
0010
0000
0100
0010
0100
0000
0010
,  // measure 16
0001
0010
0000
0100
0010
0100
1000
0100
,  // measure 17
0010
0001
0010
0100
0002
0000
0003
1010
,  // measure 18
2000
0000
3010
0100
0020
0000
1030
0010
,  // measure 19
0100
0010
0000
0100
0010
0100
0000
1000
,  // measure 20
0100
0010
0000
1000
0100
0010
0001
0010
,  // measure 21
0100
1000
0010
1000
0020
0000
1030
0010
,  // measure 22
2000
0000
3001
0100
0020
0000
0130
0010
,  // measure 23
1000
0100
0000
0010
0100
0010
0000
0100
,  // measure 24
1000
0100
0000
1000
0100
0010
0000
1000
,  // measure 25
0000
1000
0010
0100
0002
0000
1003
0010
,  // measure 26
0200
0000
0310
1000
0020
0000
1030
0010
,  // measure 27
0100
0010
0000
1000
0100
0010
0000
0001
,  // measure 28
0010
0100
0000
1000
0100
0010
0001
0010
,  // measure 29
0100
1000
0100
0001
0000
1000
0000
0010
,  // measure 30
0000
1000
0010
1000
0000
0100
0000
1010
,  // measure 31
0000
0100
0010
0100
0010
0000
1000
0000
,  // measure 32
0001
0000
1000
0000
1000
0100
0010
0001
,  // measure 33
0010
0100
0000
1000
0000
1000
0000
1000
,  // measure 34
0000
0010
0000
0001
0000
0001
0000
0001
,  // measure 35
0000
1001
0000
0100
0000
0110
0000
0100
,  // measure 36
0000
1000
0001
1000
0000
0001
0000
1001
,  // measure 37
0000
1001
0000
0100
0000
0010
0000
1000
,  // measure 38
0000
1000
0100
0010
0000
0001
0000
0010
,  // measure 39
0000
1000
0100
0010
0001
0000
1000
0000
,  // measure 40
1001
0000
0100
0000
0010
0000
0000
0100
,  // measure 41
0000
1000
0000
1000
0000
0100
0000
0100
,  // measure 42
0000
0010
0000
0010
0000
0001
0000
0001
,  // measure 43
0000
1000
0100
0010
0001
0010
0000
0100
,  // measure 44
0000
1000
0100
0010
0001
0100
1000
0100
,  // measure 45
0010
2002
0000
0000
0000
0000
0000
0000
,  // measure 46
0000
0000
0000
0000
,  // measure 47
3003
0000
1000
0100
0010
0000
1000
0000
,  // measure 48
0000
0001
0000
0000
0000
0000
0000
0100
0000
0010
0000
0000
0000
1001
0000
0000
,  // measure 49
0000
0100
0000
0000
0100
0000
0000
0000
0010
0000
0000
0000
0010
0000
0000
0000
,  // measure 50
0000
1000
0000
0000
0000
0000
0000
0000
0000
0001
0000
1000
0000
0001
0000
1000
,  // measure 51
0000
0110
0000
0000
1000
0000
0001
0000
,  // measure 52
1001
0000
0100
0000
0110
0000
1000
0100
,  // measure 53
0001
0100
0000
0100
0000
1000
0000
0100
,  // measure 54
0000
0010
0000
0010
0000
0001
0000
0001
,  // measure 55
0000
1000
1000
0100
0100
0010
0010
0001
,  // measure 56
0001
0010
0010
0100
0100
1000
1000
0100
,  // measure 57
0100
0010
0001
0010
0100
1000
0100
0010
,  // measure 58
0100
0001
0000
0100
0000
2002
0000
0000
,  // measure 59
0000
3003
0000
0000
0000
0100
0000
0010
,  // measure 60
0000
1000
0000
0010
0000
1000
0010
1000
,  // measure 61
0000
0010
0000
0100
0000
0001
1000
0001
,  // measure 62
1000
1001
0110
0101
,  // measure 63
0001
1000
0100
0010
0001
0100
0010
0100
,  // measure 64
0000
1000
0100
0010
0001
0010
0000
0100
,  // measure 65
0000
1000
0100
0010
0001
0100
0000
0100
,  // measure 66
0000
1000
0100
0010
0000
1000
0100
0010
,  // measure 67
0001
0100
0000
0110
0000
1001
0000
0100
,  // measure 68
0010
0100
0000
1000
0000
1000
0100
0010
,  // measure 69
0000
0001
0000
0010
0000
1000
0100
0010
,  // measure 70
0001
1000
1001
0100
,  // measure 71
0110
1000
0100
0010
0001
0100
0100
0010
,  // measure 72
0000
0100
0010
0100
0000
0010
0010
0100
,  // measure 73
0000
0001
1000
0001
0000
1000
0100
0010
,  // measure 74
0000
0100
0001
0100
0000
1000
0100
0010
,  // measure 75
0001
0100
0000
0001
0000
2002
0000
0000
,  // measure 76
0000
0000
0000
0000
0000
3003
0000
0000
;

//---------------dance-single - ----------------
#NOTES:
     dance-single:
     :
     Easy:
     6:
     0.370,0.360,0.078,0.043,0.052: // measure 1
0000
0000
0001
0000
0000
0100
0000
0000
0000
0010
0000
0000
0000
1000
0000
0000
,  // measure 2
0000
0001
0000
0000
0000
1000
0000
0001
,  // measure 3
0000
0000
0100
0000
0000
0000
0000
0000
0000
0010
0000
0000
0000
1000
0000
0000
,  // measure 4
0000
0001
0000
0000
0000
1000
0000
0001
,  // measure 5
0000
0100
0000
0000
0000
1001
0000
0100
,  // measure 6
0000
0010
0000
0100
0000
0010
0000
0001
,  // measure 7
0010
0000
0100
0000
0000
0010
0000
1000
,  // measure 8
0000
0010
0000
0100
0000
1000
0000
1000
,  // measure 9
0100
0000
0010
0000
0000
0001
0000
0100
,  // measure 10
0000
0010
0000
0100
0000
1000
0000
0100
,  // measure 11
0000
0010
0000
0100
0000
1000
0010
0100
,  // measure 12
0000
1000
0000
0100
0000
0010
0000
0001
,  // measure 13
0000
0010
0100
0010
0100
0000
1000
0000
,  // measure 14
0100
0000
0010
0000
0001
0000
0100
0010
,  // measure 15
0100
0010
0000
1000
0000
0100
0000
0010
,  // measure 16
0000
0001
0000
0010
0000
0100
0000
1000
,  // measure 17
0000
1000
0010
1000
0010
0000
0100
0000
,  // measure 18
0010
0000
0001
0000
0010
0000
0100
0010
,  // measure 19
0100
0010
0000
1000
0000
1000
0000
0100
,  // measure 20
0000
0100
0000
0010
0000
0001
0010
0100
,  // measure 21
0000
1000
0000
1000
0000
0001
0000
0000
,  // measure 22
0001
0000
0100
0000
0010
0000
1000
0100
,  // measure 23
0010
0001
0000
0100
0000
0010
0000
0001
,  // measure 24
0000
0010
0000
0100
0000
0001
0000
1000
,  // measure 25
0000
1000
0100
0010
0001
0000
0010
0000
,  // measure 26
0001
0000
0100
0000
0010
0000
1000
0100
,  // measure 27
0010
0001
0000
0010
0000
0100
0000
1000
,  // measure 28
0000
0100
0000
0010
0000
0001
0000
1000
,  // measure 29
0000
0001
0000
0001
0000
0001
0000
0001
,  // measure 30
0000
1000
0000
1000
0000
1000
0000
1000
,  // measure 31
0000
0100
0000
0000
0100
0000
0100
0000
,  // measure 32
0100
0000
0010
0000
0010
1000
0000
0000
,  // measure 33
0000
0100
0000
0010
0000
0100
0000
0001
,  // measure 34
0000
1000
0000
0010
0000
0010
0000
0100
,  // measure 35
0000
1000
0000
1000
0000
0100
0000
0100
,  // measure 36
0000
0010
0000
1000
0000
0001
0000
1000
,  // measure 37
0000
1001
0000
0100
0000
0010
0000
0100
,  // measure 38
0000
1000
0000
1000
0000
0100
0000
0100
,  // measure 39
0000
0010
0000
0000
0001
0000
0001
0000
,  // measure 40
0001
0000
0000
0000
0000
1000
0000
1000
,  // measure 41
0000
1000
0000
0100
0000
0010
0000
0001
,  // measure 42
0000
0010
0000
0100
0000
1000
0000
0100
,  // measure 43
0000
0010
0000
1000
0000
0010
0000
1000
,  // measure 44
0000
1000
0000
0100
0000
0010
0000
0001
,  // measure 45
0000
2002
0000
0000
0000
0000
0000
0000
,  // measure 46
0000
0000
0000
0000
,  // measure 47
3003
0100
1000
0010
,  // measure 48
0000
0100
0000
0000
0000
0000
0000
0000
0000
0001
0000
0000
0000
1001
0000
0000
,  // measure 49
0000
0100
0000
0000
0000
0000
0000
0000
0010
0000
0000
0000
1000
0000
0000
0000
,  // measure 50
0000
0001
0000
0000
0000
0000
0000
0000
0000
1000
0000
0000
0000
0001
0000
0000
,  // measure 51
0000
1000
0000
0000
0100
0000
0010
0000
,  // measure 52
0100
0000
1000
0000
0010
0000
0100
0001
,  // measure 53
0000
1000
0000
0010
0000
0100
0000
1000
,  // measure 54
0000
0100
0000
0010
0000
0001
0000
0000
,  // measure 55
0000
1000
0000
0100
0000
0010
0000
0001
,  // measure 56
0000
0010
0000
0100
0000
1000
0000
0100
,  // measure 57
0000
1000
0100
0010
0001
0000
0000
0000
,  // measure 58
0000
1000
0100
0010
0000
2000
0000
0000
,  // measure 59
0000
0000
0000
0000
3000
0000
0000
0100
,  // measure 60
0000
1000
0000
0100
0000
0000
0000
0100
,  // measure 61
0000
0010
0000
0100
0000
1000
0100
0010
,  // measure 62
0001
0010
0010
0010
,  // measure 63
0100
0010
0000
0000
0000
1000
0000
1000
,  // measure 64
0000
0001
0000
0001
0000
0100
0000
0100
,  // measure 65
0000
0010
0000
0010
0000
1001
0000
0000
,  // measure 66
0000
0110
0000
0000
0000
1000
0000
0100
,  // measure 67
0000
1000
0000
1001
0000
1001
0000
0100
,  // measure 68
0000
0010
0000
0001
0000
0100
0010
0100
,  // measure 69
0000
0001
0000
0010
0000
1000
0000
0000
,  // measure 70
0001
1000
0010
0100
,  // measure 71
0010
0100
0000
0001
0000
0001
0000
1000
,  // measure 72
0000
1000
0000
0010
0000
0100
0000
0001
,  // measure 73
0000
1000
0000
0000
0000
0100
0000
0000
,  // measure 74
0000
0010
0000
0000
0000
1000
0000
1000
,  // measure 75
0000
0001
0000
1000
0000
2002
0000
0000
,  // measure 76
0000
0000
0000
0000
0000
0000
0000
0000
0000
0000
0000
0000
0000
0000
0000
0000
0000
0000
0000
0000
0000
0000
0000
0000
0000
0000
0000
0000
0000
0000
0000
0000
0000
0000
0000
0000
0000
0000
0000
0000
0000
0000
0000
0000
0000
0000
0000
0000
0000
0000
0000
0000
0000
0000
0000
0000
0000
0000
0000
0000
0000
0000
0000
0000
0000
0000
0000
0000
0000
0000
0000
0000
0000
0000
0000
0000
0000
0000
0000
0000
0000
0000
0000
0000
0000
0000
0000
0000
0000
0000
0000
0000
0000
0000
0000
0000
0000
0000
0000
0000
0000
0000
0000
0000
0000
0000
0000
0000
0000
0000
0000
0000
0000
0000
0000
0000
0000
0000
0000
0000
0000
3003
0000
0000
0000
0000
0000
0000
0000
0000
0000
0000
0000
0000
0000
0000
0000
0000
0000
0000
0000
0000
0000
0000
0000
0000
0000
0000
0000
0000
0000
0000
0000
0000
0000
0000
0000
0000
0000
0000
0000
0000
0000
0000
0000
0000
0000
0000
0000
0000
0000
0000
0000
0000
0000
0000
0000
0000
0000
0000
0000
0000
0000
0000
0000
0000
0000
0000
0000
0000
0000
0000
;

//---------------dance-single - ----------------
#NOTES:
     dance-single:
     :
     Beginner:
     3:
     0.129,0.164,0.121,0.026,0.026: // measure 1
0000
0001
0000
0000
0000
0000
0000
0000
,  // measure 2
0000
1000
0000
0000
0000
0000
0000
0010
,  // measure 3
0000
0000
0000
0000
0000
0000
0000
0000
0000
0001
0000
0000
0000
0000
0000
0000
,  // measure 4
0000
1000
0000
0000
0000
0000
0000
0010
,  // measure 5
0000
0000
0000
0000
0000
1001
0000
0000
,  // measure 6
0000
0000
0000
0000
0000
1000
0000
0000
,  // measure 7
0000
0000
0000
0000
0000
0010
0000
0000
,  // measure 8
0000
0000
0000
0000
0000
0001
0000
0000
,  // measure 9
0000
0000
0000
0000
0000
0010
0000
0000
,  // measure 10
0000
0000
0000
0000
0000
1000
0000
0000
,  // measure 11
0000
0000
0000
0000
0000
0001
0000
0000
,  // measure 12
0000
1000
0000
0000
0000
0000
0000
0000
,  // measure 13
0000
0010
0000
0000
0000
0000
0000
0000
,  // measure 14
0001
0000
0000
0000
,  // measure 15
0000
0100
0000
0000
0000
0000
0000
0000
,  // measure 16
0000
0010
0000
0000
0000
0000
0000
0000
,  // measure 17
0000
1000
0000
0000
0000
0000
0000
0000
,  // measure 18
0000
0000
0000
0000
,  // measure 19
0000
1001
0000
0000
0000
0000
0000
0000
,  // measure 20
0000
0010
0000
0000
0000
0000
0000
0000
,  // measure 21
0000
1000
0000
0000
0000
0000
0000
0000
,  // measure 22
1001
0000
0000
0000
,  // measure 23
0000
1001
0000
0000
0000
0000
0000
0000
,  // measure 24
0000
0100
0000
0000
0000
0000
0000
0000
,  // measure 25
0000
0010
0000
0000
0000
0000
0000
0000
,  // measure 26
0000
0001
0000
0000
0000
0000
0000
0000
,  // measure 27
0000
1000
0000
0000
0000
0000
0000
0000
,  // measure 28
0000
0010
0000
0000
0000
0000
0000
0000
,  // measure 29
0000
1000
0000
0000
0000
0000
0000
0000
,  // measure 30
0000
0001
0000
0000
0000
0000
0000
0000
,  // measure 31
0000
1000
0000
0000
0000
0000
0000
0000
,  // measure 32
1001
0000
0000
0000
,  // measure 33
0000
0010
0000
0000
0000
0000
0000
0000
,  // measure 34
0000
1001
0000
0000
0000
0000
0000
0000
,  // measure 35
0000
0110
0000
0000
0000
0000
0000
0000
,  // measure 36
0000
1001
0000
0000
0000
0000
0000
0000
,  // measure 37
0000
0110
0000
0000
0000
0000
0000
0000
,  // measure 38
0000
1000
0000
0000
0000
0000
0000
0000
,  // measure 39
0000
0100
0000
0000
0000
0000
0000
0000
,  // measure 40
0010
0000
0000
0000
,  // measure 41
0000
0001
0000
0000
0000
0000
0000
0000
,  // measure 42
0000
1000
0000
0000
0000
0000
0000
0000
,  // measure 43
0000
0001
0000
0000
0000
0000
0000
0000
,  // measure 44
0000
1000
0000
0000
0000
0000
0000
0000
,  // measure 45
0000
2002
0000
0000
0000
0000
0000
0000
,  // measure 46
0000
0000
0000
0000
,  // measure 47
3003
1000
0010
0100
,  // measure 48
0000
0001
0000
0000
0000
0000
0000
0000
0000
1000
0000
0000
0000
0000
0000
0000
,  // measure 49
0000
0001
0000
0000
0000
0000
0000
0000
1000
0000
0000
0000
0000
0000
0000
0000
,  // measure 50
0000
0010
0000
0000
0000
0000
0000
0000
0000
1000
0000
0000
0000
0000
0000
0000
,  // measure 51
0000
1000
0000
0000
0100
0000
0000
0000
,  // measure 52
0000
0000
0010
0000
,  // measure 53
0001
0000
0000
0000
,  // measure 54
0000
1000
0000
0000
0000
0010
0000
0000
,  // measure 55
0000
1000
0000
0000
0000
0000
0000
0000
,  // measure 56
0001
0000
0000
0000
,  // measure 57
0000
0100
0000
0000
0000
0000
0000
0000
,  // measure 58
0000
0001
0000
0000
0000
1000
0000
0000
,  // measure 59
0000
0000
0000
0000
,  // measure 60
0000
0000
0000
0000
0000
0100
0000
0000
,  // measure 61
0000
0000
0000
0000
0000
0010
0000
0000
,  // measure 62
0000
0000
0001
0000
,  // measure 63
0000
0000
1000
0000
,  // measure 64
0000
0000
0000
0000
0000
0001
0000
0000
,  // measure 65
0000
0000
0000
0000
0000
1000
0000
0000
,  // measure 66
0000
1000
0000
0000
0000
0001
0000
0000
,  // measure 67
0000
0001
0000
0000
0000
1000
0000
0000
,  // measure 68
0000
0010
0000
0000
0000
0100
0000
0000
,  // measure 69
0000
0010
0000
0000
0000
1000
0000
0000
,  // measure 70
0000
0000
1001
0000
,  // measure 71
0000
0000
0000
0000
0000
1001
0000
0000
,  // measure 72
0000
0000
0000
0000
0000
1001
0000
0000
,  // measure 73
0000
0000
0000
0000
0000
1001
0000
0000
,  // measure 74
0000
0000
0000
0000
0000
0100
0000
0000
,  // measure 75
0000
0010
0000
0000
0000
2000
0000
0000
,  // measure 76
0000
0000
0000
0000
0000
3000
0000
0000
;
