#TITLE:A Whole New World God Only Knows;
#SUBTITLE:Kami Nomi zo Shiru Sekai II Opening Theme;
#ARTIST:Oratorio The World God Only Knows;
#TITLETRANSLIT:;
#SUBTITLETRANSLIT:;
#ARTISTTRANSLIT:;
#GENRE:;
#CREDIT:;
#BANNER:A Whole New World God Only Knows.png;
#BACKGROUND:A Whole New World God Only Knows-bg.png;
#LYRICSPATH:A Whole New World God Only Knows.lrc;
#CDTITLE:;
#MUSIC:A Whole New World God Only Knows.mp3;
#OFFSET:0.040;
#SAMPLESTART:39.614;
#SAMPLELENGTH:12.000;
#SELECTABLE:YES;
#BPMS:0.000=150.800
,94.000=301.600
,97.000=150.800
,101.000=153.000
,126.500=76.500
,127.000=153.000
,128.000=76.500
,128.500=153.000
,129.500=76.500
,130.000=153.000
,169.000=306.000
,169.500=153.000
,177.500=306.000
,184.500=153.000
,200.000=306.000
,202.000=153.000
,207.000=306.000
,209.000=153.000
,211.000=306.000
,213.000=153.000
,215.000=306.000
,217.000=153.000
,219.000=306.000
,221.000=153.000
;
#STOPS:94.000=0.398,
95.000=0.099,
95.500=0.099,
96.000=0.298,
96.500=0.099,
162.500=0.196,
169.000=0.294,
176.500=0.196,
181.500=0.098,
183.000=0.098,
223.000=0.392
;
#BGCHANGES:;
#KEYSOUNDS:;
#ATTACKS:;

//---------------dance-single - ----------------
#NOTES:
     dance-single:
     :
     Hard:
     13:
     0.716,0.819,0.734,0.452,0.175,339.000,65.000,40.000,0.000,1.000,0.000,0.716,0.819,0.734,0.452,0.175,339.000,65.000,40.000,0.000,1.000,0.000:
2200
0000
0000
0000
0000
0000
0000
0300
,
0020
0000
0000
0000
0000
0000
0000
0030
,
0002
0000
0000
0000
0000
0000
0000
3000
,
0200
0000
0000
0000
0000
0000
0000
0300
,
0020
0000
0000
0000
0000
0000
0000
0003
,
0200
0000
0000
0000
0000
0000
0000
0030
,
2000
0000
0000
0000
,
3020
0000
0000
0000
0000
0000
0000
0330
,
2002
0000
0000
3003
,
0110
0000
1001
0000
0110
1000
0010
0100
,
0001
0000
1000
0010
0100
1000
0010
1000
0001
0000
0000
0000
0110
0000
0100
0000
,
0010
1000
0100
0010
0001
0010
0100
1000
,
0100
0000
0010
1000
0001
0100
0010
1000
0101
0000
0000
0000
0010
0000
0100
0000
,
0110
0000
1000
0100
0010
1000
0001
0100
,
0010
1000
0100
0010
0001
0010
0001
0010
,
0011
0100
0010
0110
1000
0100
1100
0100
,
0010
0110
0100
0010
0100
0010
0100
0010
,
1001
0000
0110
0000
1000
0100
0010
0100
,
0010
0100
0001
1000
0100
0010
0001
1000
,
1001
0000
0110
0000
1000
0100
0010
0001
,
0010
0100
1000
0100
0010
0001
0010
0001
,
0001
0001
0001
0001
2000
0000
3020
0000
,
0230
0000
0000
0000
,
0000
0000
0000
0300
1001
0000
1000
0100
,
0010
1000
0002
0000
0000
0100
0100
0000
,
0100
0000
0003
0000
1001
0000
0000
0000
0110
0000
1000
0010
1000
0010
1000
0010
,
1000
0010
0110
0000
1000
0000
0010
0000
0100
0000
0010
0000
0110
0000
0100
0000
,
0110
0000
0100
0000
0110
0000
1000
0100
0010
0001
0010
0100
1000
0010
0001
0010
,
1000
0100
0101
0000
0100
0000
0010
0000
0100
0000
0010
0000
0110
0000
1000
0000
,
0100
0020
0000
0130
0001
0100
0010
1000
,
0110
1001
0000
0100
0010
1000
0010
0100
,
1000
0000
1100
0000
1000
0000
0100
0010
0100
0010
0200
0000
0301
0010
0001
0010
,
0002
0000
0103
0010
0100
0010
0200
0000
0310
0001
0100
0000
0001
0000
1001
0000
,
0100
0010
1000
0100
0010
0001
2002
0000
,
0000
0000
3003
0110
0000
1100
0100
0220
,
0000
0330
2002
0000
0000
3003
1000
0100
,
0010
0000
1000
0000
0001
0000
1000
0001
0100
0000
0010
0000
0001
0000
0101
0000
,
0100
0010
0110
1000
0100
1000
1100
0100
,
0010
0100
0001
1000
0100
0010
0001
0110
,
1000
0100
0010
0001
0010
0100
1000
0100
,
1000
0100
1000
0100
0011
1001
1001
0100
,
0010
0000
1000
0000
0100
0000
0010
0000
0001
0000
0010
0000
0100
0010
1000
0010
,
0100
1000
0010
0100
1001
0000
1001
0000
1000
0001
1000
0000
0100
0000
0010
0000
,
0001
0000
0010
0000
0100
0000
1000
0000
0100
0010
0100
0000
0000
0100
0000
0000
,
0100
1001
0000
0110
0000
1001
0000
0100
,
0000
0010
0000
1010
0100
0000
0110
0100
,
0000
0101
0100
0010
1000
0110
2000
0100
,
0001
0100
3002
0100
0010
0103
2000
0001
,
0010
0100
3002
0100
1000
0100
2003
0010
,
0100
3010
0200
0000
0010
0000
0310
0000
,
2000
0000
3001
0101
,
0110
0110
1001
2002
,
0000
3003
1100
1010
0110
0011
0200
0000
,
0000
0300
1010
0000
0101
0000
2000
0000
,
0000
3000
0110
0000
0101
0000
0220
0000
,
0000
0000
0000
0000
0000
0000
0000
0000
0330
0000
0000
0000
0000
0000
0000
0000
1000
0000
0000
0000
0000
0000
0000
0000
0100
0000
0000
0000
0000
0000
0000
0000
0010
0000
0000
0000
0000
0000
0000
0000
0001
0000
0000
0000
0000
0000
0000
0000
0202
0303
0000
0000
0000
0000
0000
0000
0000
0000
0000
0000
0000
0000
0000
0000
;

//---------------dance-single - ----------------
#NOTES:
     dance-single:
     :
     Medium:
     9:
     0.468,0.567,0.474,0.249,0.000,226.000,42.000,22.000,0.000,0.000,0.000,0.468,0.567,0.474,0.249,0.000,226.000,42.000,22.000,0.000,0.000,0.000:
2000
0000
0000
0000
,
3200
0000
0000
0000
,
0320
0000
0000
0000
,
0032
0000
0000
0000
,
0023
0000
0000
0000
,
0200
0030
0000
0000
0000
0000
0000
0000
,
2300
0000
0000
0000
,
3200
0000
0000
0000
,
0320
0000
0000
0030
,
1001
0000
0110
0000
1000
0100
0010
0000
,
1000
0010
0100
0001
0101
0000
0100
0010
,
0110
1000
0001
1000
,
0001
0000
0100
0010
0110
0000
1000
0001
,
1001
0000
0100
0000
0010
0000
1000
0010
,
0100
0010
1000
0001
,
1001
0000
0010
0110
0000
0000
1000
0000
,
0001
1001
0000
0100
0010
0000
1000
0001
,
0101
0000
0000
0000
1000
0010
0100
0000
,
0001
0000
0010
0000
1000
0001
0000
0100
,
0010
0000
0000
0000
1000
0100
0010
0001
,
0000
0000
0010
0100
0010
0000
1000
0100
,
0010
0001
0100
0000
0010
0000
1001
0000
,
0110
0000
0000
0100
,
0000
0000
1000
0000
1001
0000
0100
1000
,
0010
0100
0001
0000
0000
1000
0010
0000
,
0100
0000
1001
0000
0110
0000
1000
0010
,
0100
0001
0100
0000
0100
0000
1000
0100
,
0010
0000
0100
0000
0001
0010
0100
1000
,
0000
0010
0000
0100
0001
1000
0110
0000
,
1000
0001
0101
0000
1000
0010
0000
0100
,
0010
1000
0000
1000
0100
0010
0000
0001
,
0100
0010
0000
1000
0001
1001
0100
0010
,
0110
1000
0001
1001
0100
0010
0100
1001
,
0000
0100
0010
0100
0001
1000
0002
0000
,
0000
0000
0003
1000
0000
0100
0000
2000
,
0000
0000
3020
0000
0000
0030
1000
0001
,
0000
0110
0000
1001
0000
0011
0000
0110
,
0000
1000
1001
0000
0100
0010
0110
0000
,
1000
0001
1001
0000
0000
0100
0000
1001
,
0100
0010
1000
0000
0110
0001
0010
0100
,
0001
1000
0100
0010
0001
0100
1000
0000
,
0100
1010
0001
0100
0010
1000
0100
0010
,
0001
0100
0001
0001
0000
1000
0010
0100
,
0001
1000
0000
0000
0000
1000
0000
0001
,
1000
0001
0000
1000
0000
0010
0000
0000
,
0000
0100
0000
0010
0000
0000
0100
0000
,
0000
0001
0000
0000
0000
0000
1000
0000
,
0000
0010
1000
1001
,
0110
0000
1001
0100
0011
0000
0100
0010
,
0110
0000
1000
0001
0100
0000
0001
0000
,
2002
0000
3003
0100
,
0010
1000
0001
2002
,
0000
3003
0000
0220
,
0000
0330
0000
2002
,
0000
3003
0000
0220
,
0000
0330
0000
1001
;

//---------------dance-single - ----------------
#NOTES:
     dance-single:
     :
     Easy:
     5:
     0.370,0.409,0.429,0.260,0.000,168.000,38.000,23.000,0.000,0.000,0.000,0.370,0.409,0.429,0.260,0.000,168.000,38.000,23.000,0.000,0.000,0.000:
2000
0000
0000
3000
,
0200
0000
0000
0300
,
0002
0000
0000
0003
,
0200
0000
0000
0300
,
2000
0000
0000
3000
,
0020
0000
0000
0030
,
0002
0000
0000
0003
,
2000
0000
0000
0000
0000
3000
0000
0000
,
0020
0000
0000
0030
,
1001
0100
0010
0100
,
0001
1000
0000
0010
0100
0000
0001
0000
,
1000
0001
0100
0010
,
1000
0001
0000
0100
0010
0000
1000
0000
,
1001
0100
0110
0001
,
1001
0100
0110
1000
,
1001
0000
0000
0110
0000
0000
1001
0000
,
0000
0110
0000
0000
1100
0000
0000
0000
,
1001
0000
0100
0010
,
1000
0000
0001
0000
0100
0010
0000
1000
,
0001
0000
0100
0000
1001
0000
0000
0100
,
0000
0000
0001
0000
1000
0000
1000
0100
,
0010
0000
0000
0001
0100
0000
0001
0000
,
2002
0000
0000
0000
,
3003
0000
1001
0100
,
0000
1001
0000
0100
,
0010
0000
1001
0000
0100
0010
0000
1000
,
0000
0002
0000
0000
0000
0003
1000
0000
,
0010
0000
1000
0000
0100
0000
0010
1000
,
0000
0002
0000
0000
0000
0003
0100
0000
,
0010
2000
0000
0000
3000
0001
0000
0100
,
0001
0002
0000
0000
0000
0000
0003
0000
,
0000
0000
0000
1000
0001
1000
1000
0001
,
1000
0001
1000
0001
1000
0001
0000
0101
,
0000
1000
0010
0000
1000
0000
0002
0000
,
0000
0003
0000
1000
0000
0010
0000
2000
,
0000
0000
3200
0000
0000
0300
0000
0100
,
0000
1000
0000
0100
0000
0010
0000
1001
,
0000
0110
1000
1100
,
0100
0000
0110
0000
0000
0010
0000
0011
,
0000
1000
0000
0100
0000
0010
0000
0100
,
0000
0001
0000
1000
0000
1001
0110
0000
,
1000
0100
0010
1000
,
0010
0000
1001
1001
0000
0100
0000
0010
,
0000
1000
0000
0000
0000
1000
0000
0010
,
0000
1000
0000
1001
0000
0000
0000
0000
,
0000
0000
0000
0110
0000
0000
1001
0000
,
0000
0101
0000
0000
0000
0000
1010
0000
,
0100
0000
0101
0000
1000
0010
0110
0000
,
1000
1001
0101
0010
,
1010
1001
0100
0010
,
2000
0000
3000
0100
,
0010
1000
0100
2000
,
0000
3000
0100
2000
,
0000
3000
0000
2000
,
0000
3000
0010
0002
,
0000
0003
0000
0110
;

//---------------dance-single - Copied from----------------
#NOTES:
     dance-single:
     Copied from:
     Beginner:
     3:
     0.155,0.220,0.068,0.124,0.000,79.000,6.000,11.000,0.000,0.000,0.000,0.155,0.220,0.068,0.124,0.000,79.000,6.000,11.000,0.000,0.000,0.000:
2000
0000
3000
0000
,
0002
0000
0003
0000
,
2000
0000
3000
0000
,
0002
0000
0003
0000
,
2000
0000
3000
0000
,
0002
0000
0003
0000
,
2000
0000
3000
0000
,
0002
0000
0003
0000
,
2000
0000
3000
0000
,
1001
0000
0000
0000
,
0100
0000
0000
0000
,
1000
0000
0000
0000
,
0100
0000
0000
0000
,
0010
0000
0000
0000
,
0001
0000
0000
0000
,
0010
0000
0000
0000
,
0100
0000
0000
0000
,
1001
0000
0000
0000
,
1000
0000
0000
0000
,
0001
0000
0000
0000
,
1000
0000
0000
0000
,
0001
0000
0000
0000
,
1000
0000
0000
0000
,
0100
0000
1001
0000
,
0000
1001
0000
0000
,
0000
1000
0000
0001
,
0000
1000
0000
0000
,
0010
0000
0100
0000
,
0010
0000
0000
1000
,
0000
0001
0000
0000
,
1000
0001
0000
0000
,
1000
0000
0001
0000
0000
1000
0000
0000
,
0001
0000
0000
1000
0000
0000
0000
0001
,
0000
1000
0000
0010
0000
0100
0000
1000
,
0000
0000
0000
0001
0000
1000
0000
0002
,
0000
0000
0003
0000
0000
0000
0000
1000
,
0000
0000
0000
0001
0000
0000
0000
0100
,
0000
0000
0000
0010
,
0000
0000
0000
0000
0000
0000
0000
1001
,
0000
0000
0000
0000
,
0000
0000
0000
0000
0000
1000
0100
0000
,
0000
0000
0000
0000
,
0010
0000
0001
1000
0000
0100
0000
0000
,
0000
0000
0000
0000
0000
1000
0000
0000
,
0000
0001
0000
1000
0000
0000
0000
0000
,
0000
0000
0000
0001
0000
0000
1000
0000
,
0000
0001
0000
0000
0000
0000
0100
0000
,
0000
0010
0000
1000
,
0000
0001
0000
0100
,
0000
0010
0000
0000
,
1000
0000
0000
0000
,
0001
0000
0000
0200
,
0000
0300
0000
1000
,
0000
0000
0000
0001
,
0000
0000
0000
1000
,
0000
0000
0000
1001
;
