#TITLE:unfinished;
#SUBTITLE:[FULL SONG] Accel World ED;
#ARTIST:KOTOKO;
#TITLETRANSLIT:;
#SUBTITLETRANSLIT:;
#ARTISTTRANSLIT:;
#GENRE:;
#CREDIT:;
#BANNER:[Full Song] unfinished.png;
#BACKGROUND:[Full Song] unfinished-bg.png;
#LYRICSPATH:;
#CDTITLE:;
#MUSIC:[Full Song] unfinished.mp3;
#MENUCOLOR:0,0,1,1;
#METERTYPE:DDR X;
#OFFSET:2.941;
#SAMPLESTART:100.050;
#SAMPLELENGTH:12.000;
#LASTBEATHINT:4.722;
#SELECTABLE:YES;
#BPMS:0.000=146.000;
#STOPS:
;
#BGCHANGES:;
#KEYSOUNDS:;
#ATTACKS:;

//---------------dance-single - ----------------
#NOTES:
     dance-single:
     :
     Challenge:
     12:
     0.552,0.617,0.423,0.124,0.132,932.000,119.000,35.000,0.000,0.000,0.000,0.552,0.617,0.423,0.124,0.132,932.000,119.000,35.000,0.000,0.000,0.000:
0000
0000
0000
0000
,
0000
0000
0000
0000
,
0000
0000
0000
0000
,
0000
0000
0000
0000
,
1001
0000
0000
0000
,
0110
0000
0000
0000
,
1001
0000
0000
0000
,
0110
0000
0000
0000
,
1010
0000
0100
0010
0100
0000
0010
0100
,
1000
0100
0010
0001
0100
0000
1000
0100
,
0010
0000
0000
0010
0000
0000
0010
0000
1000
0000
0100
0000
0010
0000
0001
0000
,
1000
0100
0010
0100
,
1001
0000
0010
0100
,
0110
0000
0000
0000
2002
0000
0000
3003
,
0110
0000
0000
1000
0000
0000
0100
0000
0010
0000
0100
0000
0010
0000
0010
0000
,
0010
1000
0100
0010
0001
1000
1001
0000
,
0100
0000
0000
0010
0000
0000
1000
0000
0100
0000
0001
0000
0010
0000
0010
0000
,
0010
1000
0100
0010
0001
1000
0100
0010
,
1001
0000
0100
0000
0010
0100
0010
0100
,
0010
0000
1000
0000
0100
0010
0100
0010
,
0100
0000
1000
0000
0100
0010
0100
0000
,
1000
0100
0010
0001
1000
1000
0010
0010
,
2000
0000
0010
0100
,
3002
0000
0100
0010
,
0203
0000
0010
1000
,
0320
0000
0100
0000
1000
0000
0100
0030
,
2001
0100
0010
3100
,
1002
0100
0010
0103
,
0210
0001
0010
1300
,
0120
1000
0100
0031
,
1010
0100
0010
0100
0010
0010
1000
1000
,
0100
0010
0001
0100
0001
0001
1000
1000
,
0100
0010
0100
0001
1000
1000
0001
0001
,
0100
0010
1000
0001
0010
0010
0100
0100
,
1000
0100
0010
0001
1000
1000
0001
0001
,
0100
1000
0010
0100
0010
0010
1000
1000
,
0100
0010
0001
1000
0100
1000
0100
0010
,
1000
1000
0100
0100
0010
1000
0100
0010
,
2000
0000
0100
0000
0010
0000
0001
3000
,
0002
0000
0100
0000
1000
0000
0100
0003
,
0020
0000
0100
0000
1000
0000
0100
0030
,
0200
0000
0010
0000
1000
0000
0010
0300
,
1010
0100
0010
0000
0100
0010
0100
0000
,
1000
0100
0010
0000
0001
0010
0100
0000
,
1000
0100
0010
0100
1000
0100
0010
0001
,
1000
1000
0001
0001
0100
0100
0010
0100
,
2002
0000
0000
3003
,
0110
0000
1000
0010
1010
0000
0100
0001
,
0100
1000
0100
0010
0110
0000
0001
0100
,
0110
0000
1000
0100
0010
1000
1000
0001
,
0100
0010
0100
0010
0110
0000
1000
0001
,
1001
0000
0100
0001
0101
0000
1000
0010
,
0100
1000
0100
0010
0001
0000
1000
0100
,
0010
0000
0010
0100
0000
0000
0010
0000
1000
0000
0100
0000
0010
0000
0001
0000
,
1000
0100
0010
0001
1000
1000
0001
0100
,
0010
0000
1000
0100
0010
0000
0100
0010
,
0100
0001
0010
0100
1000
0000
0100
0100
,
0010
0000
0100
0010
1000
0100
0010
0001
,
0100
0010
0100
0010
1001
0000
0100
0010
,
0110
0000
1000
0001
1001
0000
0100
0010
,
1000
0100
0010
0001
1000
0000
0100
0010
,
1000
0000
0010
1000
0000
0100
1000
0000
0100
0000
0010
0000
0001
0000
1000
0000
,
0020
1000
0100
0031
,
1001
0000
0100
0010
0000
0100
0010
0000
0001
1000
0000
0010
0100
0000
0010
0000
,
0100
0000
1000
0000
0100
0010
0100
0000
,
1000
0000
0010
1000
0000
0010
0100
0000
0010
0100
0000
1000
0100
0000
0010
0000
,
0001
0000
1000
0000
0100
0000
0010
0000
0001
0000
0010
1000
0000
0100
0010
0000
,
0100
0000
0000
0000
0100
0000
0000
0000
0010
0000
0100
0010
0000
0100
0010
0000
,
1000
0000
0100
0000
0010
0000
0000
0000
1000
0000
1000
0100
0000
0100
1000
0000
,
0100
0000
0010
0000
0100
1000
0100
0000
,
1000
0100
0010
0001
1000
1000
0001
0001
,
2000
0000
0001
0000
,
3200
0000
0010
0000
,
0302
0000
0100
0000
,
0023
0000
0100
1000
,
0130
0000
0100
0000
0010
0010
0100
0100
,
1000
0000
0100
0000
1000
1000
0100
0000
,
0010
0000
1000
0100
0010
0000
1000
0000
,
0100
0010
1000
0100
0001
0001
1000
1000
,
1001
0000
0100
0000
0010
0100
0010
0000
,
1000
0100
0010
0000
1000
1000
0001
0001
,
0100
0000
0110
0000
1000
0100
0010
0100
,
1000
0000
0001
0010
0000
0010
0100
0000
0010
0000
0100
0000
0010
0000
0000
0000
,
1000
0000
0100
0000
0010
0000
0100
0010
0000
0000
0010
0000
0100
0000
0000
0000
,
0001
0000
0010
0000
0100
0000
0010
0001
0000
0000
0000
0000
0100
0000
0010
0000
,
0100
0000
1000
0100
0010
0000
0100
0010
,
1000
0000
0100
0000
0000
0010
0000
0000
0100
0000
0000
0010
0000
0000
0100
0000
,
2002
0000
0000
3003
,
0110
0000
1000
0010
0110
0000
0001
0100
,
0110
0000
1000
0010
0100
0010
1000
0100
,
0010
0000
1000
0100
0010
0000
0100
1000
,
0110
0001
0100
0010
0110
0000
1000
0010
,
0110
0000
0001
0100
0110
0000
1000
1000
,
0100
0100
0010
0010
1000
0000
0100
0010
,
1000
0000
0100
0010
0000
0100
1000
0000
1000
0000
0100
0000
0010
0000
0001
0000
,
0100
0000
0010
0000
0110
0000
1000
0001
,
1001
0000
0100
0010
0110
0000
1000
0001
,
1001
0000
0100
0010
0110
0000
1000
0100
,
0010
0000
1000
1000
0001
0001
1000
0100
,
0010
0001
1000
0001
1000
0000
0001
0100
,
0010
0000
1000
0100
0001
0000
1000
0100
,
0010
1000
0010
0001
1000
0000
1000
0010
,
0001
0000
0100
0010
0000
0100
1000
0000
0010
0000
0001
0000
1000
0000
0010
0000
,
0200
0001
1000
0010
,
1300
0100
0010
0100
,
0001
0100
0010
1000
,
0100
0010
1000
0010
,
0100
0001
0100
0010
,
1000
1000
0100
0100
,
1000
0100
0010
0100
,
0001
0100
0010
1000
,
0100
0010
1000
0010
,
1000
0100
0010
1000
,
0010
0100
0001
1000
,
0110
0001
0100
0010
,
1010
0100
0001
0100
,
0110
1000
0100
0001
,
1010
0100
0001
1000
,
0110
0001
0110
1000
,
0100
0010
1000
0010
0100
0010
0001
1000
,
0020
0000
1000
0000
0100
0000
0001
0030
,
0202
0000
0000
0303
,
2000
0000
0000
0000
,
3200
0000
0000
0000
,
0320
0000
0000
0000
,
0032
0000
0000
0000
,
1003
0000
0100
0010
0110
0000
1000
0001
,
1000
0000
0100
0010
0100
0000
1000
0100
,
0001
0000
0001
0100
0000
0100
0001
0000
0001
0000
0001
0000
0001
0000
0001
0000
,
0002
0000
0000
0000
,
1003
0000
0110
0100
0110
0000
0011
0010
,
0110
0000
1001
0100
0110
0000
1010
0100
,
0101
0000
1010
0100
1010
0000
0101
0010
,
1100
0010
0101
0010
1100
0000
1010
0100
,
0101
0000
1010
0100
1010
0000
0011
0100
,
1010
0000
0011
0100
1001
0000
0001
0010
,
0101
0000
0001
0010
0000
0100
1000
0000
0010
0000
0101
0000
0010
0000
1000
0000
,
1010
0000
0110
0000
0110
0000
1010
0100
,
0110
0000
1001
0010
0110
0000
1001
0100
,
1010
0000
0101
0010
1010
0000
0110
1000
,
1001
0000
0101
0010
0110
0000
1010
0100
,
1001
0100
1010
0100
0110
0000
1001
0100
,
1010
0000
0101
0010
0101
0000
0110
0001
,
0011
0000
0110
0001
0110
0000
1010
1000
,
1010
0000
0010
0100
0000
0010
0001
0000
0100
0000
0010
0000
0100
0000
0010
0000
,
1010
0000
0110
0000
0110
0000
1000
0010
,
0110
0000
0010
0100
0000
0001
0010
0000
0110
0000
1000
0000
0010
0000
0100
0000
,
0020
0000
1000
0000
0100
0000
0001
0030
,
2010
0100
0010
3100
,
0101
0000
0010
0100
0000
0010
0100
0000
0100
1000
0000
0100
0010
0000
0010
0000
,
0010
0000
0000
0100
0000
0000
1000
0000
0100
0000
1000
0000
0100
0000
0000
0000
,
0010
0000
0100
0010
0000
0100
0010
0000
0100
0010
0000
1000
0001
0000
0001
0000
,
0100
0000
0010
0100
0000
0010
0100
0000
0100
0000
1000
0010
0000
0100
0010
0000
,
0100
0000
0000
0000
1000
0000
0000
0000
0010
0000
0100
0010
0000
0100
0010
0000
,
1000
0000
0000
0000
0100
0000
0000
0000
0001
0000
1000
0001
0000
1000
0001
0000
,
1000
0000
0000
0000
0100
0000
0000
0000
0010
0000
0000
1001
0000
0000
0010
0000
,
1000
0100
0010
0001
1000
1000
0001
0001
,
1001
0000
0010
0100
0000
0010
1000
0000
0100
0010
0000
0001
1000
0000
1000
0000
,
0100
0000
0000
0010
0000
0000
1000
0000
0100
0000
0000
0000
0110
0000
0000
0000
,
1000
0000
0010
0100
0000
1000
0010
0000
0100
0010
0000
0001
1000
0000
1000
0000
,
0010
0000
0100
0010
0000
1000
0100
0000
0010
0000
0010
0100
0000
0010
0100
0000
,
0010
0000
0000
0000
0110
0000
0000
0000
1000
0000
0010
0100
0000
0100
0010
0000
,
1001
0000
0000
0000
1000
0000
0000
0000
0010
0000
0100
0010
0000
0010
0100
0000
,
1010
0000
0100
0000
1000
0100
0010
0001
,
1000
0000
1000
0000
0001
0000
0001
0000
1000
0000
0000
1001
0000
0000
1000
0000
,
0002
1003
0000
0000
;
