#TITLE:euphoric field;
#SUBTITLE:[FULL SONG] ef ~A tale of memories~ OP;
#ARTIST:ELISA;
#TITLETRANSLIT:;
#SUBTITLETRANSLIT:;
#ARTISTTRANSLIT:;
#CREDIT:;
#BANNER:[Full Song] euphoric field.png;
#BACKGROUND:[Full Song] euphoric field-bg.png;
#LYRICSPATH:;
#CDTITLE:;
#MUSIC:[Full Song] euphoric field.mp3;
#MENUCOLOR:0,0,1,1;
#METERTYPE:DDR X;
#OFFSET:-0.624;
#SAMPLESTART:100.030;
#SAMPLELENGTH:12.000;
#SELECTABLE:YES;
#BPMS:0.000=150.000,200.000=75.000,232.000=150.000,304.000=75.000,320.000=150.000,392.000=75.000,424.000=150.000,480.000=75.000;
#STOPS:;
#BGCHANGES:;

//---------------dance-single - ----------------
#NOTES:
     dance-single:
     :
     Challenge:
     13:
     0.408,0.542,0.244,0.333,0.067: // measure 1
0000
0000
0000
0000
,  // measure 2
0000
0000
0000
0000
,  // measure 3
0000
0000
0000
0000
,  // measure 4
0000
0000
0000
0000
,  // measure 5
0000
0000
0000
0000
,  // measure 6
0000
0000
0000
0000
,  // measure 7
0000
0000
0000
0000
,  // measure 8
0000
0000
0000
0000
,  // measure 9
2000
0000
0000
0010
0000
0000
0010
0000
,  // measure 10
3002
0000
0000
0100
0000
0000
0100
0000
,  // measure 11
2003
0000
0000
0000
3010
0100
0001
0200
,  // measure 12
0000
0320
0000
0000
0000
0000
0000
0000
,  // measure 13
2030
0000
0000
0010
0000
0000
0010
0000
,  // measure 14
3002
0000
0000
0100
0000
0000
0100
0003
,  // measure 15
2010
0000
0000
0001
0000
0000
0000
0000
,  // measure 16
0010
0010
0001
0001
,  // measure 17
3002
0000
0000
0100
0000
0000
1000
0000
,  // measure 18
0203
0000
0000
0010
0000
0000
0001
0300
,  // measure 19
2000
0001
0000
0000
0010
0000
0000
0001
,  // measure 20
0000
0010
0000
0000
0001
0000
0001
3000
,  // measure 21
0102
0000
0000
0100
0000
0000
0010
0000
,  // measure 22
1000
0000
0000
0100
0000
0000
0003
0000
,  // measure 23
0210
0000
0000
1000
0000
0000
0010
0000
,  // measure 24
0002
0000
0000
0000
0000
0003
0300
0000
,  // measure 25
0101
0000
0000
0110
0000
1000
0010
0100
,  // measure 26
0010
0000
0000
1000
0001
0100
0010
1000
,  // measure 27
0010
0000
1000
0100
0000
0010
0100
0001
,  // measure 28
0100
0000
0010
0100
0010
1000
0100
0010
,  // measure 29
1000
0110
0101
0110
,  // measure 30
1001
0100
0010
0100
,  // measure 31
1100
0100
0010
0100
,  // measure 32
0011
0100
0010
0100
,  // measure 33
0110
0000
1000
1000
1010
0000
0100
0100
,  // measure 34
0110
0001
0101
1000
0110
0100
0110
0000
,  // measure 35
2000
0010
0001
0010
,  // measure 36
3002
0100
1000
0100
,  // measure 37
0203
0010
0001
0010
,  // measure 38
0320
0000
0100
0000
1000
0000
0100
0030
,  // measure 39
2000
0100
0001
0001
,  // measure 40
3002
0000
0100
0000
1000
0000
1000
0003
,  // measure 41
2000
0000
0010
0000
0001
0000
0001
3000
,  // measure 42
0002
1003
0020
0031
,  // measure 43
0110
0000
1000
0100
0000
0001
0100
0000
,  // measure 44
0020
0000
1030
0010
0000
0100
0001
0000
,  // measure 45
0110
0000
1000
0100
0000
0001
0010
0000
,  // measure 46
0100
0000
0120
0100
0230
0000
0310
0000
,  // measure 47
0110
0000
1000
0100
0000
0001
0100
0000
,  // measure 48
1010
0000
0100
0010
0000
0100
0001
0000
,  // measure 49
2010
0000
0001
0000
,  // measure 50
0010
0010
0001
3001
,  // measure 51
0001
0000
0000
0001
1000
0000
0100
0010
,  // measure 52
0100
0000
0000
1000
0001
0000
0000
0000
1000
0000
0000
0000
0010
0000
0100
0000
,  // measure 53
0010
0000
0000
0000
0000
0000
0000
0000
1000
0000
0000
0000
0000
0000
0000
0000
1000
0000
0000
0000
0000
0000
0000
0000
0001
0000
0000
0100
0000
0000
0010
0000
,  // measure 54
1000
0000
0010
0000
0100
0010
0100
0010
,  // measure 55
1000
0000
0001
0001
1000
0000
0100
0000
,  // measure 56
0100
0000
0000
0010
0100
0000
0010
0000
0001
0000
0000
0000
1000
0000
1000
0000
,  // measure 57
0001
0000
0100
0000
0010
0100
0100
0010
,  // measure 58
0100
0000
0000
0000
1000
0000
0000
0000
1001
0000
0001
0000
1000
0100
0010
0001
,  // measure 59
1010
0100
0010
0100
,  // measure 60
0110
0100
0001
0100
,  // measure 61
0200
0000
0010
0001
0302
0000
0003
0000
,  // measure 62
0001
0001
1000
0100
,  // measure 63
1010
0100
0010
0100
,  // measure 64
0100
0010
0001
0100
,  // measure 65
0010
1000
0100
0001
,  // measure 66
0100
0020
2030
3010
,  // measure 67
0110
0100
1000
0100
,  // measure 68
0010
0001
0100
0010
,  // measure 69
2000
0000
3010
0000
0200
0000
0300
0010
,  // measure 70
0100
0001
0110
0101
,  // measure 71
0110
0100
1000
0100
,  // measure 72
0010
2000
3200
0310
,  // measure 73
1001
0100
0010
0100
,  // measure 74
0001
1000
0100
0010
,  // measure 75
1100
0100
0010
0100
,  // measure 76
0110
1000
0001
0100
,  // measure 77
0200
0000
0000
0010
0000
0000
0010
0000
2300
0000
0000
0100
0000
0000
0100
0000
,  // measure 78
3020
0000
0000
0100
0000
0000
0100
0000
0230
0000
0000
0001
0000
0000
0001
0000
,  // measure 79
0320
0000
0000
1000
0000
0000
1000
0000
2030
0000
0000
0001
0000
0000
0001
0000
,  // measure 80
3200
0000
0000
1000
0000
0000
0010
0000
0320
0000
0000
1000
0000
0000
0001
0000
,  // measure 81
0031
0000
1000
0010
0000
0100
0010
0000
,  // measure 82
1000
0000
0001
0100
0000
0010
0100
0000
,  // measure 83
1000
0100
0000
0000
0010
0100
0001
0100
,  // measure 84
0000
0001
0010
0000
1000
0100
0010
0000
,  // measure 85
1000
0100
0000
0010
0000
0100
0010
0000
,  // measure 86
0100
0000
0001
0100
0000
0010
1000
0000
,  // measure 87
0100
0100
0000
0010
1000
0000
0001
0100
,  // measure 88
0010
0100
1000
0100
0001
0100
1000
0100
,  // measure 89
0001
0000
0010
0100
0000
1000
0100
0010
,  // measure 90
0001
0000
0100
0010
0000
0001
0100
1000
,  // measure 91
0010
0000
0100
0001
0000
1000
0100
0001
,  // measure 92
0010
0000
1000
0100
0000
0001
1000
0100
,  // measure 93
0120
1000
0100
0001
,  // measure 94
0230
1000
0010
0301
,  // measure 95
0110
0001
0010
0100
,  // measure 96
1100
0100
0010
0001
,  // measure 97
0110
0000
0001
0100
0101
0000
1000
0010
,  // measure 98
1010
0100
0110
0100
0101
0100
0110
0000
,  // measure 99
0210
0000
0000
2000
0000
3000
0000
0000
1000
0000
0000
0020
0000
0030
0010
0000
,  // measure 100
0320
0000
0000
0002
0000
0003
0001
0000
2000
0000
3000
2000
0000
3000
0000
0000
,  // measure 101
0230
0000
0000
2000
0000
3000
0000
0000
1000
0000
0000
0002
0000
0003
0001
0000
,  // measure 102
0302
0000
0000
0020
0000
0000
0030
0000
0020
0000
0030
0020
0000
0030
0000
0000
,  // measure 103
0203
0000
0000
2000
0000
3000
0000
0000
2000
0000
3000
1000
0000
0000
0010
0000
,  // measure 104
0320
0000
0000
0002
0000
0003
0001
0000
0002
0000
0003
0001
0000
0000
0000
0000
,  // measure 105
2030
0000
0000
0002
0000
0000
0003
0000
0002
0000
0003
0002
0000
0003
3001
0000
,  // measure 106
1002
0000
0000
0000
0000
0000
0000
0000
0000
0000
0000
0000
0000
0000
0000
0000
1000
0000
0000
1000
0000
0000
1000
0000
1000
0000
0000
1000
0000
0000
1003
0000
,  // measure 107
1001
0000
0100
0010
0100
0000
0100
0001
,  // measure 108
1000
0100
0010
0001
0000
0000
0100
0010
,  // measure 109
0100
0010
1000
0100
0010
0001
0100
0000
,  // measure 110
0110
0010
1010
0000
0110
0000
0101
0000
,  // measure 111
0110
0000
1000
0100
0010
0001
0100
1000
,  // measure 112
0010
0100
1000
0100
0010
0001
0100
1000
,  // measure 113
0020
0000
1000
0000
0100
0000
0001
0030
,  // measure 114
1001
0110
0101
0110
,  // measure 115
0110
0000
1000
0100
0010
0001
0100
1000
,  // measure 116
0020
0000
0130
1000
0100
0000
0001
0010
,  // measure 117
2000
0000
3100
0010
0100
0001
0100
0010
,  // measure 118
2000
0100
3200
0010
0320
0100
0230
0001
,  // measure 119
0301
1000
0100
0010
0001
0100
1000
0100
,  // measure 120
1010
0000
0100
0010
0100
0010
0100
0010
,  // measure 121
2002
0000
0000
0000
,  // measure 122
0000
0000
0000
0000
,  // measure 123
0000
0000
0000
0000
0000
0000
0000
0000
0000
3003
0000
0000
0000
0000
0000
0000
;
