#TITLE:Te wo Gyu Shite ne;
#SUBTITLE:Acchi Kocchi ED;
#ARTIST:Miniwa Tsumiki;
#TITLETRANSLIT:;
#SUBTITLETRANSLIT:;
#ARTISTTRANSLIT:;
#CREDIT:;
#BANNER:[Full Song] Te wo Gyu Shite ne.png;
#BACKGROUND:[Full Song] Te wo Gyu Shite ne-bg.png;
#LYRICSPATH:;
#CDTITLE:;
#MUSIC:[Full Song] Te wo Gyu Shite ne.mp3;
#MENUCOLOR:0,0,1,1;
#METERTYPE:DDR X;
#OFFSET:1.017;
#SAMPLESTART:100.000;
#SAMPLELENGTH:12.000;
#SELECTABLE:YES;
#BPMS:0.000=127.000;
#STOPS:96.000=2.835
;
#BGCHANGES:;

//---------------dance-single - ----------------
#NOTES:
     dance-single:
     :
     Challenge:
     6:
     0.261,0.304,0.051,0.149,0.000: // measure 1
0000
0000
0000
0000
,  // measure 2
0001
0001
0010
0010
,  // measure 3
1000
1000
0100
0100
,  // measure 4
0010
0010
0001
0001
,  // measure 5
1000
1000
0100
0100
,  // measure 6
0010
0010
0001
0001
,  // measure 7
1000
1000
0100
0100
,  // measure 8
0010
0010
1000
1000
,  // measure 9
0001
0000
0000
0000
,  // measure 10
1000
1000
0100
0100
,  // measure 11
0010
0010
0001
0001
,  // measure 12
1000
1000
0001
0001
,  // measure 13
1000
1000
0010
0010
,  // measure 14
0100
0100
0001
0001
,  // measure 15
1000
1000
0100
0100
,  // measure 16
0010
0010
0001
0001
,  // measure 17
1000
0000
0000
0000
,  // measure 18
1001
0100
0000
0100
,  // measure 19
1010
0100
0000
0010
,  // measure 20
1001
0100
0000
0010
,  // measure 21
1001
0100
0000
0010
,  // measure 22
2000
0100
0100
0100
,  // measure 23
3002
0010
0010
0010
,  // measure 24
0203
0010
0010
0310
,  // measure 25
2002
3003
0000
0000
0000
0000
0000
0000
0000
0000
0000
0000
0000
0000
0000
0000
,  // measure 26
1001
1000
1000
1000
,  // measure 27
0001
0001
0001
0001
,  // measure 28
0100
0100
0100
0100
,  // measure 29
0010
0010
0010
0010
,  // measure 30
2000
0000
3000
0000
,  // measure 31
0002
0000
0003
0000
,  // measure 32
2000
0000
3000
0010
,  // measure 33
0100
0010
1000
0100
,  // measure 34
0001
0001
0001
0001
,  // measure 35
0100
0100
0100
0100
,  // measure 36
0010
0010
0010
0010
,  // measure 37
1000
1000
1000
1000
,  // measure 38
0001
1000
0001
1000
,  // measure 39
0010
0100
0010
0100
,  // measure 40
1000
0010
1000
0010
,  // measure 41
0001
0100
0001
0100
,  // measure 42
0010
1000
0100
0010
,  // measure 43
1001
0000
0000
0000
,  // measure 44
0100
0100
0100
0100
,  // measure 45
0000
0001
0001
0001
,  // measure 46
0001
0000
1000
0100
,  // measure 47
0010
0000
0001
0010
,  // measure 48
0100
0100
0100
0100
,  // measure 49
0010
0010
0010
0010
,  // measure 50
1000
1000
1000
1000
,  // measure 51
0001
0001
0001
0001
,  // measure 52
2000
0000
0000
0000
,  // measure 53
3002
0000
0000
0000
,  // measure 54
0203
0000
0000
0000
,  // measure 55
0320
0000
0000
0000
,  // measure 56
2030
0000
0000
0000
,  // measure 57
3002
0000
0000
0000
,  // measure 58
2003
0000
0000
0000
,  // measure 59
3001
0000
0000
0000
,  // measure 60
1000
1000
1000
1000
,  // measure 61
0010
0010
0010
0010
,  // measure 62
0100
0100
0010
0010
,  // measure 63
1000
1000
0001
0001
,  // measure 64
1000
1000
0100
0100
,  // measure 65
0010
0010
0001
0001
,  // measure 66
1000
1000
0001
0001
,  // measure 67
1000
0000
0000
0000
,  // measure 68
2000
0100
0000
0010
,  // measure 69
3002
0100
0000
0010
,  // measure 70
0203
0010
0000
1000
,  // measure 71
0302
0010
0000
1003
,  // measure 72
1000
1000
0100
0100
,  // measure 73
0010
0010
0001
0001
,  // measure 74
1000
0100
0010
0001
,  // measure 75
1001
0000
0000
0000
,  // measure 76
1000
0100
0010
0001
,  // measure 77
0100
0010
1000
0100
,  // measure 78
0010
0001
1000
0100
,  // measure 79
0010
1000
0100
0001
,  // measure 80
1000
0010
0100
0001
,  // measure 81
1000
0100
0010
0001
,  // measure 82
1000
0100
0010
0001
,  // measure 83
0100
0010
1000
0100
,  // measure 84
2000
0100
0010
0010
,  // measure 85
3020
0100
0001
0001
,  // measure 86
0230
0000
1000
0000
1000
0000
0010
0300
,  // measure 87
0010
0100
0010
1000
,  // measure 88
1001
0100
0010
0100
,  // measure 89
0110
1000
0100
0010
,  // measure 90
1001
0100
0010
0100
,  // measure 91
1001
0100
0010
0100
,  // measure 92
2000
0000
0001
0000
,  // measure 93
3010
0010
0100
0100
,  // measure 94
2000
0100
0000
0010
,  // measure 95
3020
0001
0000
0001
,  // measure 96
0230
1000
0000
0010
,  // measure 97
0320
0100
0000
1030
,  // measure 98
1001
0100
0010
1000
,  // measure 99
0100
0010
0001
0100
,  // measure 100
0020
0100
0100
0130
,  // measure 101
0100
0010
1000
0100
,  // measure 102
0001
0001
1000
1000
,  // measure 103
0100
0100
0010
0010
,  // measure 104
0100
0100
1000
1000
,  // measure 105
0001
1000
0001
0000
,  // measure 106
0100
0100
0010
0010
,  // measure 107
1000
1000
0001
0001
,  // measure 108
0100
0100
0010
0010
,  // measure 109
1000
1000
0100
0100
,  // measure 110
0001
1000
0000
0000
0000
0000
0000
0000
,  // measure 111
0000
0010
0000
0010
0000
0000
0000
0000
,  // measure 112
0100
0010
0000
0000
0000
0000
0000
0000
,  // measure 113
0000
1000
0000
0000
0001
0000
0000
0000
,  // measure 114
1000
1000
1000
1000
,  // measure 115
0100
0100
0100
0100
,  // measure 116
0010
0010
0010
0010
,  // measure 117
0001
0001
0001
0001
,  // measure 118
2000
0000
0000
0010
,  // measure 119
3020
0100
0000
0100
,  // measure 120
0032
0010
0000
0010
,  // measure 121
0023
0000
0000
0000
,  // measure 122
2030
0100
0000
0100
,  // measure 123
3020
0100
0000
0100
,  // measure 124
0230
0001
0000
0001
,  // measure 125
0302
1000
0000
1000
,  // measure 126
0203
0010
0000
0310
,  // measure 127
1000
0000
0000
0000
0010
0000
0000
0100
,  // measure 128
0000
2000
0000
0000
,  // measure 129
0000
0000
0000
0000
,  // measure 130
0000
0000
3000
0000
;
