#TITLE:Tanah Airku (From Merah Putih Vocaloid);
#SUBTITLE:[FULL SONG] [Remix] Indonesian Song;
#ARTIST:REDSHiFT feat. Hatsune Miku & Megurine Luka;
#TITLETRANSLIT:;
#SUBTITLETRANSLIT:;
#ARTISTTRANSLIT:;
#CREDIT:;
#BANNER:[Full Song] Tanah Airku (From Merah Putih Vocaloid).png;
#BACKGROUND:[Full Song] Tanah Airku (From Merah Putih Vocaloid)-bg.png;
#LYRICSPATH:;
#CDTITLE:;
#MUSIC:[Full Song] Tanah Airku (From Merah Putih Vocaloid).mp3;
#MENUCOLOR:0,1,0,1;
#METERTYPE:DDR X;
#OFFSET:0.000;
#SAMPLESTART:99.990;
#SAMPLELENGTH:12.000;
#SELECTABLE:YES;
#BPMS:0.000=130.000;
#STOPS:;
#BGCHANGES:;

//---------------dance-single - ----------------
#NOTES:
     dance-single:
     :
     Challenge:
     14:
     0.624,0.760,0.442,0.481,0.271: // measure 1
0000
0000
0000
0000
,  // measure 2
0000
0000
0000
0000
,  // measure 3
0000
0000
0000
0000
,  // measure 4
0000
0000
0000
0000
,  // measure 5
1000
1001
0001
1001
,  // measure 6
1000
1001
0001
1001
,  // measure 7
0100
0110
0010
0110
,  // measure 8
0100
0000
0110
0000
0010
0000
0110
0010
,  // measure 9
1000
1001
0001
1001
,  // measure 10
1000
1001
0001
1001
,  // measure 11
0100
0110
0010
0110
,  // measure 12
1000
1001
0001
1001
,  // measure 13
0100
0110
0010
0110
,  // measure 14
1000
1001
0001
1001
,  // measure 15
2000
0100
3001
0200
0010
0001
0310
0002
,  // measure 16
0100
1003
0100
0010
1100
1100
0011
0011
,  // measure 17
1000
0000
0010
0100
0000
0010
0000
0010
0000
0010
0000
2000
0000
0000
3010
0000
,  // measure 18
0100
0000
0001
1000
0000
0100
0000
0010
0000
0010
0000
0002
0000
0000
1003
0000
,  // measure 19
0100
0000
0010
0001
0000
0001
0000
0100
0000
1000
0000
2000
0000
0000
3001
0000
,  // measure 20
0100
0000
0000
0100
0000
0000
0200
0000
0000
0310
0000
0000
1000
0000
1000
0000
,  // measure 21
0100
0000
0010
0001
0000
0001
0000
0100
0000
0010
0000
0020
0000
0000
1030
0000
,  // measure 22
0010
0000
0100
0010
0000
0010
0000
0010
0000
0100
0000
0000
0020
0000
1030
0000
,  // measure 23
0100
0000
0010
0001
0000
0100
0000
1000
0000
0100
0000
0000
0002
0000
1003
0000
,  // measure 24
0200
0000
0000
0320
0000
0000
0230
0000
0000
0320
0000
0000
0230
0000
0320
0000
,  // measure 25
1030
0000
0100
0010
0000
0001
0000
0001
0000
0100
0000
2000
0000
0000
3010
0000
,  // measure 26
0100
0010
0100
0010
0000
0000
0002
0000
0010
0000
0103
0000
0010
0100
0010
0100
,  // measure 27
0010
0000
0000
0010
0001
0010
0000
0010
0000
0100
0010
0000
1000
0000
0010
0000
,  // measure 28
0100
0010
0100
0010
0100
0000
1000
0100
2000
0000
3000
0001
0020
0000
0032
0000
,  // measure 29
0103
0000
0010
0100
0000
0100
0000
0010
0000
0100
0000
2000
0000
0000
3100
0000
,  // measure 30
0010
0001
0010
0001
0100
0000
0020
0000
0030
1000
0100
0010
0001
1000
0001
1000
,  // measure 31
0200
0000
0320
0000
0031
1000
0000
0020
0031
0000
0000
0200
0310
0000
0100
0000
,  // measure 32
0010
0100
0010
0000
1000
0001
1000
0000
0010
0000
0100
0000
0010
0000
0100
0000
,  // measure 33
2010
0010
0010
0010
,  // measure 34
3002
0000
0100
0000
0100
0000
0100
0103
,  // measure 35
2000
0000
0010
0000
0010
0000
0010
3010
,  // measure 36
0200
0000
0010
0000
0010
0000
0010
0310
,  // measure 37
0002
0000
0010
0000
0010
0000
0010
0013
,  // measure 38
0020
0000
0100
0000
0100
0000
0100
0100
,  // measure 39
2030
0000
0100
0000
0100
0000
3100
0020
,  // measure 40
0000
1030
0100
0000
0010
0001
0100
0010
,  // measure 41
0120
1000
0130
0010
0120
1000
0130
0010
,  // measure 42
0100
0010
0110
1000
0100
0001
0101
1000
,  // measure 43
0010
0100
1010
0100
0010
0100
0101
1000
,  // measure 44
0010
0100
0210
1300
1010
0100
0101
0100
,  // measure 45
0120
1000
0130
0010
0120
1000
0031
0100
,  // measure 46
0110
1000
0110
1000
0110
0100
0110
0100
,  // measure 47
0101
0100
0110
1000
0100
0010
0110
1000
,  // measure 48
0001
0100
0110
1000
0100
0010
0101
1000
,  // measure 49
0020
0000
1000
0030
0200
0000
0320
0000
,  // measure 50
2030
0000
3200
0300
0020
0000
2030
3000
,  // measure 51
0002
0000
0000
0000
0203
0000
0000
0320
,  // measure 52
0000
0000
1000
0000
0130
0000
0110
0100
,  // measure 53
0110
0000
0010
0000
0010
0000
0110
0010
,  // measure 54
0110
0001
0110
1000
,  // measure 55
0110
0001
0010
0110
,  // measure 56
1002
0000
0000
0000
1000
0000
0000
0000
1000
0000
1003
0000
1000
0001
1000
0001
,  // measure 57
1000
0000
0100
0000
0020
0000
0030
0100
0000
0000
0010
0000
0010
0000
1000
0000
,  // measure 58
0100
0010
0001
1000
0100
0010
0001
0100
,  // measure 59
1000
0000
1000
0000
2000
0000
0000
3100
0000
0000
0010
0000
0100
0000
0001
0000
,  // measure 60
0100
1000
0100
0010
0100
0001
0100
1000
,  // measure 61
0010
0000
0010
0000
0020
0000
0000
0130
0000
0000
0100
0000
0002
0000
1003
0000
,  // measure 62
0100
0010
0100
0001
0100
0010
0100
0001
,  // measure 63
1001
1000
0100
0010
1001
0100
0001
1000
,  // measure 64
0100
0000
0010
0000
0100
0000
0010
0000
0100
0000
0100
0000
0100
0010
0100
0010
,  // measure 65
0100
1000
0100
0010
0001
0100
0010
0100
,  // measure 66
0020
0100
1030
0100
0002
0000
2003
0000
,  // measure 67
3010
0000
0100
0010
0110
0100
0010
0100
,  // measure 68
0010
0100
2000
0010
3200
0001
0310
0010
,  // measure 69
1000
0100
0001
0100
0010
0100
0020
0130
,  // measure 70
2000
0100
3002
0100
2003
0010
3001
0100
,  // measure 71
2000
0010
3010
0000
0002
0100
0103
0010
,  // measure 72
0100
0010
0100
0010
0110
0100
0010
0100
,  // measure 73
2001
0000
3010
0100
0020
0100
0031
0100
,  // measure 74
1000
0100
0020
0001
0230
1300
0200
0001
,  // measure 75
2300
0010
3100
0010
1000
0001
0100
0010
,  // measure 76
1000
0100
0020
0001
2030
0100
3001
0001
,  // measure 77
0100
0010
0110
1000
0100
0010
0101
0100
,  // measure 78
0010
0100
0110
1000
0010
0100
0101
1000
,  // measure 79
0010
1000
1010
0100
0010
0100
0110
0001
,  // measure 80
0100
0010
0110
1000
0010
0100
0110
1000
,  // measure 81
2000
0010
0010
3001
,  // measure 82
0002
1000
1000
1003
,  // measure 83
2010
0000
0001
3000
0002
0000
0003
0200
,  // measure 84
0000
0010
0010
0310
,  // measure 85
1001
0000
0010
0000
0100
0000
1000
0100
,  // measure 86
0001
0100
0110
0100
,  // measure 87
0010
1000
0100
0010
,  // measure 88
1000
0000
0000
0000
0001
0000
0000
0000
1000
0000
0001
0000
1000
0001
1000
0001
,  // measure 89
2000
0010
0001
0010
,  // measure 90
3002
0100
1000
0103
,  // measure 91
0200
0010
1000
0310
,  // measure 92
0020
0100
0001
0130
,  // measure 93
2000
0001
0001
3001
,  // measure 94
0002
1000
1000
1003
,  // measure 95
0200
0010
0010
0310
,  // measure 96
0020
0100
0100
0130
,  // measure 97
1000
0101
0100
0101
,  // measure 98
1000
0110
0100
0101
,  // measure 99
1000
0110
1000
0101
,  // measure 100
0100
0110
0100
0110
,  // measure 101
1000
0001
0100
0110
,  // measure 102
1000
1010
0100
0110
,  // measure 103
1000
0100
0010
0001
0100
1000
0100
0010
,  // measure 104
0010
0100
0010
0100
0010
0100
0010
0100
0020
0000
0032
0000
0203
0000
0320
0000
,  // measure 105
1030
0000
0100
0010
0000
0010
0000
0100
0000
0010
0000
0002
0000
0000
1003
0000
,  // measure 106
0100
0010
0100
0010
0000
0000
0200
0000
0320
0000
0230
0000
0310
1000
0010
1000
,  // measure 107
0100
0000
0000
0010
0001
0010
0000
1000
0000
0100
0020
0000
2030
0000
3020
0000
,  // measure 108
0230
0000
0300
0020
0000
0000
1030
0100
1000
0100
0000
0000
0010
0000
0001
0000
,  // measure 109
0100
0000
0010
0000
0200
0000
0000
0310
0000
0000
1000
0000
0200
0000
0310
0000
,  // measure 110
1000
0000
0100
0000
0010
0000
0002
0000
0203
0000
0310
0100
0000
0010
0100
0010
,  // measure 111
0100
0000
0100
0001
0010
0100
0020
0000
0230
0000
0320
0000
2030
0000
3200
0000
,  // measure 112
0310
0000
0001
0100
0000
0001
0100
0000
0010
0000
0010
0000
0100
0010
0100
0020
,  // measure 113
1030
0100
0001
0000
0010
0000
0110
0000
1000
0100
0010
0000
0110
0000
1000
0000
,  // measure 114
0101
0000
0100
0001
0010
0000
0110
0000
0100
1000
0010
0000
1100
0000
0100
0000
,  // measure 115
0110
0000
0100
0010
0001
0000
0101
0000
0100
0001
0010
0001
0100
0000
0100
0000
,  // measure 116
0010
0100
0010
0100
0010
0001
0100
0000
0110
0000
0010
0000
0110
0000
0110
0000
,  // measure 117
1010
0100
0110
0010
1000
0100
0010
0100
,  // measure 118
0100
1000
0100
0001
0010
0000
1000
0000
0110
0000
1000
0000
0010
0000
0100
0000
,  // measure 119
0110
0000
1000
0001
0000
0001
0100
0000
0110
0000
1000
0000
0010
0000
0001
0000
,  // measure 120
0110
0000
0110
0000
0110
0000
0110
0000
1010
0000
1010
0000
0010
1000
0010
0100
,  // measure 121
0010
0000
0010
0100
0000
0010
0000
0001
0000
0100
0000
0020
0000
0000
0031
0000
,  // measure 122
1001
0000
0000
0000
;
