#TITLE:Super Special;
#SUBTITLE:[FULL SONG] Chaos-Head ED;
#ARTIST:Kagami Seira;
#TITLETRANSLIT:;
#SUBTITLETRANSLIT:;
#ARTISTTRANSLIT:;
#GENRE:;
#CREDIT:;
#BANNER:[Full Song] Super Special.png;
#BACKGROUND:[Full Song] Super Special-bg.png;
#LYRICSPATH:;
#CDTITLE:;
#MUSIC:[Full Song] Super Special.mp3;
#OFFSET:-2.296;
#SAMPLESTART:100.050;
#SAMPLELENGTH:12.000;
#SELECTABLE:YES;
#BPMS:0.000=126.000;
#STOPS:;
#TIMESIGNATURES:0.000=4=4
;
#BGCHANGES:;
#KEYSOUNDS:;

//---------------dance-single - ----------------
#NOTES:
     dance-single:
     :
     Challenge:
     12:
     0.446,0.490,0.143,0.472,0.026,860.000,49.000,162.000,0.000,0.000,0.000,0.446,0.490,0.143,0.472,0.026,860.000,49.000,162.000,0.000,0.000,0.000: // measure 1
0000
0000
0000
0000
,  // measure 2
0000
0000
0000
0000
,  // measure 3
0000
0000
0000
0000
,  // measure 4
0000
0000
0000
0000
,  // measure 5
2000
0000
0000
0000
0000
0000
0000
3200
,  // measure 6
0000
0000
0000
0000
,  // measure 7
0302
0000
0000
0000
0000
0000
0000
2003
,  // measure 8
0000
0000
0000
0000
0000
0000
0000
0002
,  // measure 9
0000
0000
0000
3003
,  // measure 10
0110
1000
0010
0100
0010
0000
1000
1000
,  // measure 11
0001
0000
0100
0010
0100
0000
1000
1000
,  // measure 12
0010
0000
0100
0010
0100
0000
0001
0001
,  // measure 13
1000
0000
0100
0010
0100
0000
0010
0010
,  // measure 14
0100
0000
1000
0100
0010
0000
0001
0001
,  // measure 15
1000
0000
0100
0010
0100
0000
0001
0001
,  // measure 16
1000
0000
0100
0010
0100
0000
1000
1000
,  // measure 17
0001
0000
0100
0010
0100
0000
0001
0001
,  // measure 18
1001
0000
0200
0000
0320
0000
1030
0200
,  // measure 19
0000
0310
0100
0000
0001
0000
1001
0000
,  // measure 20
0000
1000
0100
0010
0001
0100
0010
0100
,  // measure 21
0000
1000
0200
0000
0310
0000
0110
0000
,  // measure 22
0000
0000
0000
0000
2000
0000
0000
0000
3200
0000
0000
0320
0000
0000
0032
0000
,  // measure 23
0000
0103
0010
0000
1000
0000
0110
0000
,  // measure 24
0000
1000
0100
0010
0001
0000
0100
0010
,  // measure 25
0000
1000
0100
0000
0010
0100
0010
0000
,  // measure 26
0101
0000
0000
0000
0200
0000
0000
0000
0320
0000
0000
2030
0000
0000
3200
0000
,  // measure 27
0000
0310
0001
0000
0110
0000
1010
0000
,  // measure 28
0000
1000
0100
0010
0001
0010
0100
0010
,  // measure 29
0000
1000
0002
0000
1003
0000
1001
0000
,  // measure 30
0000
0000
2000
0000
3200
0000
0310
0002
,  // measure 31
0000
1003
0001
0000
0100
0000
0110
0000
,  // measure 32
0000
1000
0100
0010
0001
1000
0100
0020
,  // measure 33
0000
0000
1030
0000
0100
0000
0000
0000
1001
0000
0000
0010
0000
0000
0010
0000
,  // measure 34
1001
0000
0100
0000
0010
0000
1000
0200
,  // measure 35
0000
0310
1000
0010
0000
0000
0100
0020
,  // measure 36
0000
0000
1000
0000
0130
0000
1000
0100
,  // measure 37
0000
0010
0001
0000
0100
0000
0010
0000
,  // measure 38
1000
0020
0000
1000
0000
0130
0010
1000
,  // measure 39
0000
0100
0010
0001
0000
0000
0100
2002
,  // measure 40
0000
0000
0000
3003
,  // measure 41
1000
0100
0010
0001
0100
0010
1000
0010
,  // measure 42
1001
0020
0000
1000
0000
0001
0000
2030
,  // measure 43
0000
3100
0010
0001
0200
0000
0010
0310
,  // measure 44
1000
0100
0020
0002
0003
0100
0100
0230
,  // measure 45
0000
1000
1000
2300
0000
3200
0000
0301
,  // measure 46
0100
0020
0000
1000
0000
0001
0000
2030
,  // measure 47
0000
3100
0010
0001
0020
0000
0100
0130
,  // measure 48
1000
0100
0020
0002
0003
0100
0100
0230
,  // measure 49
0000
0001
0001
0302
0000
2003
0000
3100
,  // measure 50
0001
0200
0000
0010
0000
0010
0000
2300
,  // measure 51
0000
3100
0010
1000
0002
0000
1000
1003
,  // measure 52
0001
1000
0200
0020
0030
1000
1000
2300
,  // measure 53
0000
0001
0001
3002
0000
2003
0000
3001
,  // measure 54
0100
0020
0000
0001
0000
0001
0000
2030
,  // measure 55
0000
3100
0010
0001
0200
0000
0001
0301
,  // measure 56
1000
0010
0200
2000
3000
0010
0010
0320
,  // measure 57
0000
0001
0001
0032
0000
2003
0000
3100
,  // measure 58
0001
0000
0100
0000
0010
0000
1000
0010
,  // measure 59
1000
0000
0010
0000
0010
0000
0100
0010
,  // measure 60
0100
0000
0010
0000
0010
0000
0100
0001
,  // measure 61
0100
0000
0010
0000
1000
0000
0010
0100
,  // measure 62
0010
0000
0100
0000
0001
0000
0100
0010
,  // measure 63
0100
0000
1000
0000
0100
0000
0010
0100
,  // measure 64
0010
0000
1000
0000
0001
0000
1000
0001
,  // measure 65
1000
0000
0001
0000
1000
0000
0001
1000
,  // measure 66
0001
0000
0010
0000
0000
0000
0000
1000
,  // measure 67
0000
0000
0000
0000
0000
0000
0000
0100
,  // measure 68
0000
0100
0100
0100
,  // measure 69
0100
0010
0010
0010
,  // measure 70
1000
0100
0010
0001
,  // measure 71
0100
0010
0100
0000
1000
0000
0101
0000
,  // measure 72
0000
0000
1000
0100
0010
0000
0100
0001
,  // measure 73
0000
0000
1000
0000
0100
0000
0000
0000
0010
0000
0000
0000
1000
0000
0000
0101
,  // measure 74
0000
0000
2000
0000
3200
0000
0310
0002
,  // measure 75
0000
0103
0010
0000
1000
0100
0010
0000
,  // measure 76
0000
0001
0100
0010
1000
1000
0100
0020
,  // measure 77
0000
1030
0100
0000
0001
0000
0100
0000
,  // measure 78
0010
0000
0000
0000
2000
0000
0000
0000
3200
0000
0000
0320
0000
0000
0032
0000
,  // measure 79
0000
0103
1000
0000
0100
0000
0110
0000
,  // measure 80
0000
1000
0100
0010
0001
1000
0010
0100
,  // measure 81
0000
0010
0100
0000
0110
0000
0101
0000
,  // measure 82
1010
0000
0100
0010
0000
1000
0100
0010
,  // measure 83
0000
0100
0001
0100
0000
0000
1000
0200
,  // measure 84
0000
0000
1000
2300
0000
0020
3000
0130
,  // measure 85
0000
0010
0001
0000
0100
0000
1000
0000
,  // measure 86
1000
0100
0010
0001
0100
0010
0100
0020
,  // measure 87
0000
2030
0000
3200
0000
0300
0001
1001
,  // measure 88
0000
0000
0100
0000
0100
0000
0100
1000
,  // measure 89
0001
0000
0000
0000
0010
0000
0000
0000
0100
0000
0000
0000
0010
0000
0000
0000
1000
0000
0000
0000
0010
0000
0000
0000
1000
0000
0000
0000
0000
0000
1001
0000
0000
0000
0000
0000
0000
0000
0000
0110
0000
0000
0000
0000
0000
0000
0000
0000
,  // measure 90
1001
0002
0000
0010
0000
0100
0000
0023
,  // measure 91
0000
1030
0100
0010
0002
0000
0100
0103
,  // measure 92
0001
0010
0200
2000
3000
0001
0001
0302
,  // measure 93
0000
0100
0100
0203
0000
0302
0000
1003
,  // measure 94
0100
2000
0000
0010
0000
0100
0000
3020
,  // measure 95
0000
0130
0010
0001
0200
0000
0001
0301
,  // measure 96
1000
0100
0020
0002
0003
1000
1000
2030
,  // measure 97
0000
0010
0010
3020
0000
0032
0000
0103
,  // measure 98
1000
0002
0000
0100
0000
0010
0000
2003
,  // measure 99
0000
3010
0100
0001
0020
0000
0001
0031
,  // measure 100
0001
0100
0020
0002
0003
1000
1000
2030
,  // measure 101
0000
0100
0100
3200
0000
0320
0000
0031
,  // measure 102
1000
0200
0000
1000
0000
0001
0000
2300
,  // measure 103
0000
3010
0100
1000
0020
0000
0001
0031
,  // measure 104
1000
0100
0020
0002
0003
1000
1000
2030
,  // measure 105
0000
0100
0100
3200
0000
0310
0001
0000
,  // measure 106
1001
0110
1001
1100
,  // measure 107
0100
0010
0001
0110
,  // measure 108
0011
0110
1100
0110
,  // measure 109
0001
0100
0010
0001
,  // measure 110
1100
0110
0011
0101
,  // measure 111
1000
0100
0010
1000
,  // measure 112
0101
1010
0110
1001
,  // measure 113
0100
0010
0001
1000
,  // measure 114
1100
0000
0100
0001
0000
0010
0100
0010
,  // measure 115
0000
0100
0010
0100
0000
0000
1000
0200
,  // measure 116
0000
0000
1300
1000
0000
0200
0000
0320
,  // measure 117
0000
1030
0100
0000
0000
0010
0001
1000
,  // measure 118
0100
0010
0001
0100
0000
0000
1000
0001
,  // measure 119
0000
1000
0000
0110
0000
0000
0100
0101
,  // measure 120
0000
0010
0100
0010
,  // measure 121
1000
0100
0010
0001
0100
0010
0100
0000
,  // measure 122
1001
0000
0010
0000
0001
1000
0000
0000
0100
0000
0000
0100
0000
0000
0100
0000
,  // measure 123
0000
0000
1000
0000
0100
0010
0000
0000
0001
0000
0000
0001
0000
0000
0001
0000
,  // measure 124
0010
0010
0010
0020
0000
1030
1000
2000
,  // measure 125
0000
3010
0100
0020
0000
0032
0000
0103
,  // measure 126
1000
0000
0100
0000
0010
0001
0000
0000
1000
0000
0000
1000
0000
0000
1000
0000
,  // measure 127
0100
0000
0010
0000
0001
0100
0000
0000
0010
0000
0000
0010
0000
0000
0110
0000
,  // measure 128
1000
0100
0010
0200
0000
0010
0010
0320
,  // measure 129
0000
0100
0100
0100
0000
0130
0000
0000
,  // measure 130
0110
1000
0000
0200
0000
0310
0000
2000
,  // measure 131
0000
3100
0010
0001
2000
0000
0010
3010
,  // measure 132
1000
0100
0020
0002
0003
0100
0100
0230
,  // measure 133
0000
1300
1000
2000
0000
3200
0000
0310
,  // measure 134
1000
0200
0000
0010
0000
1000
0000
2300
,  // measure 135
0000
3100
0010
0001
2000
0000
3010
0010
,  // measure 136
0001
0010
0200
2000
3000
0001
0001
0302
,  // measure 137
0000
0013
0010
0100
0020
0100
0230
0300
,  // measure 138
1001
0200
0000
0001
0000
0010
0000
2300
,  // measure 139
0000
3100
0010
0001
0200
0000
0010
0310
,  // measure 140
1000
0100
0002
0020
0030
0100
0100
0203
,  // measure 141
0000
0010
0010
0320
0000
2030
0000
3001
,  // measure 142
0100
0020
0000
1000
0000
0001
0000
0230
,  // measure 143
0000
1300
0100
0010
0002
0000
1000
1003
,  // measure 144
1000
0100
2000
0020
0030
0001
0001
3002
,  // measure 145
0000
0100
0100
0203
0000
0320
0000
0031
,  // measure 146
1000
0002
0000
0100
0000
0010
0000
2003
,  // measure 147
0000
3100
0010
0001
0200
0000
0010
0310
,  // measure 148
1000
0100
0010
0002
0000
0203
0000
0320
,  // measure 149
0000
2030
0000
3200
0000
0310
1000
0010
,  // measure 150
0100
0020
0000
2030
0000
3200
0000
0301
,  // measure 151
0000
1000
0100
0010
0002
0000
1003
1000
,  // measure 152
0010
0100
0010
2000
0000
3100
0010
0200
,  // measure 153
0000
0310
0100
0020
0000
0032
0000
2003
,  // measure 154
0000
3100
0010
0000
0001
0000
0010
0100
,  // measure 155
0010
0000
1000
0000
0100
0000
0001
1000
,  // measure 156
0001
0000
0100
0000
0100
0000
0010
0100
,  // measure 157
0010
0000
1000
0000
1000
0000
0001
1000
,  // measure 158
0001
0000
0100
0000
0100
0000
0010
0100
,  // measure 159
0010
0000
1000
0000
0100
0000
0001
1000
,  // measure 160
0001
0000
0100
0000
0010
0000
0100
0010
,  // measure 161
0100
0000
1000
0000
0100
0000
0010
0100
,  // measure 162
0010
0100
0100
1000
,  // measure 163
1000
0001
0001
0100
,  // measure 164
0100
0010
0010
1000
,  // measure 165
1000
0100
0100
0010
,  // measure 166
0010
0001
0001
0010
,  // measure 167
0010
1000
1000
0001
,  // measure 168
0001
0100
0100
0010
,  // measure 169
0010
1000
1000
0010
,  // measure 170
1001
0100
0000
0010
,  // measure 171
0000
0100
0000
0100
,  // measure 172
0000
0010
0000
0010
,  // measure 173
0000
0010
0000
0001
,  // measure 174
0000
1000
0000
0100
,  // measure 175
0000
0010
0000
1000
,  // measure 176
0000
0100
0000
0001
,  // measure 177
0000
0000
0100
0000
0010
0000
0100
0010
,  // measure 178
0100
0000
0000
0000
;
