#TITLE:Super Affection;
#SUBTITLE:[FULL SONG];
#ARTIST:Carnival Phantasm;
#TITLETRANSLIT:;
#SUBTITLETRANSLIT:;
#ARTISTTRANSLIT:;
#CREDIT:;
#BANNER:[Full Song] Super Affection.png;
#BACKGROUND:[Full Song] Super Affection-bg.png;
#LYRICSPATH:;
#CDTITLE:;
#MUSIC:[Full Song] Super Affection.mp3;
#OFFSET:0.000;
#SAMPLESTART:100.050;
#SAMPLELENGTH:12.000;
#SELECTABLE:YES;
#BPMS:0.000=184.020,136.000=92.010,152.000=184.020,348.000=92.010,364.000=184.020,492.000=92.010,500.000=184.020;
#STOPS:372.000=0.326
,372.500=0.326
,373.000=0.326
,373.500=0.326
,512.000=1.304
,543.000=1.304
;
#BGCHANGES:;

//---------------dance-single - ----------------
#NOTES:
     dance-single:
     :
     Challenge:
     14:
     0.665,0.884,0.378,0.222,0.118: // measure 1
0000
0000
0000
0000
,  // measure 2
0000
0000
0000
0000
,  // measure 3
0110
0000
1001
0000
0100
0000
0010
1000
,  // measure 4
0000
1000
0100
0010
0001
0000
0010
0100
,  // measure 5
0110
0110
1000
0100
,  // measure 6
0001
0010
0100
1000
0010
0000
0100
0010
,  // measure 7
0100
0000
1010
0000
0100
0010
0001
0100
,  // measure 8
0000
1000
0100
0010
0001
0000
0011
0000
,  // measure 9
0100
0010
0100
0100
,  // measure 10
0001
0010
0100
1000
0100
0010
0001
0000
,  // measure 11
0000
1000
1000
2000
0000
3001
0001
0002
,  // measure 12
0000
0103
0100
0200
0310
0000
0010
0000
,  // measure 13
0000
1000
1000
2000
0000
3001
0001
0002
,  // measure 14
0000
1003
1000
2000
3010
0000
0010
0000
,  // measure 15
0100
0010
0010
0020
0000
0130
0100
0200
,  // measure 16
0000
0310
0010
0020
1030
0000
1000
0000
,  // measure 17
0001
0100
0010
0200
0000
1300
0100
0020
,  // measure 18
0000
0031
0010
0100
1001
0000
1001
0000
,  // measure 19
1000
0000
0100
0000
0010
0100
0010
0100
,  // measure 20
0000
0010
0001
0000
0010
0100
1000
0100
,  // measure 21
0010
0000
0001
0000
0010
0100
0010
0002
,  // measure 22
0000
1000
0000
0103
0000
0010
0001
0100
,  // measure 23
0010
0000
1000
0000
0100
0010
0001
0100
,  // measure 24
0000
0010
0000
0000
0000
0010
1000
2000
,  // measure 25
0000
0000
0000
0000
0000
3001
2000
3001
,  // measure 26
0000
1000
0100
0010
0000
0000
0001
0000
,  // measure 27
0010
0000
0110
0000
1000
0100
0010
0001
,  // measure 28
0000
1000
0001
0000
1000
0010
0100
0010
,  // measure 29
0000
1000
0100
0000
0001
0010
0100
1000
,  // measure 30
0000
0010
0100
0010
0000
0100
0010
0000
,  // measure 31
2000
3200
0302
0023
0230
2300
3020
0032
,  // measure 32
2003
3200
0320
0031
0000
0100
0010
0100
,  // measure 33
0000
0000
1000
0000
0100
0000
0000
0000
0010
0100
0010
0000
1000
0001
1000
0000
,  // measure 34
0001
0000
0100
0010
0000
0100
0010
0000
,  // measure 35
1001
0000
0000
0100
0100
0000
0010
0000
1010
0000
0000
0100
0100
0000
0010
0000
,  // measure 36
0100
0001
0100
0020
0000
1030
0100
0000
0010
0001
0010
0200
0000
1300
0100
0000
,  // measure 37
0110
0000
0000
1000
1000
0000
0001
0000
0101
0000
0000
0010
0010
0000
1000
0000
,  // measure 38
0010
0200
0000
0320
0000
0130
0010
0000
1000
0100
0000
0010
0000
0100
0010
0000
,  // measure 39
0101
0000
0110
0000
1000
0100
0010
0001
,  // measure 40
0100
0000
0010
1000
0000
0100
0010
0000
,  // measure 41
1100
0000
0010
0100
0000
0010
0100
0000
,  // measure 42
0010
0010
0000
0100
0010
0000
0011
0000
,  // measure 43
0110
0000
1000
0000
0100
0010
0001
0100
,  // measure 44
0000
0010
0100
0000
0010
0100
0000
0000
,  // measure 45
1000
0001
1000
0000
0100
0010
0100
0000
0010
0100
0010
0000
0001
1000
0001
0000
,  // measure 46
0100
0010
0100
0010
0000
1000
0100
0010
,  // measure 47
0000
0100
0100
0100
0000
0000
0010
0100
,  // measure 48
0010
0000
0110
0000
1000
0000
0100
0010
,  // measure 49
0000
0001
0010
0100
1000
0000
0010
0100
,  // measure 50
0110
0110
1000
0100
,  // measure 51
0010
0001
0010
0100
1000
0000
0100
0010
,  // measure 52
0100
0000
0101
0000
1000
0100
0010
0001
,  // measure 53
0000
1000
0100
0010
0001
0000
0110
0000
,  // measure 54
1000
0010
0100
0010
,  // measure 55
1000
0000
1000
0000
1000
0000
1000
0000
1000
0001
1000
0001
1000
0001
1000
0001
,  // measure 56
1000
0000
0001
0000
0100
0000
0010
0100
,  // measure 57
0000
1000
0100
0010
0001
0010
0110
0010
,  // measure 58
0100
1000
0100
0010
,  // measure 59
0001
0010
0100
1000
0010
0000
0001
0100
,  // measure 60
0010
0000
1010
0000
0100
0010
0001
0100
,  // measure 61
0000
1000
0100
0010
0100
0000
0110
0000
,  // measure 62
1000
0010
0100
0000
0011
0000
1100
0000
,  // measure 63
1000
0100
0010
0001
0010
0100
1000
0100
,  // measure 64
0000
1000
0010
0001
0000
1000
0010
0001
,  // measure 65
0000
1000
0010
0001
1001
0000
1001
0000
,  // measure 66
0000
0001
0010
1000
0000
1000
0010
0001
,  // measure 67
0000
0001
0010
1000
1000
0000
1000
0000
,  // measure 68
0001
1000
0100
0010
0000
0010
0001
0100
,  // measure 69
0000
0010
0100
0010
1010
0000
0110
0000
,  // measure 70
1000
1000
0100
0010
0000
0010
0001
0100
,  // measure 71
0000
0010
1000
0100
0010
0000
0010
0000
,  // measure 72
1000
0000
0100
0000
0010
0100
0001
0100
,  // measure 73
0000
0010
0000
0000
0000
1000
0100
0020
,  // measure 74
0000
0000
0100
0000
0130
0100
0100
0010
,  // measure 75
0000
1000
0000
0100
0000
0001
0100
0010
,  // measure 76
0000
0000
0100
0000
1000
0100
0010
0001
,  // measure 77
0000
0010
0000
0000
0000
0100
0001
2000
,  // measure 78
0000
0000
0001
0000
3001
0001
0200
0301
,  // measure 79
0000
1000
0100
0020
0000
0000
0000
0000
,  // measure 80
0130
0000
0100
0000
1000
0100
0010
0001
,  // measure 81
0000
0001
0010
0000
0100
1000
0100
0010
,  // measure 82
0000
0001
0001
0000
0100
0100
0010
0010
,  // measure 83
0000
1000
0100
0010
0000
0000
0001
0000
,  // measure 84
1000
0100
0010
0001
0001
0010
0100
1000
,  // measure 85
0100
0010
0001
0100
0000
0010
0100
0010
,  // measure 86
0000
1000
1000
0000
0001
0001
0001
1000
,  // measure 87
1000
0000
0001
0200
0000
0000
0000
0000
,  // measure 88
0301
0000
0000
0100
0010
0000
0100
0000
0110
0000
0000
1000
1000
0000
0010
0000
,  // measure 89
0110
0000
0000
0001
0000
0010
0100
0000
0101
0000
0000
0010
0000
0100
0010
0000
,  // measure 90
1010
0000
0000
0100
0100
0000
0010
0000
0101
0000
0000
1000
1000
0000
0010
0000
,  // measure 91
0101
0000
0000
0100
0000
0010
1000
0000
0110
0000
1000
0000
0100
0000
0010
0000
,  // measure 92
1001
0000
0100
0000
0010
1000
0100
0010
,  // measure 93
0001
0000
0100
0010
0000
0100
0010
0000
,  // measure 94
1100
0110
0011
0110
1100
0000
0110
0000
,  // measure 95
0011
0000
0110
0000
1000
0100
0010
0001
,  // measure 96
0000
0100
0010
0000
1000
0100
0000
0000
,  // measure 97
0001
0010
0001
0000
1000
0100
1000
0000
0010
0001
0010
0000
0100
1000
0100
0000
,  // measure 98
1000
0100
0010
0001
0000
0100
0100
0010
,  // measure 99
0000
1000
1000
0001
0000
0000
0100
0010
,  // measure 100
0100
0000
1010
0000
0100
0000
0010
0100
,  // measure 101
0000
1000
0100
0010
0001
0000
0101
1000
,  // measure 102
0100
0010
0100
1000
,  // measure 103
1000
0100
0010
0001
0100
0000
1000
0100
,  // measure 104
0010
0000
0011
0000
0100
0000
0010
0100
,  // measure 105
0000
1000
0100
0010
0001
0000
0101
0000
,  // measure 106
1000
0100
0010
0000
0001
0000
0100
0000
,  // measure 107
0001
0000
0001
0000
0001
0000
0001
0000
0001
1000
0001
1000
0001
1000
0001
1000
,  // measure 108
0001
0000
0110
0000
1000
0100
0010
0001
,  // measure 109
0000
0100
0010
0100
0010
0000
1000
0100
,  // measure 110
0010
0010
1000
0100
,  // measure 111
0001
0010
0100
1000
0100
0000
0001
0100
,  // measure 112
0010
0000
1010
0000
0100
0010
0001
0100
,  // measure 113
0000
1000
0100
0010
0001
0000
0110
0000
,  // measure 114
1000
0100
0010
0000
0001
0000
0010
0000
,  // measure 115
1000
0100
0010
0001
0100
0010
0100
0010
,  // measure 116
0100
1000
0100
0010
0100
0010
0100
0020
,  // measure 117
0000
2030
0000
3010
0200
0000
0000
0300
,  // measure 118
1000
0100
0010
0001
0000
0100
0010
0100
,  // measure 119
0000
1000
0100
0010
0000
0100
0010
0000
,  // measure 120
0002
0000
1003
0000
0020
0000
0230
0020
,  // measure 121
0300
2000
0030
3020
0230
0000
0310
0000
,  // measure 122
0110
0000
0000
0110
0000
0000
0110
0000
,  // measure 123
0000
1000
1000
1000
1000
0000
1000
0010
,  // measure 124
0110
0000
0000
0100
0100
0000
0010
0000
1010
0000
0000
0100
0100
0000
0010
0001
,  // measure 125
0100
0000
0010
0000
1000
1000
0010
0000
0100
0000
0000
1000
1000
0000
0100
0010
,  // measure 126
0110
0110
0110
0110
,  // measure 127
1100
1100
1100
1100
,  // measure 128
1000
0100
0010
0001
0100
0010
0100
0000
,  // measure 129
2002
3003
0110
0000
1000
0100
0010
0001
,  // measure 130
0000
1000
0100
0010
0001
0000
0100
0010
,  // measure 131
0100
0100
1000
0100
,  // measure 132
1000
0100
0010
0001
0100
0000
1000
0100
,  // measure 133
0001
0000
0101
0000
1000
0100
0010
0001
,  // measure 134
0000
0100
0001
0100
0010
0000
1001
0000
,  // measure 135
0100
0010
0100
0000
0001
0000
0010
0000
,  // measure 136
1000
0100
0010
0001
0010
0100
2000
0000
,  // measure 137
3001
0100
0010
0100
0010
1000
0100
0010
,  // measure 138
0001
0100
0010
0100
1010
0000
0110
0000
,  // measure 139
1000
0100
0010
0001
0100
1000
0100
0010
,  // measure 140
0001
0100
0010
0100
1010
0000
0110
0000
,  // measure 141
1000
0100
0010
0001
0010
0100
0100
0010
,  // measure 142
1000
0100
0010
0001
0101
0000
0101
0000
,  // measure 143
1000
0100
0010
0001
0010
0100
0100
0010
,  // measure 144
1000
0100
0010
0001
0100
0001
1001
1001
;
