#TITLE:Suisai Candy;
#SUBTITLE:[FULL SONG] Mashiro-iro Symphony -Love is Pure White- Ending;
#ARTIST:marble;
#TITLETRANSLIT:;
#SUBTITLETRANSLIT:;
#ARTISTTRANSLIT:;
#CREDIT:;
#BANNER:[Full Song] Suisai Candy.png;
#BACKGROUND:[Full Song] Suisai Candy-bg.png;
#LYRICSPATH:;
#CDTITLE:;
#MUSIC:[Full Song] Suisai Candy.mp3;
#OFFSET:0.000;
#SAMPLESTART:100.050;
#SAMPLELENGTH:12.000;
#SELECTABLE:YES;
#BPMS:0.000=143.020;
#STOPS:;
#BGCHANGES:;

//---------------dance-single - ----------------
#NOTES:
     dance-single:
     :
     Challenge:
     12:
     0.374,0.438,0.170,0.073,0.000: // measure 1
0000
0000
0000
0000
,  // measure 2
0000
0000
0000
0000
,  // measure 3
0000
0000
0000
0000
,  // measure 4
0000
0000
0000
0000
,  // measure 5
0001
0001
0001
0000
,  // measure 6
0000
0000
0000
0000
,  // measure 7
1000
1000
1000
0000
,  // measure 8
0010
0010
0010
0000
,  // measure 9
0100
0100
0100
0000
,  // measure 10
0001
0001
0001
0000
,  // measure 11
1000
1000
1000
0000
,  // measure 12
0010
0000
0100
0000
0010
0100
0110
0000
,  // measure 13
1001
0000
0100
0010
0100
0010
0100
0000
,  // measure 14
1000
0100
0010
0000
0001
0000
1001
0000
,  // measure 15
0100
0000
0010
0100
0000
0001
0010
0100
,  // measure 16
0000
1000
0100
0000
0010
0000
1001
0000
,  // measure 17
0100
0000
0010
0100
0000
0001
0000
0010
,  // measure 18
0000
0100
0000
1000
0000
1000
0100
0000
,  // measure 19
0010
0000
0100
0000
0001
0000
1000
0100
,  // measure 20
0000
0010
0010
0010
,  // measure 21
2000
0001
3001
0002
,  // measure 22
1000
1003
0000
1001
,  // measure 23
1000
1000
1000
0001
,  // measure 24
0001
0001
0000
0000
,  // measure 25
0100
0000
0010
0100
0000
0001
0000
0010
,  // measure 26
0000
0100
1000
0000
0100
0000
0010
0100
,  // measure 27
0010
0000
1000
0100
0000
0010
0000
0001
,  // measure 28
0000
0100
0010
0000
1000
0000
1000
0000
,  // measure 29
1001
0000
0100
0000
0010
0001
0010
0000
,  // measure 30
0100
0000
0010
0000
0100
0000
1000
0100
,  // measure 31
0000
0000
0010
0001
0000
0100
0000
0010
,  // measure 32
0000
1000
1000
0001
,  // measure 33
1001
0100
0010
0100
,  // measure 34
0010
0000
0100
0000
1000
0100
0010
0000
,  // measure 35
0001
0000
0010
0000
0100
0000
1000
0001
,  // measure 36
0000
0001
0001
0001
,  // measure 37
1000
0000
0010
0000
0100
0000
0010
0100
,  // measure 38
0000
0010
0100
0000
1000
0100
0010
0000
,  // measure 39
0100
0010
1000
0001
,  // measure 40
1000
0001
1000
0001
1001
0000
0000
0000
,  // measure 41
2000
0000
0010
0000
0010
0000
0010
3000
,  // measure 42
0002
0100
0100
0103
,  // measure 43
0210
0010
0010
0310
,  // measure 44
0120
0100
0100
0130
,  // measure 45
1000
0100
0010
0000
0001
0000
0001
0000
,  // measure 46
0001
0010
0100
0000
1000
0000
1000
0000
,  // measure 47
0100
0010
0100
0000
0010
0100
0010
0000
,  // measure 48
0100
0010
0100
0000
0010
0100
0010
0000
,  // measure 49
1000
0000
1000
0000
0001
1000
0001
0000
,  // measure 50
0001
0000
0001
0000
0001
1000
0001
0000
,  // measure 51
0100
0000
0010
0100
0000
0010
0000
1000
,  // measure 52
0100
0010
0000
0001
0000
0100
0010
0100
,  // measure 53
0000
0001
0000
0010
0000
1000
0000
0100
,  // measure 54
0000
0010
0000
1000
0000
0001
0000
0100
,  // measure 55
0000
1000
0100
0000
0010
0001
0000
0100
,  // measure 56
0000
0001
0010
0000
0100
1000
0000
0100
,  // measure 57
0000
0010
0000
0100
0000
0001
0000
0010
,  // measure 58
0000
0100
1000
0100
0010
0000
0100
0010
,  // measure 59
0100
0010
0000
0000
,  // measure 60
0010
0010
0010
0000
,  // measure 61
0100
0100
0100
0000
,  // measure 62
0000
0010
0010
0100
,  // measure 63
0001
0000
1000
1000
,  // measure 64
0000
0001
0001
0001
,  // measure 65
0000
0100
0100
0100
,  // measure 66
0000
0010
1000
0001
,  // measure 67
1001
0100
0010
0100
,  // measure 68
0010
1000
0100
0000
0010
0000
0010
0000
,  // measure 69
0100
0000
0001
0100
0000
0010
0000
0010
,  // measure 70
0000
0100
0010
0000
1000
0000
0001
0000
,  // measure 71
0100
0000
0100
0010
0000
0001
0000
0010
,  // measure 72
0000
0100
0000
1000
0000
0100
0010
0100
,  // measure 73
0000
0001
0000
0001
0000
0000
1000
0001
,  // measure 74
0000
1000
0001
0000
,  // measure 75
2000
0001
3001
0002
,  // measure 76
1000
1003
0000
0000
,  // measure 77
0200
0010
0310
0020
,  // measure 78
0100
0130
0000
0000
,  // measure 79
1000
0000
0010
0100
0000
0001
0000
0010
,  // measure 80
0000
0100
1000
0000
0001
0000
0001
0000
,  // measure 81
0100
0000
1000
0100
0000
0010
0000
0001
,  // measure 82
0000
0001
0100
0000
0000
0000
1000
0000
,  // measure 83
0010
0000
0100
0010
0000
1000
0000
0100
,  // measure 84
0000
0001
0000
0001
0000
1000
0100
0010
,  // measure 85
0000
0000
0001
0010
0000
0100
0000
2000
,  // measure 86
0000
0000
3000
0000
,  // measure 87
0001
0000
0100
0000
0010
0000
0100
0010
,  // measure 88
0000
1000
0000
0000
0010
0000
0010
0000
,  // measure 89
0100
0010
0100
0000
0001
0000
1000
0001
,  // measure 90
0000
0001
0001
0000
,  // measure 91
1000
0000
1000
0010
0000
0100
0010
0100
,  // measure 92
0000
0001
1000
0000
0010
0000
0100
0000
,  // measure 93
0010
1000
0001
1000
,  // measure 94
0001
1000
0001
1000
1000
0000
0000
0000
,  // measure 95
0001
0000
0100
0000
0010
0100
0010
0000
,  // measure 96
1000
0000
0100
0000
0001
0100
0001
0000
,  // measure 97
1000
0000
0010
0100
0000
0010
0000
0100
,  // measure 98
0000
1000
0000
0100
0000
0010
0100
0010
,  // measure 99
0000
1000
0000
1000
0000
0001
0000
0001
,  // measure 100
0000
0100
0010
0100
0000
0001
0000
1000
,  // measure 101
0000
0010
0100
0000
0010
0000
0100
0000
,  // measure 102
1000
0100
0000
0001
0000
1000
0010
0000
,  // measure 103
0100
0000
0100
0000
0100
0010
0100
0010
,  // measure 104
0000
0000
0100
0000
0100
0010
0100
0010
,  // measure 105
0100
0000
0010
0100
0000
0100
0000
1000
,  // measure 106
0000
0100
0000
0010
0000
1000
0100
0010
,  // measure 107
0000
0001
0000
0001
0000
0100
0000
0010
,  // measure 108
0000
1000
0000
0100
0000
0010
0000
0100
,  // measure 109
0000
0001
0100
0000
1000
0100
0000
0100
,  // measure 110
0000
1000
0100
0010
0001
0100
0000
0010
,  // measure 111
0000
0010
0000
0100
0000
0100
0000
1000
,  // measure 112
0000
0100
0010
0000
0001
0000
0100
0010
,  // measure 113
1000
0000
0000
0000
,  // measure 114
0001
0001
0001
0000
,  // measure 115
1000
1000
1000
0000
,  // measure 116
0010
0010
0010
0000
,  // measure 117
1001
0100
0010
0100
,  // measure 118
0010
0100
0010
0000
,  // measure 119
0100
0010
0100
0010
,  // measure 120
0100
0010
0100
0000
,  // measure 121
0010
0100
0010
0100
,  // measure 122
0010
0100
0010
0000
,  // measure 123
1000
0001
1000
0001
,  // measure 124
1000
0001
1000
0001
1001
0000
0000
0000
,  // measure 125
1001
0000
0100
0000
0010
0100
0110
0000
,  // measure 126
1001
0000
0110
0000
1000
0100
0010
0000
,  // measure 127
2000
3001
0002
1003
,  // measure 128
0200
0310
0020
0130
,  // measure 129
1000
0100
0010
0000
0001
0000
1001
0000
,  // measure 130
0100
0010
0100
0000
0001
0000
1010
0000
,  // measure 131
0100
0010
0100
0000
0001
0000
0100
1000
,  // measure 132
0100
0010
0001
0100
0000
0010
0100
0010
,  // measure 133
1000
0000
0010
0000
0010
0100
0010
0100
,  // measure 134
0001
0000
0001
0000
0000
1000
0001
1000
,  // measure 135
0000
0000
0010
0100
0000
0010
0000
1000
,  // measure 136
0100
0010
0000
0001
0000
1000
0001
0000
,  // measure 137
2000
3001
0002
0103
,  // measure 138
0200
0310
0020
0130
,  // measure 139
0100
0000
0001
0000
0100
0010
0000
0100
,  // measure 140
0000
0001
0100
0000
0010
1000
0000
1000
,  // measure 141
0000
1000
0000
0100
0000
0010
0000
1000
,  // measure 142
0000
0001
1000
0010
0100
0000
0100
0010
,  // measure 143
1001
0100
0100
0100
,  // measure 144
0100
0010
0010
0000
,  // measure 145
1001
1001
1001
0101
,  // measure 146
0101
0101
0000
0000
,  // measure 147
1001
1001
1001
1100
,  // measure 148
1100
1100
0000
0000
,  // measure 149
1001
1001
1001
0011
,  // measure 150
0011
0011
0000
0000
,  // measure 151
1001
1001
1001
1010
,  // measure 152
1010
1010
0000
0000
;
