#TITLE:Sky High;
#SUBTITLE:[FULL SONG] Nodame Cantabile ~Paris Hen~ OP;
#ARTIST:The Gospellers;
#TITLETRANSLIT:;
#SUBTITLETRANSLIT:;
#ARTISTTRANSLIT:;
#CREDIT:;
#BANNER:[Full Song] Sky High.png;
#BACKGROUND:[Full Song] Sky High-bg.png;
#LYRICSPATH:;
#CDTITLE:;
#MUSIC:[Full Song] Sky High.mp3;
#MENUCOLOR:0,0,1,1;
#METERTYPE:DDR X;
#OFFSET:-1.560;
#SAMPLESTART:100.030;
#SAMPLELENGTH:12.000;
#SELECTABLE:YES;
#BPMS:0.000=31.250,12.250=124.990;
#STOPS:12.250=1.920
;
#BGCHANGES:;

//---------------dance-single - ----------------
#NOTES:
     dance-single:
     :
     Challenge:
     10:
     0.350,0.391,0.091,0.886,0.000:
0000
0000
0000
0000
,
0000
0000
0000
0000
,
0000
0000
0000
0000
,
0000
0000
0000
1000
,
1000
0000
0100
0010
0100
0010
0100
0000
,
0001
0000
0100
0100
0100
0010
0010
0000
,
0100
0000
1000
1000
1000
0001
0001
0000
,
1000
0100
0000
0010
0100
0000
0010
1000
,
0000
0010
0100
0010
1000
0100
0010
0001
,
2000
3200
0000
0000
,
0302
2003
3200
0320
,
0000
0000
0000
0130
,
2000
3200
0320
2030
,
0100
3002
0203
0320
,
2030
3200
0302
2003
,
0000
0000
3001
1001
,
0200
0320
2030
3200
,
0000
0000
0301
1001
,
0002
0203
0320
2030
,
0000
3002
0103
0101
,
2000
0000
3200
0000
0320
0000
2030
3000
,
0200
0000
0301
2002
,
0000
3003
2000
0000
3200
0000
0320
0000
,
0000
0230
0010
0302
,
2003
3200
0320
2030
,
3002
0000
0203
0000
0000
0000
0010
0300
,
0020
2030
3200
0320
,
0000
0000
0130
1001
,
0200
0320
2030
3200
,
0010
0302
2003
3200
,
0320
2030
3002
0203
,
0000
0010
0310
1001
,
2000
0000
3000
0001
0010
0100
1001
0000
,
0000
0000
0000
1000
0100
0010
1001
0000
,
0020
0230
0302
2003
,
0010
3020
0230
0301
,
1000
0100
0020
0030
2000
0000
3002
0000
,
0203
0000
0000
0300
0020
0000
2030
0000
,
0000
0000
3001
2002
,
0000
3003
0200
0000
0320
0000
2030
0000
,
3200
0320
2030
3200
,
0302
0000
0000
0000
2003
3000
2002
0000
,
0000
3003
0200
0000
0320
0000
2030
0000
,
0200
3000
0000
0000
0320
0000
0230
0000
,
0302
2003
3200
0320
,
2030
0000
0100
3000
0002
0000
0203
0000
,
0320
2030
3200
0320
,
0000
2030
3001
2002
,
0000
3003
0000
2000
,
0000
3020
0100
0230
,
0010
0000
0302
0000
0000
0003
2000
0000
,
0000
3200
0000
0320
,
0000
0130
1000
2002
,
0000
0000
0000
0000
,
0000
0000
3003
0100
,
0010
1000
0000
0001
,
0010
0100
0000
1000
,
0100
0010
0000
0100
,
0010
0001
0000
1000
,
0100
0001
0100
1000
,
0100
0001
0000
0001
,
0010
1000
0010
0001
,
2000
3200
0320
2030
,
3100
0000
0010
0000
0100
0000
1000
0100
,
0010
0001
2000
0000
0000
3001
2000
0000
,
0000
3000
0001
0000
0100
0010
2000
0000
,
0000
3001
2000
0000
0000
3000
0020
0000
,
0000
0130
0100
2000
,
0000
3000
0001
0000
0100
0000
2000
0000
,
3001
0000
0001
0000
0001
0000
1000
0100
,
0010
0001
0100
0000
0010
0000
0110
0000
,
2000
3002
0000
0000
,
2003
3200
0320
0032
,
0000
0000
1003
1001
,
2000
3200
0320
0032
,
0000
0023
0230
2300
,
0000
3200
0320
0032
,
0000
0000
1003
1001
,
1000
0000
0100
0010
0001
0100
2000
0000
,
3000
0000
0001
0100
0000
0000
0010
0000
,
1000
0100
0010
0000
0001
0000
2000
0000
,
3200
0320
0032
0203
,
0320
2030
3200
0320
,
2030
0000
3001
1001
,
0000
0000
0200
0300
0010
0000
1001
0000
,
0100
0010
1000
2002
,
0000
0000
3003
2000
,
3200
0000
0320
0230
,
0010
0320
2030
3200
,
0302
0000
0000
0000
1003
0000
2002
3003
,
2000
3200
0320
2030
,
3200
0320
0230
0302
,
2003
3200
0320
2030
,
0000
0001
3001
2002
,
0000
0000
0000
0000
0000
3003
0200
0000
,
0320
2030
3200
0320
,
2030
3200
0320
0230
,
0302
2003
3200
0320
,
2030
0000
3002
0000
0000
0003
2002
0000
,
0000
0000
0000
0000
,
0000
0000
0000
0000
0000
3003
2000
0200
,
3000
0320
0000
0000
0000
0000
0230
0002
,
0300
2003
0000
0000
0000
0000
3020
0000
,
0000
0000
0000
0200
,
0000
0000
0000
0000
,
0000
0000
0000
0000
,
0330
0000
0000
0000
;
