#TITLE:Second Heaven (Risk Junk Remix);
#SUBTITLE:[FULL SONG];
#ARTIST:Remixed by Risk Junk;
#TITLETRANSLIT:;
#SUBTITLETRANSLIT:;
#ARTISTTRANSLIT:;
#CREDIT:;
#BANNER:[Full Song] Second Heaven (Risk Junk Remix).png;
#BACKGROUND:[Full Song] Second Heaven (Risk Junk Remix)-bg.png;
#LYRICSPATH:;
#CDTITLE:;
#MUSIC:[Full Song] Second Heaven (Risk Junk Remix).mp3;
#OFFSET:0.000;
#SAMPLESTART:100.050;
#SAMPLELENGTH:12.000;
#SELECTABLE:YES;
#BPMS:0.000=183.010;
#STOPS:132.000=1.311
;
#BGCHANGES:;

//---------------dance-single - ----------------
#NOTES:
     dance-single:
     :
     Challenge:
     16:
     0.812,1.000,0.270,0.120,0.257: // measure 1
0000
0000
0000
0000
,  // measure 2
0000
0000
0000
0000
,  // measure 3
0000
0000
0000
0000
,  // measure 4
0000
0000
0000
0000
,  // measure 5
0000
0000
0000
0000
,  // measure 6
0000
0000
0000
0000
,  // measure 7
0000
0000
0000
0000
,  // measure 8
0000
0000
0000
0000
,  // measure 9
0000
0000
0000
0000
,  // measure 10
0001
0000
0100
0000
0010
0100
0010
0100
,  // measure 11
0010
0000
1000
0000
0100
0010
0100
0010
,  // measure 12
0100
0000
0001
0000
1000
0001
1000
0001
,  // measure 13
1000
0000
0010
0000
0100
0001
0100
0001
,  // measure 14
1000
1001
0000
0000
0100
0000
0010
0000
,  // measure 15
1000
1010
0000
0100
0000
0001
0000
0100
,  // measure 16
0001
0101
0000
1000
0010
1010
0100
0001
,  // measure 17
0101
0000
1000
0000
1010
0000
0100
0000
0110
0000
0000
1000
0001
0000
0100
0000
,  // measure 18
2002
0000
0000
0000
0000
0000
0000
0003
,  // measure 19
0020
0000
0000
0000
0000
0000
0000
3000
,  // measure 20
0200
0000
0000
0000
0000
0000
0000
0030
,  // measure 21
0002
0000
0000
0000
0000
0000
0000
0300
,  // measure 22
2000
0000
0000
0000
0000
0000
0000
0003
,  // measure 23
0020
0000
0000
3000
0200
0000
0000
0300
,  // measure 24
2000
0030
0000
0000
0000
0000
0000
0000
,  // measure 25
0020
3000
0000
0000
0200
0030
0000
0000
,  // measure 26
0301
0010
0100
0010
0000
1000
0100
0010
,  // measure 27
1000
0010
0100
0010
0100
1000
0100
0010
,  // measure 28
0000
1000
1000
0001
0000
0100
0100
0010
,  // measure 29
1000
0100
0001
1000
0001
0000
0100
1000
,  // measure 30
0010
0100
0010
0100
0000
1000
0100
0010
,  // measure 31
0000
1001
0000
0001
0000
0100
0010
0100
,  // measure 32
1001
0100
0110
1000
,  // measure 33
1000
0100
0010
0001
0100
1000
0100
0010
,  // measure 34
2002
3003
1000
0000
0100
0000
0010
0000
,  // measure 35
1000
0000
0001
0000
0001
0000
1000
0100
,  // measure 36
0010
0001
0000
1000
0000
1000
0100
0000
,  // measure 37
1000
0000
1000
0000
0100
0000
1000
0100
,  // measure 38
0010
0001
0100
1000
0100
0000
0110
0010
,  // measure 39
0100
0000
0010
0000
0100
0000
1000
0100
,  // measure 40
0010
0001
0000
0100
0000
1000
0100
0000
,  // measure 41
1000
0000
0100
0000
0010
0000
0001
0010
,  // measure 42
0100
1000
0000
0100
0010
0100
0000
0010
,  // measure 43
0100
1000
0100
0010
0001
0000
0100
0010
,  // measure 44
0000
0100
1000
0100
0010
0001
0100
0010
,  // measure 45
0000
1000
0100
0001
0000
0100
0100
0001
,  // measure 46
0010
0100
1000
0100
0010
1000
1000
1000
,  // measure 47
0010
0000
0100
0000
0010
0000
1000
0100
,  // measure 48
0000
1000
0100
0010
0001
0010
0100
0010
,  // measure 49
0000
1000
0100
0010
1000
0100
0000
0110
,  // measure 50
0000
0010
0100
0001
0110
0000
0100
0000
,  // measure 51
1000
0100
0010
0100
0000
0100
0100
0010
,  // measure 52
0000
1000
1000
1000
0100
0100
0100
0010
,  // measure 53
0010
1000
1000
1000
0001
0001
0001
0100
,  // measure 54
0100
0100
0010
0010
0010
0100
0100
1000
,  // measure 55
1100
0000
0100
0010
0100
0010
0100
0010
0100
0010
0100
0010
0100
0010
0100
0000
,  // measure 56
0110
0000
0010
0100
0010
0100
0010
0100
0010
0100
0010
0100
0010
0100
0010
0000
,  // measure 57
0011
0000
0001
0010
0001
0010
0001
0000
0101
0000
0001
0100
0001
0100
0001
0000
,  // measure 58
1001
0001
0101
0001
0110
0100
0110
0110
,  // measure 59
1000
0010
0100
0001
2002
0000
0000
3003
,  // measure 60
0100
0020
2030
3020
,  // measure 61
0130
0000
1000
0100
0010
0001
0010
0100
1000
0000
0010
0000
0100
0000
0001
0010
,  // measure 62
0100
0000
0010
0100
0010
0000
0010
0100
0010
0000
0010
0000
0010
0000
0010
0000
,  // measure 63
1000
0000
0100
0001
0010
0100
1000
0010
0100
0000
0010
0001
0100
0000
0001
0000
,  // measure 64
0100
0100
0100
0100
0100
1000
0100
0010
,  // measure 65
0001
0000
0010
0100
0010
0100
0010
0100
0010
0000
1000
0000
0100
0000
0010
1000
,  // measure 66
0001
0000
0100
0010
0100
0000
0100
0010
0100
0000
0010
0000
1000
0000
0010
0000
,  // measure 67
0001
0000
0010
0100
0010
0100
0010
0100
0010
0000
0100
0001
1000
0000
0001
0000
,  // measure 68
0100
0100
0100
0100
0100
1000
0100
0010
,  // measure 69
0001
0000
0010
0100
0010
0100
0010
0100
0010
0000
0100
0000
1000
0000
0100
0010
,  // measure 70
0001
0000
0100
0010
0100
0000
0100
0010
0100
0000
0100
0000
0010
0000
0010
0000
,  // measure 71
0010
0000
1000
0010
0100
0001
0010
0100
0010
0000
0100
0000
0010
0000
0001
1000
,  // measure 72
0010
0010
0010
0010
0010
0100
1000
0100
,  // measure 73
0001
0000
0100
0010
0100
0010
0100
0010
0100
0000
0010
0000
0001
0000
1000
0100
,  // measure 74
0010
0000
0010
0100
0010
0000
0100
0000
0001
0000
0100
0000
0100
0000
0100
0000
,  // measure 75
0010
0000
1000
0100
0010
0001
0010
0100
1000
0000
0010
0100
0010
0000
0010
0000
,  // measure 76
1010
0100
0101
0100
1010
0100
0010
0100
,  // measure 77
0001
0000
0000
0000
0001
0000
1000
0001
0000
0001
1000
0000
0010
0000
0100
0000
,  // measure 78
0010
0000
0001
0000
0100
0000
0010
0100
0000
0100
0010
0000
0100
0000
1000
0000
,  // measure 79
0001
0000
0010
0000
0100
0000
1000
0010
0000
0010
1000
0000
0100
0000
0010
0000
,  // measure 80
0100
0010
0100
0100
0010
0100
0010
0100
,  // measure 81
0010
0000
0000
0000
0010
0000
0010
0100
0000
0100
0010
0000
1000
0000
0100
0000
,  // measure 82
0010
0000
0001
0000
0100
0000
0100
0001
0000
0001
0100
0000
0100
0000
1000
0000
,  // measure 83
0001
0000
0010
0000
0100
0000
1000
0001
0000
0001
1000
0000
0010
0000
0100
0000
,  // measure 84
0010
0010
1000
0100
1000
0010
0100
0000
,  // measure 85
0010
0100
0010
0100
0020
0000
0130
0010
,  // measure 86
0000
1000
0100
0010
0000
0100
0010
0000
,  // measure 87
0100
0001
0010
0100
1000
0100
0010
0001
,  // measure 88
0100
0010
0100
0010
0100
0100
0100
0100
,  // measure 89
0010
0000
1000
0000
0010
0100
0010
0100
,  // measure 90
0010
1000
0100
0010
0001
0100
0010
0000
,  // measure 91
1000
1000
0100
0100
0010
0010
0001
0001
,  // measure 92
0010
0010
0010
0100
0100
0100
0100
0000
,  // measure 93
0001
0010
0100
0010
0000
1000
0010
0100
,  // measure 94
0000
1000
0100
0010
0001
0100
0010
0100
,  // measure 95
0000
0001
0010
0100
0000
1000
0100
0000
,  // measure 96
0010
1000
0100
0010
0001
0000
0000
0000
,  // measure 97
1000
0010
0100
0010
0000
1000
0100
0010
,  // measure 98
0000
0100
0001
0010
0100
1000
0100
0010
,  // measure 99
0000
0100
0100
0001
0000
0100
0010
0100
,  // measure 100
0010
1000
0100
0010
0001
0000
0000
0000
,  // measure 101
1001
0000
0010
0100
0010
0100
1000
0100
0010
0000
0100
0000
0100
0000
0010
0100
,  // measure 102
1000
0000
0100
1000
0010
0000
0001
0000
0100
0000
0010
0000
0100
0000
0010
0000
,  // measure 103
0100
0000
1000
0001
0100
1000
0010
0100
0001
0000
0100
0000
0010
0000
0100
0000
,  // measure 104
0001
0001
0001
0001
0001
0100
0010
0100
,  // measure 105
1010
0100
0010
0100
0010
0100
0010
0100
,  // measure 106
0110
1000
0100
0010
0100
0001
0100
0010
,  // measure 107
0011
0100
0010
0100
0010
0100
0100
0110
,  // measure 108
1010
0100
0010
0100
0010
0100
0001
0100
,  // measure 109
0101
1000
0010
0100
0110
1000
0010
0100
,  // measure 110
1010
0100
0101
0100
0110
0100
0110
0100
,  // measure 111
0001
1000
0100
0010
2002
0000
0000
0000
,  // measure 112
3003
0210
2300
3020
,  // measure 113
0130
0000
1000
0010
0100
1000
0010
0100
0001
0000
0100
0000
0010
0000
0100
0001
,  // measure 114
0010
0000
0010
1000
0100
0000
1000
0000
1010
0000
1000
0000
0110
0000
0100
0000
,  // measure 115
0110
0000
1000
0010
0100
0001
0010
0100
0001
0000
0010
1000
0100
0000
1000
0000
,  // measure 116
0010
0010
0010
0010
0010
1000
0100
0010
,  // measure 117
0001
0000
1000
0010
0100
0010
0100
0010
0100
0000
1000
0000
0010
0000
0100
1000
,  // measure 118
0010
0000
0010
0100
0010
0000
1000
0100
0010
0000
0010
0000
0010
0000
0010
0000
,  // measure 119
1000
0000
0100
0001
0100
0001
0100
0001
0100
0000
0010
0000
1000
0000
0001
0000
,  // measure 120
0010
0010
0010
0010
0010
1000
0100
0010
,  // measure 121
0001
0000
0100
1000
0100
1000
0100
1000
0100
0000
0010
0000
1000
0000
0001
0010
,  // measure 122
0100
0000
0010
1000
0100
0000
1000
0000
0010
0000
0010
0000
0010
0000
0010
0000
,  // measure 123
1000
0000
0100
1000
0001
0010
0100
1000
0100
0000
0100
0000
0010
0000
1000
0000
,  // measure 124
0010
0010
0010
0010
0010
1000
0110
0001
,  // measure 125
0010
0000
0010
0001
0010
0001
0010
0001
0010
0000
1000
0000
0100
0000
0010
1000
,  // measure 126
0001
0000
0010
0100
0010
0000
0010
0000
0010
0000
0100
0000
0100
0000
0100
0000
,  // measure 127
0010
1000
0100
0010
0001
1000
0100
0010
,  // measure 128
0001
1000
0100
0010
0002
0000
0000
0000
,  // measure 129
1003
0000
0000
0000
0010
0000
0100
0010
0000
0010
0100
0000
0100
0000
0010
0000
,  // measure 130
1000
0000
0100
0000
0010
0000
0100
0010
0000
0010
0100
0000
0100
0000
0100
0000
,  // measure 131
0010
0000
1000
0000
0100
0000
0010
0001
0000
0001
0100
0000
0010
0000
0100
0000
,  // measure 132
0010
0010
1000
0100
0010
0010
0010
0010
,  // measure 133
1000
0000
0100
0000
0010
0000
0001
0100
0000
0100
0010
0000
1000
0000
0100
0000
,  // measure 134
0010
0000
0001
0000
0010
0000
0100
0010
0000
0010
1000
0000
0100
0000
0010
0000
,  // measure 135
0001
0000
0100
0000
0010
0000
0100
0010
0000
0010
0100
0000
0010
0000
1000
0000
,  // measure 136
0100
0010
0001
0100
0010
0100
0010
0100
,  // measure 137
0010
1000
0100
0010
0002
0000
0103
0010
,  // measure 138
0100
0000
0010
0100
0010
0000
0010
0000
0100
0000
0010
0000
1000
0000
0100
0000
,  // measure 139
0010
0100
0001
0100
0020
0000
0130
0100
,  // measure 140
0010
1000
0100
0010
0001
0100
1000
0100
,  // measure 141
0010
0100
0010
0100
0010
0100
0010
0100
,  // measure 142
1100
0100
0010
0100
0010
0100
0100
0010
,  // measure 143
0011
0100
0010
0100
0110
1000
0100
0010
,  // measure 144
1010
0100
0101
1000
0110
1000
0100
0010
,  // measure 145
0001
0010
0100
0010
0000
1000
0100
0010
,  // measure 146
0000
1000
0100
0001
0001
0001
0100
0010
,  // measure 147
0000
1000
0100
0010
0000
0001
0010
0100
,  // measure 148
1000
1000
1000
1000
0100
0010
0010
0010
,  // measure 149
0100
1000
0100
0010
0000
1000
0100
0010
,  // measure 150
0000
0100
0001
0010
0100
1000
0100
0010
,  // measure 151
0000
0100
0010
0100
0000
1000
0100
0010
,  // measure 152
0001
0010
0100
1000
0002
0000
0000
0000
,  // measure 153
0103
0010
0100
0010
0000
1000
0100
0010
,  // measure 154
0000
1000
0100
0010
0001
0010
0100
1000
,  // measure 155
0000
0010
0100
0010
0000
1000
0100
0010
,  // measure 156
0001
0010
0100
1000
0010
0100
0010
0100
,  // measure 157
1001
0100
0010
0001
0000
0100
0010
0100
,  // measure 158
0110
1000
0100
0010
0001
0010
0100
1000
,  // measure 159
0000
0010
0100
0010
0000
1000
0100
0010
,  // measure 160
0001
0010
0100
1000
0010
0100
0010
0100
,  // measure 161
1001
0000
0100
0000
0010
0100
0010
0100
,  // measure 162
0000
0010
0100
0010
0000
1000
0100
0010
,  // measure 163
0000
0001
0100
0001
0000
1000
1000
0010
,  // measure 164
0000
0100
0100
0001
0000
1000
0010
0100
,  // measure 165
0001
0001
0000
0100
0000
0010
0100
0010
,  // measure 166
0000
1000
0100
0010
0000
1000
1000
1000
,  // measure 167
0001
1000
0001
0001
0000
0100
0010
0010
,  // measure 168
0000
1000
0100
0001
0000
0001
0100
0001
,  // measure 169
0100
0010
0010
0010
0000
1000
1000
1000
,  // measure 170
0000
0010
0100
0100
0010
0100
0010
1000
,  // measure 171
0100
0010
0010
0010
0000
0100
0001
0001
,  // measure 172
0000
0100
0010
0010
0000
1000
0100
0001
,  // measure 173
1000
1001
0000
0100
0000
0010
0100
0010
,  // measure 174
0100
0110
1000
0100
0010
0001
0100
1000
,  // measure 175
1001
0100
0010
0100
0110
1000
0001
1000
,  // measure 176
1001
1000
1001
1000
1001
0100
0010
0100
,  // measure 177
1001
0000
0000
0000
;
