#TITLE:Sakura Sunrise;
#SUBTITLE:[FULL SONG] Extended RRver.;
#ARTIST:Ryu*;
#TITLETRANSLIT:;
#SUBTITLETRANSLIT:;
#ARTISTTRANSLIT:;
#CREDIT:;
#BANNER:[Full Song] Sakura Sunrise (Extended RRver.).png;
#BACKGROUND:[Full Song] Sakura Sunrise (Extended RRver.)-bg.png;
#LYRICSPATH:;
#CDTITLE:;
#MUSIC:[Full Song] Sakura Sunrise (Extended RRver.).mp3;
#MENUCOLOR:1,0,0,1;
#METERTYPE:DDR X;
#OFFSET:0.000;
#SAMPLESTART:100.050;
#SAMPLELENGTH:12.000;
#SELECTABLE:YES;
#BPMS:0.000=181.000;
#STOPS:;
#BGCHANGES:;

//---------------dance-single - ----------------
#NOTES:
     dance-single:
     :
     Challenge:
     14:
     0.748,1.000,0.456,0.267,0.067: // measure 1
0000
0000
0000
0000
,  // measure 2
0000
0000
0000
0000
,  // measure 3
0000
0000
0000
0000
,  // measure 4
0000
0000
0000
0000
,  // measure 5
0000
0000
0000
0000
,  // measure 6
0000
0000
0000
0000
,  // measure 7
0000
0000
0000
0000
,  // measure 8
0000
0000
0000
0000
,  // measure 9
0001
0000
1000
0000
0010
0100
0010
0000
,  // measure 10
1000
0100
0010
0001
0200
0000
0310
0000
,  // measure 11
1000
0000
0001
0000
0100
0010
0100
0000
,  // measure 12
0002
0203
2300
3100
,  // measure 13
0010
0100
0010
0000
0001
1000
0001
0000
,  // measure 14
1000
0100
0010
0001
0200
0000
0310
0000
,  // measure 15
1000
0001
1000
0000
0010
0100
0010
0100
,  // measure 16
0000
1000
0100
1010
0000
1001
1001
0000
,  // measure 17
1000
0100
0010
0000
0100
0000
0010
0000
,  // measure 18
1000
0100
0010
0001
0100
0000
0000
0000
,  // measure 19
0010
0100
0010
0000
0001
0010
0100
0010
,  // measure 20
1000
0000
0010
0000
0010
0000
1000
0100
,  // measure 21
0010
0100
0001
0000
0100
0010
0100
0000
,  // measure 22
0001
0100
0001
0100
0001
0000
0000
1000
,  // measure 23
0100
0010
0001
0000
0100
0010
0100
0010
,  // measure 24
0000
0001
0010
0100
0000
1000
1000
0000
,  // measure 25
1000
0100
0010
0000
1000
0100
0010
0001
,  // measure 26
0010
0100
1000
0100
0010
0000
0000
1000
,  // measure 27
0100
0010
0001
0000
0100
0010
0100
0010
,  // measure 28
2000
0000
3200
0000
0320
0000
0030
1000
,  // measure 29
0100
0010
0001
0000
0001
0100
0001
0100
,  // measure 30
0010
1000
0100
0010
0002
0000
0003
0100
,  // measure 31
0010
0100
0010
0000
1000
0100
0010
0001
,  // measure 32
0000
1000
0100
1010
0000
1010
1010
0000
,  // measure 33
1100
0010
0001
0000
1000
0100
0010
0001
,  // measure 34
0110
1000
1010
0100
0101
0000
1000
0100
,  // measure 35
0010
0100
0001
0000
1000
0100
0010
0001
,  // measure 36
1100
0000
0110
0100
0110
0000
0010
0100
,  // measure 37
0001
0100
0010
0000
1000
0100
0010
0001
,  // measure 38
0100
0001
0100
0010
0200
0000
1300
0100
,  // measure 39
0010
0001
0100
0000
0100
0010
0100
0010
,  // measure 40
0000
1000
0100
0110
0001
1001
1001
0000
,  // measure 41
0100
0010
0002
0000
0103
0010
0100
0010
,  // measure 42
1010
0010
0110
0010
0110
0000
1000
0010
,  // measure 43
0100
0010
0001
0000
0100
0010
0100
0010
,  // measure 44
0101
0100
0110
0100
0110
0000
1000
0100
,  // measure 45
0010
0100
0001
0000
0100
0010
0100
0010
,  // measure 46
1010
0100
0110
0100
0110
0000
0001
0100
,  // measure 47
0010
0100
0020
0000
1030
0100
0010
0002
,  // measure 48
0000
1003
0010
0200
0000
0310
2000
0000
,  // measure 49
3010
0100
0010
0010
0100
0001
0100
0010
,  // measure 50
0010
0010
1000
0100
0010
0010
0010
0010
,  // measure 51
0100
0001
0001
1000
0010
0100
0010
0100
,  // measure 52
1001
0100
0010
0000
0110
0000
0100
0000
,  // measure 53
1010
0000
0100
0010
0100
0010
0100
0010
,  // measure 54
1000
0100
0010
0001
0100
0010
0100
0001
,  // measure 55
1001
0100
0010
0100
0110
1000
0100
0010
,  // measure 56
1010
0100
0010
0100
0010
0100
0110
0110
,  // measure 57
0110
1000
0100
0010
0001
0100
0010
0100
,  // measure 58
0010
0010
0010
0010
1000
1000
1000
1000
,  // measure 59
0001
0100
0010
0100
0010
0100
0010
0000
,  // measure 60
2001
3020
0230
0310
,  // measure 61
1000
0100
0010
0001
0100
0010
0100
0010
,  // measure 62
1010
0100
0010
0100
0001
0100
0010
0100
,  // measure 63
0110
1000
0100
0010
1010
0100
0010
0001
,  // measure 64
0100
1000
0100
0010
0001
0100
0010
0000
,  // measure 65
1000
0001
1000
0001
0000
0010
0000
0010
,  // measure 66
0000
0100
0000
0010
0100
0000
0010
0100
,  // measure 67
0010
1000
0100
0010
0001
0010
0000
0001
,  // measure 68
0000
0001
0000
0100
0010
0000
1000
0000
,  // measure 69
0010
0001
0100
0010
1000
0100
0000
0010
,  // measure 70
0000
0100
0000
1000
0100
1000
0010
0100
,  // measure 71
0010
0000
0010
0100
0000
1000
0100
0010
,  // measure 72
0000
0100
0000
0100
0010
1000
0100
0001
,  // measure 73
1000
0100
0010
0001
0000
0100
0000
0010
,  // measure 74
0000
1000
0000
0100
0010
0000
0010
0000
,  // measure 75
1000
0100
0001
0100
0000
0010
0100
1000
,  // measure 76
0000
0010
1000
0100
0000
0100
1000
0010
,  // measure 77
0000
0010
0001
1000
0000
0100
1000
0010
,  // measure 78
0000
1000
0000
0100
0000
0001
0100
1000
,  // measure 79
0000
0010
0001
0100
1000
0100
0010
0100
,  // measure 80
0000
1000
0000
0010
0200
0000
0000
0000
,  // measure 81
1300
0000
0100
0000
0010
0000
0100
0000
0001
0000
1000
0001
0000
1000
0001
0000
,  // measure 82
0000
0000
1000
0000
0100
0000
0001
0000
0010
0000
1000
0001
0000
1000
0001
0000
,  // measure 83
0000
0000
0100
0000
0010
0000
0001
0000
0100
0000
0010
0100
0000
0010
0100
0000
,  // measure 84
0000
0000
0100
0000
0010
0000
1000
0000
0100
0000
0001
0100
0000
0001
0100
0000
,  // measure 85
0000
0000
0100
0000
0010
0000
0100
0000
1000
0000
0001
0100
0000
0001
0100
0000
,  // measure 86
0000
0000
0010
0000
1000
0000
0100
0000
0010
0000
1000
0100
0000
1000
0100
0000
,  // measure 87
0000
0000
1000
0000
0100
0000
0010
0000
0001
0000
1000
0100
0000
1000
0100
0000
,  // measure 88
0000
0000
0100
0000
1000
0000
0100
0000
0010
0000
0100
0010
0000
0100
0010
0000
,  // measure 89
2010
3010
1010
1010
,  // measure 90
0102
0103
0101
0101
,  // measure 91
2010
3010
1010
1010
,  // measure 92
0210
0310
0110
0110
,  // measure 93
1000
0100
0010
0001
0010
0100
1000
0010
,  // measure 94
1010
0100
0110
0100
0110
1000
0010
0100
,  // measure 95
1000
0100
1000
0100
0010
0100
0010
0001
0010
0001
0010
0100
0010
0100
0002
0000
,  // measure 96
0000
1003
1001
1001
0000
1001
1001
0000
,  // measure 97
1001
0110
0110
0110
0000
0110
0110
0000
,  // measure 98
0002
0023
0230
0300
0200
0320
0032
0103
,  // measure 99
1010
0001
0110
0001
0110
0010
0010
0010
,  // measure 100
1001
0100
0020
0000
1030
0100
0010
0001
,  // measure 101
0100
0010
0100
0010
2000
0000
3100
0010
,  // measure 102
0100
0010
0100
0000
1000
0100
0010
0100
,  // measure 103
0020
0000
1030
1010
1010
0000
1000
0010
,  // measure 104
0100
0010
0200
0000
1300
0100
0010
0001
,  // measure 105
1000
0100
0010
0001
0200
0000
0010
0010
,  // measure 106
0010
0010
0320
0000
1030
0100
0010
0001
,  // measure 107
0000
1010
0100
0010
1000
1010
1010
0000
,  // measure 108
0100
0010
0002
0000
1003
0010
0100
0010
,  // measure 109
1010
1000
0110
0100
0110
0000
0001
0100
,  // measure 110
0010
0100
0001
0000
1000
0100
0010
0100
,  // measure 111
0110
0010
0101
0100
0101
0000
1000
0010
,  // measure 112
1010
0100
0010
0000
0100
0001
1000
0010
,  // measure 113
1100
0100
0110
0100
0011
0000
0100
0010
,  // measure 114
0100
0000
0010
0000
1000
0001
1000
0001
1000
0000
0100
0000
0010
0000
0200
0000
,  // measure 115
0000
0310
1000
0020
0000
0130
0002
0000
,  // measure 116
0103
0010
0100
0010
1000
0100
0010
1000
,  // measure 117
0000
0020
0000
0130
0020
0000
0130
0010
,  // measure 118
1000
0100
0010
0002
0103
1000
0100
0020
,  // measure 119
0000
0230
0000
0310
2000
0000
3010
0000
,  // measure 120
0100
0010
0100
0010
1000
0100
0010
0002
,  // measure 121
0000
2003
0000
3010
0100
0001
0010
1000
,  // measure 122
0100
0010
0001
0200
0000
0310
1000
0010
,  // measure 123
0000
0200
0010
0010
0000
0010
0010
0310
,  // measure 124
1000
0100
0010
0001
0000
0100
0010
0100
,  // measure 125
0110
0000
0110
1000
0100
0000
0010
0100
,  // measure 126
0001
0100
0010
0100
0000
1000
0100
0010
,  // measure 127
1001
0001
1000
0010
0100
0000
0010
0000
,  // measure 128
1001
0100
0010
0001
0000
0100
0010
0100
,  // measure 129
0010
1000
0100
0010
0001
0000
0100
0000
,  // measure 130
0010
0000
1000
0000
0010
0100
0010
0100
1000
0000
0100
0000
0010
0000
0001
0000
,  // measure 131
0000
0100
0010
0100
0000
1001
1001
0000
,  // measure 132
1000
0010
0100
0010
0100
0001
0100
0000
,  // measure 133
0010
0010
0010
0100
0001
0001
0001
0000
,  // measure 134
1000
0001
0100
0010
,  // measure 135
1001
0110
1001
0001
,  // measure 136
1000
0000
0100
0010
0100
0010
0010
0100
,  // measure 137
0001
0001
0001
1000
0010
0010
0010
0100
,  // measure 138
1000
0100
0010
0001
,  // measure 139
1000
1000
1000
1000
0001
0001
0001
0000
,  // measure 140
1000
0100
0010
0100
0000
0010
0100
0000
,  // measure 141
0010
0010
0010
0100
1000
0100
0100
0000
,  // measure 142
0010
0000
0000
0100
0010
0100
0010
0000
,  // measure 143
2000
3010
0200
0301
,  // measure 144
0100
0010
0100
0010
1000
0100
0010
0000
,  // measure 145
0100
1000
0100
0010
0010
0010
0100
1000
,  // measure 146
0100
0010
0001
0010
0100
0010
0100
0000
,  // measure 147
0001
1000
0100
0010
0001
0100
0010
0000
,  // measure 148
2002
0000
0000
0000
,  // measure 149
0000
0000
0000
0000
,  // measure 150
0000
0000
0000
0000
,  // measure 151
0000
0000
0000
0000
,  // measure 152
3003
0000
0000
0000
;
