#TITLE:SUPER STREAM;
#SUBTITLE:[FULL SONG] ~INFINIT FUTURE Revised MIX~;
#ARTIST:Remixed by All IS Girls;
#TITLETRANSLIT:;
#SUBTITLETRANSLIT:;
#ARTISTTRANSLIT:;
#CREDIT:;
#BANNER:[Full Song] SUPER STREAM ~INFINIT FUTURE Revised MIX~.png;
#BACKGROUND:[Full Song] SUPER STREAM ~INFINIT FUTURE Revised MIX~-bg.png;
#LYRICSPATH:;
#CDTITLE:;
#MUSIC:[Full Song] SUPER STREAM ~INFINIT FUTURE Revised MIX~.mp3;
#MENUCOLOR:0,0,1,1;
#METERTYPE:DDR X;
#OFFSET:0.000;
#SAMPLESTART:100.050;
#SAMPLELENGTH:12.000;
#SELECTABLE:YES;
#BPMS:0.000=90.000,24.000=180.000,120.000=90.000,128.000=180.000,344.000=90.000,352.000=180.000,472.000=90.000,488.000=180.000,528.000=90.000,534.000=180.000,538.000=90.000,544.000=180.000,612.000=90.000;
#STOPS:;
#BGCHANGES:;

//---------------dance-single - ----------------
#NOTES:
     dance-single:
     :
     Challenge:
     14:
     0.577,0.606,0.293,0.353,0.058: // measure 1
0000
0000
0000
0000
,  // measure 2
0000
0000
0000
0000
,  // measure 3
0000
0000
0000
0000
,  // measure 4
0000
0000
0000
0000
,  // measure 5
0000
0000
0000
0000
,  // measure 6
0000
0000
0000
0000
,  // measure 7
0001
0020
0031
0000
0100
0000
1000
0000
0000
0000
0001
0000
0000
0000
0001
0000
,  // measure 8
1000
0200
1300
0000
0010
0000
0001
0000
0000
0000
1000
0000
0000
0000
1000
0000
,  // measure 9
0001
0200
0301
0000
0100
0000
1000
0000
0000
0000
0010
0000
0000
0000
0010
0000
,  // measure 10
1000
0020
1030
0000
0010
0000
0001
0000
0000
0000
0100
0000
0020
0000
0130
0000
,  // measure 11
0001
2000
3001
0000
0100
0000
1000
0000
0000
0000
0001
0000
0000
0000
0001
0000
,  // measure 12
1000
0002
1003
0000
0010
0000
0001
0000
0000
0000
1000
0000
0000
0000
1000
0000
,  // measure 13
0100
0020
0130
0000
0100
0000
1000
0000
0000
0000
0001
0000
0000
0000
0001
0000
,  // measure 14
0010
0200
0310
0000
0010
0000
0001
0000
0000
0000
1000
0000
0000
0000
1000
0000
,  // measure 15
0100
0000
0010
1000
0100
0010
0000
1000
,  // measure 16
0100
0000
0010
0000
1000
0000
0001
2000
,  // measure 17
0000
0000
0001
0000
3001
0000
1000
0100
,  // measure 18
0010
0001
0010
0100
1000
0000
0010
0000
,  // measure 19
0100
1000
1000
0002
,  // measure 20
2003
0000
3200
0000
0310
0002
0203
0000
,  // measure 21
0320
0000
0000
0000
0130
0000
0000
0000
0010
0000
0000
0000
0000
0000
1000
0010
,  // measure 22
0100
0010
0001
0100
0000
1000
0100
0010
,  // measure 23
0110
0000
1000
0010
0100
0010
0000
1000
,  // measure 24
0100
0000
0010
0000
0001
0000
0001
0010
,  // measure 25
0000
0000
0010
0000
0010
1000
0100
0010
,  // measure 26
0000
0010
2000
3020
,  // measure 27
0230
0000
0320
0000
2030
0000
3100
0020
,  // measure 28
0000
0230
0320
2030
,  // measure 29
3100
0000
0010
1000
0020
0000
0000
1030
,  // measure 30
0000
0020
0000
0130
0010
0100
0000
0020
,  // measure 31
0000
0000
1000
0000
1000
1000
1000
0000
,  // measure 32
2030
0000
0000
0000
0010
0000
0000
0000
0010
0000
0010
0000
0010
3000
0000
0000
,  // measure 33
0100
0000
1010
0000
0100
0010
0101
0000
,  // measure 34
0100
0000
0110
0000
1000
0100
0010
0110
,  // measure 35
0000
0000
1010
0000
0100
0001
0101
0000
,  // measure 36
1000
0000
1010
0000
0100
0010
0110
0000
,  // measure 37
1000
0100
0010
0001
0010
0100
1000
0001
,  // measure 38
1100
1100
0100
1100
0000
0100
0000
0000
,  // measure 39
0110
0000
0100
0010
0100
0010
2000
0000
,  // measure 40
0010
0000
0001
3000
0002
0000
0100
0003
,  // measure 41
2000
3020
0230
0310
,  // measure 42
1000
0100
0010
1001
0000
0100
0010
0110
,  // measure 43
0000
0000
1100
0000
0100
0010
0110
0000
,  // measure 44
1000
0100
0010
1000
0000
0000
0100
0010
,  // measure 45
0100
1000
0100
0010
,  // measure 46
1000
0000
0000
0100
0000
0000
0010
0000
0001
0000
0000
0000
0100
0000
1000
0000
,  // measure 47
0100
0010
0001
0100
0010
2000
0010
0000
,  // measure 48
0010
0000
3002
0000
0100
0000
0100
0003
,  // measure 49
1000
0100
0010
0001
1000
0000
0010
0000
,  // measure 50
1000
0100
0001
0101
0000
1000
0010
1010
,  // measure 51
0000
0000
1100
0000
1000
0100
0010
0000
,  // measure 52
0100
0001
1000
0000
0010
0000
0100
0002
,  // measure 53
0000
0000
0100
0000
0013
0000
1000
0100
,  // measure 54
0010
0000
0000
0001
0000
0000
0010
0000
0100
0000
0000
0000
1000
0000
0100
0000
,  // measure 55
0010
0000
0100
0000
0010
0100
0010
0000
,  // measure 56
1000
0100
0010
0001
0000
0100
0010
1000
,  // measure 57
0100
0010
0001
0100
0010
0000
0010
0000
,  // measure 58
1000
0100
0010
0001
0000
0100
0010
0000
,  // measure 59
1100
0000
1100
0000
1100
0000
1000
0100
,  // measure 60
0000
0010
0001
0100
0010
0000
0100
0010
,  // measure 61
2000
0000
0010
0000
0010
0000
0010
3000
,  // measure 62
0002
0100
0100
0103
,  // measure 63
0001
0020
0031
0000
0100
0000
1000
0000
0000
0000
0001
0000
0000
0000
0001
0000
,  // measure 64
1000
0200
1300
0000
0010
0000
0001
0000
0000
0000
1000
0000
0000
0000
1000
0000
,  // measure 65
0001
0200
0301
0000
0100
0000
1000
0000
0000
0000
0010
0000
0000
0000
0010
0000
,  // measure 66
1000
0020
1030
0000
0010
0000
0001
0000
0000
0000
0100
0000
0020
0000
0130
0000
,  // measure 67
0001
2000
3001
0000
0100
0000
1000
0000
0000
0000
0001
0000
0000
0000
0001
0000
,  // measure 68
1000
0002
1003
0000
0010
0000
0001
0000
0000
0000
1000
0000
0000
0000
1000
0000
,  // measure 69
0100
0020
0130
0000
0100
0000
1000
0000
0000
0000
0001
0000
0000
0000
0001
0000
,  // measure 70
0010
0200
0310
0000
0010
0000
0001
0000
0000
0000
1000
0000
0000
0000
1000
0000
,  // measure 71
0100
0100
0010
0100
,  // measure 72
1000
0000
0100
0000
0010
0000
0100
2000
,  // measure 73
0000
0000
0001
0000
3001
0000
1000
0100
,  // measure 74
0010
0001
0100
0010
1000
0000
0010
0000
,  // measure 75
0100
0010
0010
2000
,  // measure 76
3200
0000
0320
0000
0031
0010
0200
0000
,  // measure 77
0320
0000
0000
0000
0130
0000
0010
0000
0100
0000
0000
0000
0000
0000
1000
0001
,  // measure 78
0100
0010
0001
0100
0000
1000
0100
0010
,  // measure 79
0110
0000
1000
0010
0100
0010
0000
1000
,  // measure 80
0100
0000
0010
0000
0100
0000
0001
0100
,  // measure 81
0100
0000
0100
0000
0000
1000
0100
0010
,  // measure 82
0000
0000
0100
0000
1000
0100
0010
0000
,  // measure 83
2000
0000
3002
0000
0203
0000
1300
0200
,  // measure 84
0000
0310
0010
0001
,  // measure 85
0010
0000
0100
0010
0110
0000
1000
1010
,  // measure 86
0000
1010
0000
1000
0100
0010
0000
2000
,  // measure 87
0000
0000
0001
0000
0010
0010
0010
0000
,  // measure 88
3002
0000
0100
0000
0100
0100
0010
0003
,  // measure 89
1000
0010
1010
0100
0010
0100
0110
0000
,  // measure 90
0100
0010
1100
0100
0000
0110
0000
0110
,  // measure 91
0000
0000
0110
0000
1000
0100
1100
0000
,  // measure 92
0110
0000
0110
0000
0010
0001
0011
0000
,  // measure 93
0100
0010
0100
0010
0100
0010
0100
0010
,  // measure 94
1000
0100
0010
0001
0000
0000
0000
0000
,  // measure 95
0100
0010
0100
0010
0100
0010
2000
0000
,  // measure 96
0000
0000
0001
0000
0001
0000
0001
3000
,  // measure 97
0002
0000
1000
0000
1000
0000
1000
0003
,  // measure 98
1000
0100
0010
1001
0000
0100
0010
1100
,  // measure 99
0000
0000
0110
0000
0100
0010
0100
0000
,  // measure 100
1000
0100
0010
0001
0000
0100
0010
0100
,  // measure 101
0010
0000
1000
0100
0010
0000
1000
0100
,  // measure 102
0001
0000
0000
0010
0000
0000
0100
0000
1000
0000
0000
0000
0000
0000
0000
0000
,  // measure 103
0100
0010
0100
0010
0100
0010
2000
0000
,  // measure 104
0000
0000
0010
0000
0010
0000
0010
3000
,  // measure 105
0001
0100
1000
0100
0010
0000
0001
0000
,  // measure 106
0001
0010
0100
0110
0000
1000
0010
1010
,  // measure 107
0000
0100
0010
0100
,  // measure 108
0010
0001
0010
0100
1000
0100
0010
0002
,  // measure 109
0000
0000
0100
0000
0013
0000
0100
0010
,  // measure 110
0100
0000
0000
1000
0000
0000
0100
0000
0010
0000
0000
0000
0001
0000
0100
0000
,  // measure 111
0020
0000
0100
0000
0100
0000
0100
0030
,  // measure 112
0200
0000
0010
0000
0010
0000
0010
0300
,  // measure 113
0020
0000
0100
0000
0100
0000
0100
0030
,  // measure 114
0200
0010
0010
0310
,  // measure 115
1000
0000
0001
0000
1001
0000
1000
0100
,  // measure 116
0000
0010
0001
0100
0010
0000
0100
0010
,  // measure 117
0000
1000
0010
0100
,  // measure 118
1000
0000
0100
0000
0010
0000
0100
0001
,  // measure 119
0100
0100
0200
0000
0310
0010
0020
0000
,  // measure 120
1030
1000
2000
0000
3001
0001
0002
0000
,  // measure 121
0013
0010
0020
0000
0130
0100
0200
0000
,  // measure 122
0301
0001
0002
0000
1003
1000
1000
0000
,  // measure 123
1010
0000
0110
0000
1000
0010
1010
0000
,  // measure 124
0100
0000
0101
0000
1000
0010
0110
0000
,  // measure 125
1100
0000
0110
0000
0010
0001
0011
0000
,  // measure 126
0100
0000
0110
0000
1000
0010
1010
0000
,  // measure 127
1000
0100
0010
0001
0010
0100
1000
0000
,  // measure 128
0001
0010
0100
1000
0100
0010
0001
0000
,  // measure 129
0100
0010
0100
0010
0100
0010
0100
0000
,  // measure 130
0010
0100
0010
0100
0010
0100
0010
0000
,  // measure 131
0100
0001
0100
0010
1000
0100
0010
0001
,  // measure 132
0100
1000
0100
0010
0000
0100
0010
0100
,  // measure 133
2002
0000
0000
0000
3003
0010
0100
0001
,  // measure 134
1001
0000
0010
0000
1100
0010
0100
0110
,  // measure 135
0000
1000
0010
0110
0000
0000
0100
0000
,  // measure 136
0110
0000
0100
0000
0110
0000
0100
0010
,  // measure 137
1100
0000
0000
1100
0000
0000
1100
0000
0100
0000
1000
0000
1000
0000
0100
0000
,  // measure 138
0010
1000
0100
0010
0001
0100
2002
0000
,  // measure 139
0003
0000
3020
0000
0200
0030
0320
0000
,  // measure 140
1030
0100
0010
0001
0100
0000
1000
0000
,  // measure 141
1000
0100
0010
1010
0000
0100
0010
0110
,  // measure 142
0000
0000
1100
0000
0010
0100
0010
0000
,  // measure 143
1000
0100
0010
0001
0010
0100
1000
0200
,  // measure 144
0000
0000
0010
0000
0310
0000
0100
1000
,  // measure 145
0100
0000
0000
0010
0000
0000
0001
0000
0010
0000
0000
0000
0100
0000
1000
0000
,  // measure 146
0100
0000
0010
0000
0010
0100
0010
0000
,  // measure 147
1000
0100
0010
0001
0000
0100
0100
0001
,  // measure 148
0010
0100
1000
0100
0010
0000
0010
0000
,  // measure 149
1000
0100
0010
0001
0000
0100
0010
0000
,  // measure 150
1100
0000
0011
0000
1100
0000
0100
0010
,  // measure 151
0100
0010
0100
0000
1100
0000
0010
0100
,  // measure 152
0010
0000
0110
0000
1000
0010
0110
0000
,  // measure 153
1000
0010
0100
0010
1000
0100
0010
0001
,  // measure 154
2000
0000
0000
0000
3001
0000
0000
0000
0001
0000
0001
0001
0001
0000
0000
0000
,  // measure 155
0002
0000
0000
0000
1003
0000
0000
0000
1000
0000
1000
1000
1000
0000
0000
0000
,  // measure 156
0020
0000
0000
0030
0100
0000
0000
0000
0100
0000
0100
0100
0100
0000
0000
0000
,  // measure 157
0200
0000
0310
0000
1000
0100
0010
0001
,  // measure 158
1000
0000
0100
0000
0010
0000
0001
0000
1000
0100
0010
0002
0000
0000
0000
0000
,  // measure 159
0000
0000
0000
0000
,  // measure 160
0003
0000
0000
0000
;
