#TITLE:STRAIGHT JET;
#SUBTITLE:[FULL SONG] IS ~Infinite Stratos~ Opening;
#ARTIST:Minami Kuribayashi;
#TITLETRANSLIT:;
#SUBTITLETRANSLIT:;
#ARTISTTRANSLIT:;
#GENRE:;
#CREDIT:;
#BANNER:[Full Song] STRAIGHT JET.png;
#BACKGROUND:[Full Song] STRAIGHT JET-bg.png;
#LYRICSPATH:;
#CDTITLE:;
#MUSIC:[Full Song] STRAIGHT JET.mp3;
#OFFSET:-0.032;
#SAMPLESTART:100.050;
#SAMPLELENGTH:12.000;
#SELECTABLE:YES;
#BPMS:0.000=154.000
,260.000=77.000
,276.000=154.000
,416.000=77.000
,432.000=154.000
,516.000=77.000
,520.000=154.000
,528.000=308.001
,536.000=154.000
;
#STOPS:
;
#BGCHANGES:;
#KEYSOUNDS:;
#ATTACKS:;

//---------------dance-single - ----------------
#NOTES:
     dance-single:
     :
     Challenge:
     15:
     0.741,0.782,0.716,0.172,0.255,1172.000,195.000,47.000,0.000,0.000,0.000,0.741,0.782,0.716,0.172,0.255,1172.000,195.000,47.000,0.000,0.000,0.000:
0000
0000
0000
0000
,
0000
0000
0000
0000
,
0000
0000
0000
0000
,
0000
0000
0000
0000
,
1001
0000
0110
0000
1000
0100
0010
0101
,
1000
0010
0110
1000
0010
0100
1001
0100
,
0010
0000
1010
0000
0100
0010
0101
0100
,
0010
1000
1010
0000
0100
0001
0101
1000
,
0020
0000
0100
0000
0100
0000
0100
0030
,
2020
0000
0000
0000
0000
0000
0000
3030
,
1000
0100
0110
0100
0001
0100
0010
1000
,
0100
0010
0001
0100
0010
0100
0010
0100
,
0010
0010
0010
1000
0100
0000
0010
0100
,
0010
0000
0000
1000
0000
0000
0200
0000
0000
0000
0000
0000
0010
0000
0300
0000
,
0001
0100
0010
1000
0100
0010
1000
0000
,
0100
0010
0100
0010
0100
0010
1000
0000
,
0001
0100
0010
0100
1000
0100
0010
0001
,
1000
0100
0010
0001
0010
0100
0010
0100
0010
0001
0010
0100
1000
0100
0010
0100
,
0001
0100
0101
0000
0110
0000
0110
0000
,
1000
0010
1010
0100
0100
0001
0101
0100
,
0010
0100
0110
1000
0010
1000
0110
0100
,
0010
0001
0101
0100
0010
0100
1010
0100
,
0010
1000
0110
1000
0010
0100
0101
1000
,
0010
1000
1010
0100
0001
0100
1001
0100
,
0010
0100
0110
1000
0010
0100
1001
0100
,
1010
0000
0000
1010
0000
0000
1010
0000
1000
0010
0100
0010
0100
0001
0010
0100
,
1000
0010
0100
0010
1000
0100
0010
0001
,
0100
0000
0010
0000
0100
0000
0010
0000
0100
0000
0010
0000
0100
0000
0001
1000
,
1001
0100
0010
0100
0020
1030
0200
0320
,
0031
0000
0100
0000
0010
0000
0100
0000
0010
0000
0100
0000
0001
0000
0010
0001
,
0011
0000
0100
0000
0010
0000
0100
0000
0010
0000
1000
0000
0100
0000
0010
1000
,
1100
0100
0010
0100
0010
0100
0010
0100
,
0020
0000
0000
1000
0000
0000
1000
0030
,
2010
0000
0010
0000
0010
0000
0010
3000
,
1000
0100
0010
0100
0010
0100
1000
0010
0100
0001
0100
0010
1000
0100
1000
0010
,
0001
0000
0000
0010
0100
0000
0010
0000
0100
0000
0000
0100
0010
0000
0100
0000
,
0110
0000
0000
0100
0001
0000
0100
0000
0010
0000
0000
0010
1000
0000
0010
0000
,
1000
0000
0000
0100
1000
0000
1000
0000
0100
0000
0000
0010
0100
0000
0010
0000
,
1000
0000
0100
0000
0010
0000
0001
0100
0101
0000
0100
0000
0001
0000
0100
0000
,
0110
1000
0100
0010
0100
0001
0100
0110
,
0000
0000
0100
0000
0010
0100
0010
0100
,
1010
0100
0010
0100
0010
0100
0010
0100
,
1000
0000
0100
0000
0010
0000
0001
0000
0010
0100
0010
0100
1000
0001
0100
1000
,
0010
0000
0000
0100
0010
0000
0100
0000
0010
0000
0000
1000
0100
0000
0010
0000
,
0001
0000
0000
0110
0000
0000
1010
0000
0000
0000
1000
0000
0100
0000
0010
0000
,
0002
1003
0200
0320
0032
0103
0010
0100
,
1001
0000
0000
1001
0000
0000
1001
0000
0000
0000
1000
0000
2002
0000
0000
0003
,
3100
0010
0100
0010
0100
0010
1000
1001
,
0100
0000
0000
0000
0110
0000
0000
0000
0110
0000
1000
0100
0010
0001
0010
0100
,
0101
0000
0000
0010
0000
0100
0010
0000
0000
0010
0000
0100
0010
0000
0010
0000
,
0110
0000
0000
0010
0100
0000
0000
0100
0000
0000
0100
0010
0000
0000
0100
0000
,
0110
0010
0001
0100
1000
0100
0010
0100
,
0001
0100
0010
0100
1000
0100
0001
0010
,
2002
0000
0000
0000
0000
0000
0000
3003
,
0100
0000
0010
0000
1000
0100
0010
0001
,
1000
0000
0010
0000
0100
0001
0010
0100
,
1000
0000
0100
0000
0010
1000
0010
0100
,
1010
0000
0110
0000
1000
0100
0010
0001
,
0100
0000
0000
0001
0000
0000
0100
0000
0000
0000
0010
0000
1000
0000
0010
0000
,
0100
0010
1000
0100
0010
0001
0100
0010
,
1000
0100
0010
0001
0010
0100
1000
0001
,
1001
0000
0110
0000
1000
0100
1010
0100
,
0001
0100
0110
1000
0010
0100
0011
0100
,
0010
1000
0100
0010
0001
0100
0010
0100
,
2002
0000
0000
3003
,
0110
1000
0010
0000
0010
0010
0010
0000
,
1000
1000
1000
0000
0010
0010
0010
0000
,
1001
0001
0001
0000
0110
0100
0100
0000
,
1010
0000
0000
0000
0010
0000
0000
0000
0010
0000
0000
0000
0000
0000
1001
0000
0000
0000
1001
0000
0000
0000
0001
1000
0001
0000
0000
0001
0000
1000
0000
0000
,
0110
0000
0100
0000
0010
0100
0110
1000
,
0010
0100
0101
0000
1000
0010
1010
0000
,
0100
0010
0101
1000
0010
0100
0110
0000
,
1000
0010
1010
0100
0010
0100
0101
0000
,
0110
0000
1010
0000
0100
0010
0110
0100
,
0001
1000
1001
0100
0010
0100
0110
0000
,
1000
0010
1010
0100
0010
0100
0101
1000
,
1010
0000
0000
1010
0000
0000
1000
0010
1000
0010
0100
1000
0010
0100
0001
0010
,
0100
0010
0100
0010
0100
1000
0100
0010
,
0001
0000
0000
0100
0000
0000
0010
0000
0000
0000
1000
0000
0100
0000
0010
0000
,
1010
0000
0100
0000
0010
0000
0100
0000
0001
0000
0000
1000
0000
0000
0010
0000
,
0100
1000
0100
0010
0001
0100
0010
1000
,
1010
0100
0010
0100
0010
0000
0110
0100
,
0101
1000
0100
0010
0001
0100
0010
0100
,
2002
0000
3003
0202
0000
0303
2002
3003
,
0110
1000
0100
0010
0001
0100
0010
0100
,
1000
0100
0010
0001
1000
0100
0010
0001
0010
0100
1000
0001
0010
0100
1000
0001
,
1001
0000
0000
1000
0001
0000
0100
0000
0010
0000
0000
0100
0010
0000
0100
0000
,
0010
0000
0000
0100
0010
0000
0100
0000
0010
0000
0100
0000
0110
0000
1000
0000
,
1001
0000
0000
0100
0010
0000
0100
0000
0101
0000
0100
0000
0010
0000
0100
0000
,
0110
0000
1000
0000
0010
0000
0100
0001
1001
0000
0100
0000
0001
0000
0100
0000
,
0101
1000
0010
0100
0010
0100
0001
1001
,
0000
0000
0100
0010
0100
0010
0100
0010
,
1010
0100
0010
0100
0010
0001
0100
0010
,
1000
0100
1000
0100
0010
0100
0010
0001
0010
0001
0010
0100
0010
0100
1000
0000
,
1001
0000
0000
0100
0010
0000
0100
0000
0110
0000
0000
1000
0100
0000
0010
0000
,
1001
0000
0000
0100
0010
0000
0100
0000
0010
0000
0000
1000
0100
0000
0010
0000
,
1001
0000
0000
0100
0010
0000
0100
0000
0010
0000
0000
0100
0001
0000
0100
0000
,
1100
0000
0000
0110
0000
0000
0011
0000
0000
0000
0100
0000
0020
0000
0000
0000
,
0130
0000
0100
0010
0100
0010
1000
1010
,
0100
0000
0010
0000
0100
0000
0001
0000
0100
0000
1000
0100
0010
0001
0100
0010
,
0001
0000
0000
0100
0010
0000
1000
0000
0100
0000
0000
0001
0010
0000
0100
0000
,
1001
0000
0000
0100
0010
0000
0100
0000
0010
0000
0000
0010
0100
0000
0100
0000
,
1100
0100
0010
0100
0010
0100
0010
0100
,
1000
0000
0100
0000
0010
0000
0001
0000
0010
0000
0100
0000
1000
0100
0010
0001
,
1001
0100
0010
0010
1000
0010
0010
0010
,
1000
0010
0010
0010
1000
0001
0001
0001
,
1002
0100
0100
0013
1010
0100
0010
0100
,
1001
0000
0000
0000
0100
0000
0000
0000
0010
0000
0000
0000
0100
0000
0000
0000
1010
0000
0000
1010
0000
0000
1010
0000
0000
1010
0000
0000
1010
0000
0000
0000
,
1010
0000
0100
0010
0100
0010
0100
1000
,
0100
0010
1001
0100
0010
0100
1010
0000
,
0101
0000
1010
0000
0100
0010
0110
1000
,
0100
0010
1001
0100
0010
0100
1001
0000
,
0101
0000
1010
0000
0100
0010
0110
1000
,
0100
0010
1001
0100
0010
0100
1010
0000
,
1001
0000
0101
0000
1000
0010
1010
0100
,
0010
0000
0001
0000
0100
0000
0010
0000
0100
0000
0010
0000
0100
0000
0010
1000
,
0100
0000
0000
1000
0100
0000
0000
1000
0100
0000
0000
1000
0100
0000
0000
0000
0010
0000
0000
0000
0100
0000
0000
0000
0001
0000
0000
0000
0100
0000
0000
0000
,
0010
0000
0010
0000
1000
0100
0010
0001
,
0100
0010
0100
0001
0100
0010
0100
0001
,
1001
0100
0010
0100
0010
0100
0010
1000
,
0100
0010
0001
0200
0000
0302
0000
0003
,
0100
0010
0010
0000
1010
0000
0110
0100
,
0010
0100
0010
1001
0100
0010
0100
0010
,
1000
0100
0010
0001
0100
0000
0110
0001
,
1000
0100
0010
0001
0000
1001
0000
0000
,
0110
1000
0010
0100
1001
0000
0110
1000
,
0010
0100
0010
1000
0100
0010
0001
0100
,
0001
0000
1001
0000
1000
0010
0100
1001
,
0000
0000
0100
0000
0010
0100
0010
0100
,
2000
0000
0010
0000
0010
0000
0010
3000
0102
0000
0100
0000
0100
0000
0103
0000
,
1010
0000
0110
0000
0010
0001
0100
0002
,
0000
0000
1000
0000
0100
0000
1000
0003
,
1010
2020
0000
0000
,
0000
0000
0000
3030
,
2002
3003
0220
0330
,
1001
0000
0000
0101
0000
0000
1010
0000
0100
0000
0000
0000
0101
0000
0000
0000
,
2002
3003
0220
0330
,
0110
1001
0110
1001
,
1100
0100
0010
0100
0010
0100
0001
1001
,
0100
0010
0000
0100
0010
0001
0100
0010
,
0110
0100
0010
0100
0001
0100
0010
0100
,
0001
0010
0100
1000
0001
0010
0100
1000
0100
0010
0001
1000
0100
0010
0001
1000
,
1001
0000
0000
0100
0010
0000
0100
0000
0010
0000
0000
0100
0010
0000
0100
0000
,
0001
0000
0000
0010
0100
0000
1000
0000
0100
0000
0000
0010
0001
0000
0100
0000
,
1001
0000
0000
0100
0010
0000
0100
0000
0010
0000
0000
0100
0010
0000
0001
0000
,
1100
0000
0000
1100
0000
0000
1100
0000
0000
0000
1000
0000
2002
0000
3000
0000
,
0103
0000
0100
0001
0100
0001
0100
1001
,
0100
0000
0010
0000
0100
0000
0001
0000
0100
0010
0100
0010
0100
0010
0001
0000
,
1001
0100
0010
0100
0010
0100
0001
0100
,
0101
1000
0100
0010
0001
0100
0010
0100
,
1001
0000
0110
0000
1010
0100
0010
0100
,
0001
1000
0100
0010
0100
0001
0100
0001
,
2002
0000
0000
3003
,
0101
0000
1010
0000
0110
0000
0110
1000
,
0110
1000
0110
0100
0101
0100
0110
1000
,
0010
0000
0100
0000
0010
0000
0100
0000
0010
0100
0010
0100
0010
0100
0010
0100
,
0001
0000
0110
0000
1000
0100
0010
0001
,
0100
0010
0100
0001
0100
0010
0010
0010
,
1000
0100
0010
0001
0010
0100
0010
0100
,
0001
0010
0100
1000
0100
0010
0001
0010
0100
1000
0100
0010
0001
0010
0100
1000
,
0001
0000
1010
0000
0100
0010
0110
1000
,
0001
1000
1001
0100
0010
0100
1001
0100
,
0010
0100
0110
1000
0100
0010
0100
0002
,
0000
1000
0000
1000
0003
1001
1001
1001
;
