#TITLE:STEEL NEEDLE;
#SUBTITLE:[FULL SONG];
#ARTIST:Scorpion;
#TITLETRANSLIT:;
#SUBTITLETRANSLIT:;
#ARTISTTRANSLIT:;
#CREDIT:;
#BANNER:[Full Song] STEEL NEEDLE.png;
#BACKGROUND:[Full Song] STEEL NEEDLE-bg.png;
#LYRICSPATH:;
#CDTITLE:;
#MUSIC:[Full Song] STEEL NEEDLE.mp3;
#MENUCOLOR:1,0,0,1;
#METERTYPE:DDR X;
#OFFSET:0.000;
#SAMPLESTART:99.990;
#SAMPLELENGTH:12.000;
#SELECTABLE:YES;
#BPMS:0.000=205.001,28.000=410.002,36.000=205.001,98.000=410.002,102.000=205.001,160.000=410.002,164.000=205.001,194.000=410.002,198.000=205.001,237.000=410.002,238.000=205.001,245.000=410.002,247.000=205.001,255.000=410.002,257.000=205.001,261.000=410.002,265.000=205.001,272.000=410.002,273.000=205.001,279.000=410.002,281.000=205.001,296.000=410.002,298.000=205.001,307.000=410.002,310.000=205.001,326.000=102.501,327.000=410.002,331.000=205.001,341.000=410.002,343.000=205.001,359.000=102.501,362.000=410.002,366.000=205.001,370.000=102.501,370.500=205.001,393.500=102.501,399.500=205.001,409.500=410.002,411.500=205.001,435.500=102.501,436.000=205.001,498.000=102.501,499.000=205.001,506.000=102.501,506.500=205.001,514.500=102.501,515.500=205.001,528.500=102.501,529.000=205.001,535.000=102.501,536.000=205.001;
#STOPS:104.500=0.293
,108.000=0.146
,115.500=0.146
,121.000=0.146
,122.500=0.146
,130.000=0.146
,145.500=0.146
,237.000=0.073
,237.500=0.073
,255.000=0.073
,255.500=0.073
,256.000=0.073
,256.500=0.073
,272.000=0.073
,272.500=0.073
,279.000=0.073
,279.500=0.073
,280.000=0.073
,280.500=0.073
,307.000=0.073
,307.500=0.073
,308.000=0.073
,308.500=0.073
,309.000=0.073
,309.500=0.073
,341.000=0.073
,341.500=0.073
,342.000=0.073
,342.500=0.073
,409.500=0.073
,410.000=0.073
,410.500=0.073
,411.000=0.073
,459.000=0.878
;
#BGCHANGES:;

//---------------dance-single - ----------------
#NOTES:
     dance-single:
     :
     Challenge:
     19:
     1.000,1.000,1.000,0.254,0.356: // measure 1
0000
0000
0000
0000
,  // measure 2
0000
0000
0000
0000
,  // measure 3
0000
0000
0000
0000
,  // measure 4
0000
0000
0000
0000
,  // measure 5
0000
0000
0000
0000
,  // measure 6
0000
0000
0000
0000
,  // measure 7
0000
0000
0000
0000
,  // measure 8
2002
0000
0000
0000
,  // measure 9
0000
0000
3003
0000
,  // measure 10
1001
0000
0101
0110
0000
0000
0110
0000
,  // measure 11
0011
0000
0110
0101
0000
0110
0110
0000
,  // measure 12
1100
0110
0011
0000
0000
0000
1001
0000
,  // measure 13
0110
0000
0000
0000
0110
0000
0110
0000
0000
0000
0010
0000
1000
0001
1000
0001
,  // measure 14
1000
0000
0110
0110
0000
0000
0011
0000
,  // measure 15
0101
0000
1001
0110
0000
0110
0110
0000
,  // measure 16
0110
0110
0110
0000
1100
0011
0110
0000
,  // measure 17
0011
0000
0000
0000
0110
0000
1010
0000
0000
0000
1100
0000
1000
0001
1000
0001
,  // measure 18
1000
0000
0100
0110
0000
0000
0101
0000
,  // measure 19
0110
0000
0101
0011
0000
0110
0110
0000
,  // measure 20
1100
0110
0011
0110
0000
0000
0110
0000
,  // measure 21
0110
0000
0000
0000
0110
0000
0011
0000
0000
0000
0100
0000
0010
0100
0010
0100
,  // measure 22
1000
0000
0110
0110
0000
0000
0101
0000
,  // measure 23
1010
0000
1100
0110
0000
0110
0011
0000
,  // measure 24
0110
0110
0110
0000
1001
1001
0000
1001
,  // measure 25
0110
0110
0001
1000
0020
0000
0000
0000
,  // measure 26
0230
0000
0000
0000
0000
0000
0000
0000
1300
0100
1000
0100
1000
0100
0010
0001
,  // measure 27
0010
0100
0020
0000
0230
0000
0000
0000
0320
0000
0000
0000
1030
0001
1000
0001
,  // measure 28
2000
0000
3100
0010
0100
0010
0100
0010
0100
0000
0000
0000
1100
0000
0110
0000
,  // measure 29
0110
0011
0000
0120
0000
0031
0101
0200
,  // measure 30
0310
0000
1100
0010
0100
0010
0100
0000
0000
0000
0100
0000
0010
0000
0001
0000
,  // measure 31
0100
0010
0100
0010
0100
0000
1000
0001
1000
0001
1000
0000
0100
0010
0100
0010
,  // measure 32
0100
1000
0010
0100
0100
0100
0110
0000
,  // measure 33
1001
0000
0000
0000
1100
0000
0110
0000
0011
0000
0110
0001
0010
0000
1100
0000
,  // measure 34
0110
0000
0110
0000
0110
1001
0101
0011
,  // measure 35
0000
0000
1001
0000
1001
0000
0000
0000
0110
0000
0100
0010
0100
0001
0100
0000
,  // measure 36
1001
0000
0000
0000
1100
0000
1000
0100
0001
0100
0001
0000
1100
0000
0110
0000
,  // measure 37
0000
0011
0011
2000
3010
0110
0110
0110
,  // measure 38
0000
1100
0000
0110
0011
0000
0110
0010
,  // measure 39
0011
0000
0101
0000
1001
0000
0000
0000
1000
0100
1000
0100
0010
0000
0001
0000
,  // measure 40
0010
0000
0100
0010
0100
0010
0100
0000
0110
0000
0000
0000
1000
0000
1000
0000
,  // measure 41
2000
0000
3200
0300
,  // measure 42
0110
0000
0010
1010
0000
0010
1010
0000
,  // measure 43
1000
0100
1000
0100
1000
0000
1001
0000
0000
0010
0100
0000
0110
0000
0110
0000
,  // measure 44
0110
0000
1000
0110
0010
0010
0010
0100
,  // measure 45
0010
0000
0100
0010
0100
0010
0100
0000
0010
0000
0010
0100
0010
0100
0010
0000
,  // measure 46
1010
0000
0010
0110
0000
0100
0110
0000
,  // measure 47
1100
0000
0100
0000
0011
0000
0001
0000
0100
0010
0100
0010
0100
0000
0110
0000
,  // measure 48
1001
0000
0010
0110
0001
0110
0010
0000
,  // measure 49
1000
0100
0010
0001
0100
0001
0100
0001
,  // measure 50
0100
0001
0100
0000
0101
0000
1000
1001
,  // measure 51
0000
0000
0000
0000
0110
0000
0000
0000
1000
0100
1000
0100
0010
0100
0010
0000
,  // measure 52
0000
0110
0010
0110
0110
0000
0010
1000
,  // measure 53
0100
1000
0010
0100
0010
0000
0010
0000
0100
0000
0010
0000
0100
0000
0010
0000
,  // measure 54
1000
0000
0100
0000
0010
0001
0010
0001
0100
0000
0000
0000
0000
0000
0110
0000
,  // measure 55
1000
0000
0010
0000
0110
0000
0000
0000
1000
0100
0010
0001
0010
0100
1000
0000
,  // measure 56
0100
0000
0010
0100
0010
0100
0010
0000
0100
0000
0000
0000
1000
0000
0100
0000
,  // measure 57
0001
0010
0001
0010
0100
0000
0100
0000
1000
0100
1000
0100
1000
0100
1000
0100
,  // measure 58
0010
0100
0010
0100
0010
0100
0010
0000
1001
0000
0000
0000
1000
0000
1100
0000
,  // measure 59
0000
0000
0010
0000
0011
0000
0000
0000
0100
0010
0100
0010
0100
0010
0001
0000
,  // measure 60
1000
0010
0200
0310
0110
0000
1100
0100
,  // measure 61
0011
0001
0110
0000
0110
0000
0011
0000
,  // measure 62
0101
0001
0102
0000
0000
0000
0013
0000
,  // measure 63
1100
0000
0101
0000
0000
0000
0101
0000
1100
0000
0000
0000
0100
0010
0001
0010
,  // measure 64
0100
0010
0000
0100
0200
0000
2300
3200
,  // measure 65
0320
0032
0103
0000
0110
0000
1100
1100
,  // measure 66
0011
0011
1002
0000
0000
0000
0000
0000
,  // measure 67
0000
0000
1003
0000
0100
0110
0000
0010
,  // measure 68
0110
0000
0000
0000
1000
0100
1000
0100
1000
0000
0001
0000
0100
0000
0010
0000
,  // measure 69
1000
0001
0110
0000
1000
1001
0000
0001
,  // measure 70
1001
0000
1100
0100
0110
0011
0100
0100
,  // measure 71
0010
0010
1001
0000
0010
0110
0000
0100
,  // measure 72
0110
0000
0000
0000
1000
0100
0010
0001
0010
0001
0010
0000
0000
0000
0100
0000
,  // measure 73
0010
0100
0110
0000
1100
0100
0010
0011
,  // measure 74
0100
0010
0100
0010
1000
0010
0100
0020
,  // measure 75
0000
0000
0000
0000
1030
0000
0110
0110
,  // measure 76
0110
0000
0110
0000
0110
0000
0000
0000
1000
0100
0010
0100
1000
0100
0010
0000
,  // measure 77
0010
0100
0010
1000
0002
0000
0023
0230
,  // measure 78
0320
0000
2030
0000
3002
0000
2003
0000
3001
0000
0100
0010
0100
0010
0100
0000
,  // measure 79
0010
0000
1000
0000
0010
0100
1000
0100
1000
0000
0000
0000
0100
0000
0010
0000
,  // measure 80
1000
0000
0001
0000
1100
0000
0000
0000
0010
0100
0010
0100
0010
0000
1000
0000
,  // measure 81
0000
0011
0100
0011
0110
0110
1000
0100
,  // measure 82
0010
0001
0100
0001
0200
0010
0020
0000
,  // measure 83
0300
2030
3000
0110
,  // measure 84
1000
0000
0011
0000
0100
0000
0010
0000
1100
0000
0000
0000
0010
0100
0001
0010
,  // measure 85
1000
0100
0010
0000
0100
0000
0010
0000
0001
0000
0100
0000
0120
0000
0000
0000
,  // measure 86
1030
0000
2000
0000
3001
0000
0001
0000
0001
0000
0001
0000
0010
0000
0100
0010
,  // measure 87
0100
0010
0100
0010
0100
0000
0010
0000
0001
0010
0001
0010
0100
0000
0000
0000
,  // measure 88
1100
0000
0010
0000
0100
0000
0010
0000
1100
0000
0000
0000
0010
0100
0010
0100
,  // measure 89
0001
0000
1000
0000
0000
0000
0010
0100
0000
0000
0110
0000
1000
0000
0000
0000
,  // measure 90
1000
0100
0010
0001
0100
0010
2000
0010
,  // measure 91
0010
0010
0010
0010
0020
0000
0000
0000
,  // measure 92
0000
0000
3030
0000
0110
0000
0110
0010
,  // measure 93
1000
0100
0110
0000
2000
3001
0000
0101
,  // measure 94
0010
0000
0100
0000
0010
0000
1010
0000
0000
0000
0010
1000
0100
0000
0001
1000
,  // measure 95
0001
0000
1001
0000
0000
0000
1001
0000
0000
0000
0100
0010
0100
0000
0010
0000
,  // measure 96
0100
0000
0010
0001
0100
0000
0010
0000
0000
0000
1100
0000
0100
0000
0010
0000
,  // measure 97
0001
0000
1100
0000
0000
0000
0010
0100
0010
0100
0010
0100
1000
0000
0000
0000
,  // measure 98
0011
0100
0010
1100
0000
1001
0100
0010
,  // measure 99
0100
0001
0100
1002
0000
0000
0000
0000
,  // measure 100
0000
0000
0000
0000
0000
0000
0000
0000
0000
0000
0000
0000
1000
1000
1003
0000
,  // measure 101
0000
0000
0100
0000
0110
0000
0000
0000
0010
0000
0110
0000
0000
0000
1000
0001
,  // measure 102
1000
0001
1000
0000
0010
0000
0010
0000
0100
0000
0010
0000
0100
0000
0120
0000
,  // measure 103
0000
1030
0100
0010
0010
0100
0100
0010
,  // measure 104
1000
0000
0100
0000
0010
0000
0100
0000
0010
0000
0100
0010
0100
0010
0001
0000
,  // measure 105
0000
0000
0101
0000
1000
0000
0100
0000
0010
0000
0101
0000
0000
0000
0010
0100
,  // measure 106
0010
0100
0010
0100
1000
0000
0000
0000
2100
0000
3020
0000
0130
0000
0101
0000
,  // measure 107
0000
1000
0100
0010
0001
0100
0010
0200
,  // measure 108
0000
0000
0310
0100
0010
0100
0010
0100
0010
0100
0010
0100
0010
0000
0110
0000
,  // measure 109
0000
1100
0100
0010
0011
0100
0000
0020
,  // measure 110
0130
0000
1100
0001
0100
0010
0101
0000
,  // measure 111
1000
0010
0010
0010
1010
1000
0010
0100
,  // measure 112
0010
0000
1000
0000
0100
0000
0010
0000
0001
0010
0100
0010
0001
0000
0000
0000
,  // measure 113
0100
0000
1000
0000
0100
0000
0010
0000
0001
0000
0000
0000
0001
1000
0001
1000
,  // measure 114
0001
1000
0001
0000
0000
0000
0100
0000
0010
0000
0100
0000
0110
0000
0000
0000
,  // measure 115
1000
0100
0010
0001
0100
0001
0200
0000
,  // measure 116
0310
0000
1001
0100
0010
0001
0110
0000
,  // measure 117
1000
0010
1000
0100
0010
0000
0010
0000
0100
0000
1000
0000
0100
0000
0010
0000
,  // measure 118
0011
0000
0100
0010
0100
0100
0010
0010
,  // measure 119
1001
0000
0000
0000
0100
0000
0001
0000
0001
0000
1000
0000
1000
0100
0010
0100
,  // measure 120
0010
0000
0100
0100
0010
1000
0011
0000
,  // measure 121
1000
0010
1000
0010
1000
0010
1000
0000
0000
0000
1100
0000
0100
0000
0010
0000
,  // measure 122
0011
0000
1000
0100
0010
0001
0100
0010
,  // measure 123
1000
0100
0010
0001
0010
0100
1000
0000
0100
0000
0020
0000
0000
0000
0030
0000
,  // measure 124
1100
0000
0010
0100
0010
0100
0010
0000
,  // measure 125
1000
0010
1000
0010
1000
0000
0010
0000
0100
0100
0100
0100
0200
0000
0000
0000
,  // measure 126
1300
0100
0010
0001
0110
0000
0011
0000
,  // measure 127
0100
0001
1000
0010
0020
1030
0000
0100
,  // measure 128
0010
0000
0001
0000
0100
0000
1000
0000
0000
0000
0100
0010
0001
0010
0100
0000
,  // measure 129
0100
0000
1000
0000
0100
0000
0010
0000
0001
0000
0100
0100
0100
0100
0200
0000
,  // measure 130
0000
0310
0000
1000
0100
0010
0001
0200
,  // measure 131
0000
0010
0300
0110
0000
1000
0100
0010
,  // measure 132
0001
0000
0110
0000
0000
0000
0010
0001
0010
0100
1000
0100
1000
0000
0001
0000
,  // measure 133
0100
0000
0010
0010
1000
0000
0000
0000
0100
0000
0010
0000
0001
0000
0100
0000
,  // measure 134
0010
0000
1000
0000
0100
0000
0010
0000
0001
0000
0010
0000
1100
1100
0011
0011
,  // measure 135
1100
0000
0010
0100
0010
0100
0110
0000
,  // measure 136
1000
0100
1000
0100
1000
0000
0110
0000
0000
0000
0010
0000
0100
0000
0001
0000
,  // measure 137
0100
1000
0100
0010
0001
0100
0010
0100
,  // measure 138
1000
0100
0010
0001
0100
1010
0100
0001
0010
0100
1000
0100
0010
0001
0100
0000
,  // measure 139
2002
0000
0000
0000
,  // measure 140
0000
0000
0000
0000
,  // measure 141
0000
0000
0000
0000
,  // measure 142
0000
0000
3003
0000
,  // measure 143
0220
0000
0000
0000
,  // measure 144
0000
0000
0000
0000
,  // measure 145
0330
0000
0000
0000
,  // measure 146
2002
0000
0000
3003
,  // measure 147
0110
1000
0100
0010
0001
0100
0010
0010
,  // measure 148
1000
1000
0100
0010
0001
0100
0010
0001
,  // measure 149
0100
1000
0100
0001
0010
0001
0100
1000
,  // measure 150
0100
0010
0001
0100
1000
0100
0010
0001
,  // measure 151
0100
0010
0100
0010
1000
0100
0001
0010
,  // measure 152
0100
1000
0100
0010
0001
0100
0010
1000
,  // measure 153
0100
0010
1000
0100
0001
0100
0010
1000
,  // measure 154
0100
0000
0100
0000
0100
0100
0100
0100
,  // measure 155
0110
0000
1000
0110
0000
1000
0110
0000
,  // measure 156
0001
0100
1000
0100
0001
0000
0100
0000
0010
0000
1000
0000
0100
0000
0010
0000
,  // measure 157
0001
0000
0100
0110
0000
0100
0110
0000
,  // measure 158
1000
0010
0100
1000
0010
0000
0001
0000
0100
0000
0010
0000
0100
0000
0010
0000
,  // measure 159
1010
0000
0110
0100
0101
0100
0110
0000
,  // measure 160
1000
0010
0100
0001
0010
0000
0001
0000
0000
0000
0100
0000
1000
0000
0100
0000
,  // measure 161
0010
0100
0010
0100
0010
1000
0100
0010
,  // measure 162
0100
0000
0001
0000
1000
0000
0100
0000
0010
0100
0010
0100
0010
0100
0010
0100
,  // measure 163
0010
1010
0110
0101
,  // measure 164
0011
0000
0110
0000
0110
0000
1001
1001
,  // measure 165
1001
0101
1010
0110
,  // measure 166
1100
0000
0010
0000
0100
0001
0110
0011
,  // measure 167
0100
0010
0100
0010
,  // measure 168
1001
0110
1010
0000
0001
0000
0100
0010
,  // measure 169
0110
1000
0110
0011
,  // measure 170
0100
0010
1000
0010
0100
0010
2000
0000
,  // measure 171
3010
0110
0101
0110
,  // measure 172
1100
0000
0110
0000
0011
0000
1100
0010
,  // measure 173
0110
0011
0110
1100
,  // measure 174
0110
0000
0011
0000
0110
0000
1000
0010
,  // measure 175
0110
0101
0110
1100
,  // measure 176
0110
0011
0110
1100
,  // measure 177
0011
0110
0110
1010
,  // measure 178
0110
0100
0001
0100
0010
0100
0010
0100
,  // measure 179
0110
0110
1010
0101
0010
0000
0010
0000
,  // measure 180
0110
1001
0110
1001
,  // measure 181
1010
0101
0110
0011
,  // measure 182
1100
0000
0101
0000
0101
0000
0110
0110
,  // measure 183
0110
1010
0110
0101
,  // measure 184
0110
0100
0110
0000
1000
0000
0110
0100
,  // measure 185
0101
0000
0110
0000
1010
1000
0010
0100
,  // measure 186
0010
1000
0100
0010
0001
0100
0010
0100
,  // measure 187
0110
1010
0110
0011
,  // measure 188
0110
0000
0110
0000
1100
0000
0110
0100
,  // measure 189
0110
0101
0110
1010
,  // measure 190
0110
1000
0001
0100
0010
0100
0010
0100
,  // measure 191
0110
1010
0110
0101
,  // measure 192
0110
0000
1010
0000
0110
0000
1100
0100
,  // measure 193
0110
0011
0100
0010
,  // measure 194
1000
0000
0010
0100
0010
0100
0010
2000
,  // measure 195
0010
0000
0000
0000
0020
0000
0000
3030
,  // measure 196
0110
0101
0110
1001
,  // measure 197
0100
0010
0110
0000
0110
0000
1010
1000
,  // measure 198
0110
0000
0101
0100
0110
0000
1010
0000
,  // measure 199
0110
0000
0101
0100
0110
0100
0101
0100
,  // measure 200
0110
0110
1001
0110
,  // measure 201
1001
0100
0110
0000
1001
0000
0110
0000
,  // measure 202
1001
1000
1010
1000
0101
0100
0110
0100
,  // measure 203
1000
0001
1000
0001
1000
0001
1000
0010
0100
0010
0100
0010
0100
0001
0100
0000
,  // measure 204
0202
0000
0000
0000
,  // measure 205
0000
0000
0000
0000
,  // measure 206
0000
0000
0000
0000
,  // measure 207
0303
0000
0000
0000
;
