#TITLE:My Soul, Your Beats! (TANUKI Remix);
#SUBTITLE:[FULL SONG][Remix] Angel Beats! OP;
#ARTIST:Remixed by TANUKI feat. LIA;
#TITLETRANSLIT:;
#SUBTITLETRANSLIT:;
#ARTISTTRANSLIT:;
#CREDIT:;
#BANNER:[Full Song] My Soul, Your Beats! (TANUKI Remix).png;
#BACKGROUND:[Full Song] My Soul, Your Beats! (TANUKI Remix)-bg.png;
#LYRICSPATH:;
#CDTITLE:;
#MUSIC:[Full Song] My Soul, Your Beats! (TANUKI Remix).mp3;
#MENUCOLOR:0,0,1,1;
#METERTYPE:DDR X;
#OFFSET:0.000;
#SAMPLESTART:100.030;
#SAMPLELENGTH:12.000;
#SELECTABLE:YES;
#BPMS:0.000=175.000,507.000=350.000,508.000=175.000;
#DISPLAYBPM:175;
#STOPS:427.500=1.371
,507.000=0.171
,964.000=2.400
;
#BGCHANGES:;

//---------------dance-single - ----------------
#NOTES:
     dance-single:
     :
     Challenge:
     13:
     0.522,0.639,0.205,0.237,0.072: // measure 1
0000
0000
0000
0000
,  // measure 2
0000
0000
0000
0000
,  // measure 3
0000
0000
0000
0000
,  // measure 4
0000
0000
0000
0000
,  // measure 5
0000
0000
0000
0000
,  // measure 6
0000
0000
0000
0000
,  // measure 7
0000
0000
0000
0000
,  // measure 8
0000
0000
0000
0000
,  // measure 9
1001
0100
0010
0100
,  // measure 10
0001
0100
0020
1030
,  // measure 11
0100
0010
0001
0100
,  // measure 12
1000
0010
0200
1300
,  // measure 13
0100
0010
0001
0100
,  // measure 14
0010
1000
0020
0031
,  // measure 15
0100
0010
0100
0001
,  // measure 16
1001
0000
0000
0000
,  // measure 17
0110
1000
0100
0010
,  // measure 18
0100
0001
1000
0001
,  // measure 19
0001
0100
0010
0100
,  // measure 20
0010
1000
0020
0130
,  // measure 21
0010
1000
0100
0001
,  // measure 22
1000
0100
0020
1030
,  // measure 23
0100
0010
0001
0100
,  // measure 24
0010
1000
0100
1000
,  // measure 25
0001
0100
0010
0001
,  // measure 26
0100
0010
0100
0001
,  // measure 27
0100
1000
0100
0010
,  // measure 28
1000
0100
0001
0010
,  // measure 29
1000
0000
0001
1000
0000
0000
0010
0100
0000
0000
0001
1000
0000
0000
0010
0100
,  // measure 30
0000
0000
0001
1000
0000
0000
0010
0100
0000
0000
0001
1000
0000
0000
0010
0100
,  // measure 31
0000
0100
0010
0001
0010
0100
1000
0001
,  // measure 32
1001
0000
0000
0000
,  // measure 33
1010
0000
0110
0000
0100
0001
0100
0000
,  // measure 34
0100
0010
0100
0010
0100
0000
1000
0000
,  // measure 35
1000
0100
0010
0000
0001
0100
0010
0000
,  // measure 36
1000
0100
0010
0000
0001
1000
1010
0000
,  // measure 37
0100
0110
0100
0101
,  // measure 38
1000
1010
0100
0110
,  // measure 39
0001
0011
0100
0110
,  // measure 40
1000
1100
0010
0110
,  // measure 41
1000
0100
0010
0001
0000
0100
0010
0000
,  // measure 42
0001
0010
0100
1000
0000
0100
0100
0000
,  // measure 43
0010
1000
0100
0000
0001
0100
0000
0010
,  // measure 44
1000
0100
0010
0000
1000
0100
0010
0000
,  // measure 45
1000
0110
0001
0110
,  // measure 46
1001
0000
1000
0010
,  // measure 47
0100
0010
1000
0100
,  // measure 48
0101
0000
0000
0010
,  // measure 49
1000
0100
1000
0100
1000
0100
1000
0100
,  // measure 50
0001
0010
0001
0010
0001
0010
0001
0010
,  // measure 51
1000
0100
0010
0100
0001
0100
0010
0000
,  // measure 52
0010
0100
0010
0000
1000
0100
0010
0000
,  // measure 53
1001
0000
0000
0100
0000
0000
0010
2000
,  // measure 54
0000
0000
3010
0200
0000
0000
0000
0000
,  // measure 55
0310
0000
1000
0020
0000
0000
1030
0002
,  // measure 56
0000
0000
0103
0020
0000
0000
1030
0002
,  // measure 57
0000
0000
0000
0000
,  // measure 58
0010
0000
0010
0000
,  // measure 59
0103
1000
0000
0000
0000
0010
0100
0010
,  // measure 60
0100
1000
0100
0010
,  // measure 61
1100
0000
0100
0020
0000
0000
1030
0200
,  // measure 62
0000
0000
0301
0200
0000
0000
0000
0300
,  // measure 63
0010
1000
0100
0020
0000
0000
0130
0002
,  // measure 64
0000
0000
0103
0020
0000
0000
1030
0100
,  // measure 65
0020
1000
0100
0001
,  // measure 66
0100
1000
0100
0001
,  // measure 67
0100
0000
1000
0000
0100
0000
0001
0030
,  // measure 68
1000
0000
0000
0000
,  // measure 69
0110
0000
0000
0001
1000
0000
0100
0000
0010
0000
0000
1000
0001
0000
0100
0000
,  // measure 70
0010
0000
0000
0100
0010
0000
1000
0000
0010
0000
0000
0010
0100
0000
0001
0000
,  // measure 71
0100
0000
0000
0001
1000
0000
0100
0000
0010
0000
0000
1000
0001
0000
0100
0000
,  // measure 72
0010
0000
0000
0100
1000
0000
0100
0000
0001
0000
0000
0010
0001
0000
0100
0000
,  // measure 73
1000
0000
0000
0100
0010
0000
0100
0000
0001
0000
0000
0001
1000
0000
0100
0000
,  // measure 74
0010
0000
0000
1000
0010
0000
0100
0000
0010
0000
0000
0001
1000
0000
0100
0000
,  // measure 75
0001
0000
0000
1000
0100
0000
0010
0000
0100
0000
0000
0010
1000
0000
0100
0000
,  // measure 76
0010
0000
0000
1000
0010
0000
0100
0000
0001
0000
0000
0010
0100
0000
0010
0000
,  // measure 77
0100
0101
0100
0110
,  // measure 78
1000
1100
0010
0110
,  // measure 79
0010
0011
0001
0011
,  // measure 80
0010
0110
1000
1100
,  // measure 81
1000
1001
0001
1001
,  // measure 82
0100
0110
0001
0011
,  // measure 83
1000
1100
0010
0110
,  // measure 84
1001
0000
0000
0000
,  // measure 85
0110
0000
1000
0000
0100
0000
0010
0200
,  // measure 86
0000
0000
0310
2000
0000
0000
0010
3000
,  // measure 87
0001
0100
0010
0100
0000
1000
0100
0020
,  // measure 88
0000
0000
1030
0200
0000
0000
0301
2000
,  // measure 89
0000
0010
0001
0001
,  // measure 90
3020
0100
1000
1030
,  // measure 91
1000
0000
0100
0000
0010
0000
1000
0100
,  // measure 92
0010
0000
0001
0000
0100
0010
0100
0000
,  // measure 93
1000
0100
0010
0002
0000
0000
1003
0200
,  // measure 94
0000
0000
0310
2000
0000
0000
0010
0000
,  // measure 95
3001
0100
0010
1000
0000
1000
0100
0010
,  // measure 96
0000
1000
0100
0010
0000
1000
0100
0002
,  // measure 97
0000
0000
1000
0000
0100
0000
0100
1003
,  // measure 98
0010
0100
0020
0000
1030
0100
0001
0100
,  // measure 99
0020
0000
1030
0000
0100
0000
0010
1000
,  // measure 100
0010
0000
0100
1000
0100
0001
0100
0010
,  // measure 101
0100
0110
1000
1100
,  // measure 102
0001
0000
0011
0000
1000
0100
0001
0000
,  // measure 103
0010
0110
0001
1001
,  // measure 104
1000
0000
0100
0000
0010
0100
0010
0000
,  // measure 105
1000
0000
0001
1000
0000
0000
0010
0100
0000
0000
0100
0010
0000
0000
1000
0001
,  // measure 106
0000
0000
0100
0010
0000
0000
0100
1000
0000
0000
0100
0001
0000
0000
0000
0000
,  // measure 107
0110
0001
0010
0000
0100
1000
0002
0103
,  // measure 108
1100
0000
0100
0000
0010
0100
0010
0000
,  // measure 109
1000
0100
0001
0100
0000
0000
0000
0010
,  // measure 110
1000
0100
0010
0001
0000
0100
0010
0000
,  // measure 111
1000
0100
0010
0000
0001
0100
0010
0000
,  // measure 112
1000
1010
0100
0101
,  // measure 113
0010
0110
0010
0011
,  // measure 114
1000
1100
0001
0011
,  // measure 115
1000
1100
0010
0110
,  // measure 116
1000
0100
0010
0001
0000
0100
0010
0000
,  // measure 117
1000
0100
0001
0100
0000
0000
0000
0010
,  // measure 118
1000
0100
0010
0100
0001
1000
0100
0000
,  // measure 119
0010
1000
0010
0000
1000
0100
0001
0000
,  // measure 120
0100
0110
1000
0001
,  // measure 121
0010
1000
0100
0010
,  // measure 122
1000
0100
0001
0100
,  // measure 123
0010
0000
0000
0100
,  // measure 124
1000
1000
1000
1000
,  // measure 125
0010
0100
0010
0100
,  // measure 126
1000
0100
0010
0001
0100
0010
0100
0000
,  // measure 127
0100
1000
0010
0100
0010
0100
0001
0000
,  // measure 128
1001
0000
0100
0010
0000
0100
0010
0100
,  // measure 129
0010
0000
1000
0100
0000
0000
0001
0000
,  // measure 130
0100
0000
0010
1000
0000
0000
1000
0000
,  // measure 131
0100
0000
0000
0010
0100
0000
1000
0100
,  // measure 132
0010
0000
0100
0010
0000
0100
0001
0000
,  // measure 133
0100
0000
0010
1000
0000
1000
0100
0010
,  // measure 134
0001
0100
0000
0010
0100
0000
1000
0000
,  // measure 135
0100
0000
0001
0000
0100
1000
0100
0000
,  // measure 136
0010
0000
1000
0100
0000
0000
0001
0010
,  // measure 137
0000
0100
0100
0010
0000
0100
0010
0000
,  // measure 138
1000
0000
0010
0001
0000
0000
0010
0100
,  // measure 139
0010
0000
1000
0100
0000
0010
0100
0001
,  // measure 140
0100
0000
1000
0100
0000
0010
0100
0000
,  // measure 141
1000
0100
0010
0000
0001
0000
0100
0000
,  // measure 142
0010
0000
1000
0100
0000
0010
0001
0000
,  // measure 143
0100
0000
0010
0000
1000
0000
0100
0010
,  // measure 144
0001
0000
0100
0010
0000
0100
0010
0000
,  // measure 145
1000
0000
0100
0001
0000
0100
0010
0000
,  // measure 146
1000
0000
0100
0010
0000
0100
0010
0000
,  // measure 147
1000
0000
0100
0000
0010
1000
0010
0000
,  // measure 148
0100
0000
0010
0100
0000
0001
0100
0000
,  // measure 149
0010
0000
1000
0100
0000
0010
0001
0000
,  // measure 150
0100
0000
0000
0010
0000
0000
0000
0000
,  // measure 151
1000
0000
0000
0000
,  // measure 152
1001
0000
0000
0000
,  // measure 153
0100
0000
0000
0000
,  // measure 154
0020
0000
0000
0000
,  // measure 155
1030
0000
0000
0000
,  // measure 156
0200
0000
0000
0000
,  // measure 157
0310
0000
0000
0000
,  // measure 158
0001
0000
0000
0000
,  // measure 159
1000
0000
0000
0000
,  // measure 160
0200
0000
0000
0000
,  // measure 161
0310
0001
0000
0000
,  // measure 162
0002
0000
0000
0000
0000
0000
0000
0003
,  // measure 163
0100
1000
0000
0000
,  // measure 164
0100
1000
0100
1000
0100
1000
0100
1000
,  // measure 165
0100
0001
0010
0001
0010
0001
0010
0001
,  // measure 166
0010
1000
0001
1000
0001
1000
0001
1000
,  // measure 167
0001
0100
1000
0100
1000
0100
1000
0100
,  // measure 168
1000
0000
0100
0010
0000
0000
0100
0001
0000
0000
0010
1000
0000
0000
0100
0010
,  // measure 169
0000
0000
0001
0010
0000
0000
1000
0100
0000
0000
1000
0001
0000
0000
0010
0100
,  // measure 170
0000
0000
1000
0001
0000
0000
0010
0001
0000
0000
1000
0010
0000
0000
0100
0001
,  // measure 171
0000
0000
0000
0000
,  // measure 172
1001
0100
0010
0200
0000
0000
0310
2000
,  // measure 173
0000
0000
3001
0200
0000
0000
0010
0300
,  // measure 174
0001
1000
0010
0200
0000
0000
0310
2000
,  // measure 175
0000
0000
3001
0200
0000
0000
0310
2000
,  // measure 176
0010
0001
0001
0001
,  // measure 177
3020
0100
0001
0031
,  // measure 178
1000
0010
0000
0000
0000
0100
0001
0100
,  // measure 179
0020
0000
1000
0000
0130
0001
0100
0000
,  // measure 180
0010
0100
0010
2000
0000
0000
3010
0200
,  // measure 181
0000
0000
0301
0200
0000
0000
0010
0000
,  // measure 182
0310
1000
0100
0020
0000
1030
0100
0001
,  // measure 183
0000
0100
0000
0010
0100
0000
0010
0100
,  // measure 184
0010
0000
1000
0000
0100
0000
0010
1000
,  // measure 185
0100
0001
0200
0000
0000
0000
0310
2000
,  // measure 186
0000
0100
0010
0001
,  // measure 187
0001
0000
3100
0000
0000
1000
0100
0000
,  // measure 188
0001
0100
0010
0200
0000
0000
0310
0200
,  // measure 189
0000
0000
0310
0002
0000
0000
0100
0000
,  // measure 190
0013
1000
0100
0020
0000
0000
1030
0200
,  // measure 191
0000
0000
0301
0200
0000
0000
0310
2000
,  // measure 192
0000
0010
0010
0010
,  // measure 193
3002
0000
0100
0000
0100
0003
1000
0100
,  // measure 194
0010
0001
0000
0000
0000
0000
1000
0100
,  // measure 195
0110
0000
0001
0000
0100
0010
0100
0000
,  // measure 196
1000
0100
0001
0200
0000
0000
0310
2000
,  // measure 197
0000
0000
3010
0200
0000
0000
0010
0300
,  // measure 198
0001
1000
0100
0020
0000
0000
0130
0002
,  // measure 199
0000
0000
0103
0020
0000
0000
0031
0200
,  // measure 200
0000
0000
0010
0000
0010
0000
0310
1000
,  // measure 201
0100
0001
0200
0000
0000
0000
0310
2000
,  // measure 202
0000
0000
0010
0000
0010
0000
3010
0100
,  // measure 203
0001
0000
0100
0000
0010
1000
0100
0010
,  // measure 204
0001
1001
0100
0110
,  // measure 205
0001
0011
1000
1100
,  // measure 206
0010
0011
0001
0011
,  // measure 207
1000
1100
1000
0100
,  // measure 208
0010
0100
0010
0100
0010
1000
0100
0000
,  // measure 209
0100
0001
0100
0001
0100
0010
0100
0000
,  // measure 210
1000
0100
0010
0001
0100
0010
0100
0010
,  // measure 211
0100
0000
0000
0000
,  // measure 212
1001
0000
0100
0000
0010
0100
0010
0000
,  // measure 213
1000
0100
0010
0001
2000
0000
3010
0000
,  // measure 214
0100
0010
0100
0010
0100
0001
0100
0000
,  // measure 215
0010
1000
0100
0010
0200
0000
0301
0000
,  // measure 216
1000
0100
0010
0001
0100
0010
0100
0000
,  // measure 217
0010
0100
0001
0100
0020
0000
0031
0000
,  // measure 218
0100
0010
0100
0010
1000
0100
0001
0000
,  // measure 219
0100
1000
0100
0010
0200
0000
0310
0000
,  // measure 220
1000
0100
0010
0001
0100
0010
1000
0000
,  // measure 221
0010
1000
0100
0010
0002
0000
1003
0000
,  // measure 222
0010
0100
0010
1000
0100
0010
0001
0000
,  // measure 223
1000
0100
0010
0001
2000
0000
3010
0000
,  // measure 224
0100
1000
0100
0010
0100
0001
0100
0000
,  // measure 225
0010
0100
0010
1000
0020
0000
0130
1000
,  // measure 226
0010
0000
0100
1000
0100
0010
0100
0000
,  // measure 227
1010
0000
0000
0000
0000
1000
0001
0000
,  // measure 228
1010
0010
0010
0010
,  // measure 229
1000
0100
0020
0031
,  // measure 230
0001
0001
0200
0301
,  // measure 231
0010
0010
2000
3001
,  // measure 232
0100
0010
0010
0010
,  // measure 233
1000
1000
0002
1003
,  // measure 234
0100
0010
0010
0001
,  // measure 235
1001
0000
0000
0000
0000
0010
0100
0000
,  // measure 236
1000
0100
0010
0001
,  // measure 237
0010
0010
0020
0031
,  // measure 238
0001
0001
0001
0001
,  // measure 239
1000
1000
2000
3001
,  // measure 240
0000
0000
0010
1000
0000
0000
0100
0010
0000
0000
0001
0100
0000
0000
1000
0001
,  // measure 241
0000
0000
0010
0100
0000
0000
0100
1000
0000
0000
0010
0100
0000
0000
0001
0000
,  // measure 242
1001
2002
0000
0000
,  // measure 243
0000
0000
0000
0000
,  // measure 244
0000
0000
0000
0000
,  // measure 245
0000
0000
0000
0000
,  // measure 246
0000
3003
0000
0000
;
