#TITLE:M3;
#SUBTITLE:[FULL SONG];
#ARTIST:Ryu☆;
#TITLETRANSLIT:;
#SUBTITLETRANSLIT:;
#ARTISTTRANSLIT:;
#CREDIT:;
#BANNER:[Full Song] M3.png;
#BACKGROUND:[Full Song] M3-bg.png;
#LYRICSPATH:;
#CDTITLE:;
#MUSIC:[Full Song] M3.mp3;
#OFFSET:-3.295;
#SAMPLESTART:99.930;
#SAMPLELENGTH:12.000;
#SELECTABLE:YES;
#BPMS:0.000=145.000;
#STOPS:;
#BGCHANGES:;

//---------------dance-single - ----------------
#NOTES:
     dance-single:
     :
     Challenge:
     16:
     0.818,0.950,0.488,0.270,0.647: // measure 1
1000
0100
0010
0000
0100
0001
0010
0000
0100
0010
1000
0000
0100
1000
0100
0000
,  // measure 2
0010
0001
0010
0000
0100
0010
0100
0000
0100
0010
0100
0000
0100
0010
0100
0000
,  // measure 3
0100
0010
0100
0000
0100
0010
0100
0000
0001
0010
0100
0000
0001
1000
0001
0000
,  // measure 4
1000
0010
1000
0000
0100
0001
0100
0000
0010
0100
0010
0000
1000
0010
1000
0000
,  // measure 5
0001
0100
0001
0000
0100
0010
0100
0000
0010
0100
0010
0000
1000
0001
1000
0000
,  // measure 6
0100
0010
0100
0000
0010
1000
0010
0000
0001
0010
0001
0000
1000
0100
1000
0000
,  // measure 7
0010
0100
0010
0000
0100
0001
0100
0000
0001
0010
0001
0000
1000
0100
1000
0000
,  // measure 8
0100
0010
0100
0000
0010
1000
0010
0000
0001
0010
0001
0000
1000
0001
1000
0000
,  // measure 9
0010
0100
0010
0000
0100
0010
0100
0000
0001
1000
0001
0000
1000
0010
1000
0000
,  // measure 10
0001
0100
0001
0000
0100
0001
0100
0000
0010
0100
0010
0000
1000
0001
1000
0000
,  // measure 11
0001
0100
0001
0000
0100
0010
0100
0000
0010
1000
0010
0000
1000
0001
1000
0000
,  // measure 12
0001
1000
0001
0000
0100
0001
0100
0000
0010
0100
0010
0000
1000
0010
1000
0000
,  // measure 13
0001
0010
0001
0000
0100
0010
0100
0000
0010
1000
0010
0000
1000
0010
1000
0000
,  // measure 14
0001
0100
0001
0000
0100
0010
0100
0000
0010
0100
0010
0000
1000
0001
1000
0000
,  // measure 15
0010
0100
0010
0000
0100
0001
0100
0000
0001
0100
0001
0000
1000
0100
1000
0000
,  // measure 16
0010
0001
0010
0000
0100
0010
0100
0000
0001
0010
0100
0000
0010
0100
1000
0000
,  // measure 17
2002
0003
3020
0000
,  // measure 18
0230
0000
0302
0000
,  // measure 19
2003
0000
3020
0230
,  // measure 20
0302
0000
2003
0000
,  // measure 21
3200
0000
0320
0000
,  // measure 22
0230
0000
0302
0000
,  // measure 23
2003
0000
3020
0000
,  // measure 24
0230
0000
0000
0000
0001
0000
0001
0300
,  // measure 25
1001
0000
0000
0000
0100
0000
0000
0000
0110
0000
0000
0000
1000
0010
0000
0010
,  // measure 26
1000
0000
0000
0000
0100
0000
0000
0000
0010
0000
0100
0000
0010
1000
0010
1000
,  // measure 27
1010
0000
0000
0000
0100
0000
0000
0000
0010
0000
0000
0000
1000
0010
0000
0010
,  // measure 28
1000
0000
0000
0000
0100
0000
0000
0000
0010
0000
0010
0000
1000
0010
1000
0010
,  // measure 29
1010
0000
0100
0000
0010
0000
0100
0000
0001
0000
0100
0000
0010
0100
0010
0100
,  // measure 30
0110
0000
0100
0000
0010
0000
0100
0000
0001
0010
0001
0010
0100
0010
0100
0010
,  // measure 31
0100
0010
0000
0010
0100
0010
0100
0010
0100
0010
0000
1000
0010
1000
0010
1000
,  // measure 32
0010
0100
0010
0100
0110
0000
0100
0001
0101
0000
0100
0010
0110
0000
0100
0001
,  // measure 33
2002
0000
0000
3003
,  // measure 34
0100
0000
0100
0000
0010
0100
0000
0100
0000
0010
0000
1000
0010
0000
0100
0000
,  // measure 35
0110
0000
1010
0000
0010
0000
0100
0000
0020
0000
0000
0032
0000
0000
1003
0000
,  // measure 36
0010
0000
0100
0000
1000
0000
0100
0010
0000
0010
0000
0001
0100
0000
1000
0000
,  // measure 37
0002
0000
0000
0023
0000
0000
2030
0000
3200
0000
0000
0320
0000
0000
0130
0000
,  // measure 38
0002
0000
0000
0023
0000
0000
1030
0000
0000
0010
0100
0000
1000
0000
1000
0000
,  // measure 39
0001
0000
0100
0000
1000
0000
0100
0000
0002
0000
0000
2003
0000
0000
3010
0000
,  // measure 40
0020
0000
0000
0032
0000
0000
0103
0010
0000
0010
0000
0010
1000
0000
0010
0000
,  // measure 41
0200
0000
0000
0320
0000
0000
0230
0000
0320
0000
0000
2030
0000
0000
3100
0000
,  // measure 42
0100
0010
0001
0100
0010
0100
0010
1000
,  // measure 43
1010
0000
0100
0000
0010
0000
0001
0000
0200
0000
0000
0320
0000
0000
1030
0000
,  // measure 44
2000
0000
0000
3020
0000
0000
0031
0100
0000
0100
0000
0100
0010
0000
0010
0000
,  // measure 45
2000
0000
0000
3200
0000
0000
0301
0000
0200
0000
0000
0320
0000
0000
0130
0000
,  // measure 46
1000
0000
0100
0000
0010
0000
0001
0000
0100
0010
0000
0010
0100
0000
0100
0000
,  // measure 47
1000
0100
0010
0001
1000
1000
0001
0001
,  // measure 48
0100
0000
1000
0000
0100
0000
0010
0100
0000
0100
0000
0010
0100
0000
0100
0000
,  // measure 49
1000
0100
0010
0001
0100
0100
0010
0010
,  // measure 50
1000
1000
0100
0100
0010
0010
0100
0001
,  // measure 51
0110
0000
0010
0000
0100
0000
0010
0000
0100
0000
0010
0000
0100
0010
0000
0010
,  // measure 52
0100
0000
0100
0000
0010
0000
1000
0000
0100
0000
0100
0000
0010
0100
0010
0100
,  // measure 53
0110
0000
1000
0000
0100
0000
0010
0000
0001
0000
0100
0000
0010
0100
0010
0100
,  // measure 54
1001
0000
0100
0000
0010
0000
0100
0000
1001
0000
0100
0000
0100
0010
0100
0010
,  // measure 55
0101
0100
0010
0100
0110
0100
0010
0100
,  // measure 56
0110
0000
0110
0000
0110
0000
0110
0110
0000
0110
0000
0110
0110
0000
0110
0000
,  // measure 57
0110
0000
0000
0110
0000
0000
0110
0000
0110
0000
0000
0110
0000
0000
0110
0000
,  // measure 58
0010
0100
0010
0100
0010
0100
0010
0100
0020
0000
0000
0000
0030
0000
0000
0000
,  // measure 59
0110
0000
0100
0000
1000
0000
0100
0000
0010
0100
0010
0000
0001
1000
0001
0000
,  // measure 60
1000
0000
0100
0000
0010
0000
0001
0000
1000
0001
1000
0000
0001
1000
0001
0000
,  // measure 61
0100
0000
1000
0000
0100
0000
0010
0000
0001
0100
0001
0000
0010
1000
0010
0000
,  // measure 62
1000
0000
0100
0000
0010
0000
0001
0000
1000
0010
1000
0000
0001
0100
0001
0000
,  // measure 63
0100
0000
0100
0000
0100
0000
0010
0000
0010
0000
0010
0000
1000
0001
1000
0000
,  // measure 64
0001
0000
0100
0000
1000
0000
0100
0000
0001
1000
0001
0000
1000
0001
1000
0000
,  // measure 65
0100
0000
0010
0000
0001
0000
0100
0000
0010
0100
0010
0000
1000
0001
1000
0000
,  // measure 66
0100
0000
0001
0000
0100
0000
1000
0000
0010
0100
0010
0000
0001
1000
0001
0000
,  // measure 67
1000
0000
0010
0000
0001
0000
0010
0000
1000
0000
1000
0000
0001
1000
0001
0000
,  // measure 68
1000
0000
0100
0000
0010
0000
0001
0000
0100
0010
0100
0000
0001
1000
0001
0000
,  // measure 69
1000
0000
0100
0000
0010
0000
0001
0000
1000
0001
1000
0000
0001
1000
0001
0000
,  // measure 70
0100
0000
0100
0000
0010
0000
0010
0100
0000
0000
0100
0000
0001
0000
0100
0000
,  // measure 71
1001
1000
0010
0010
0100
0100
0010
0010
,  // measure 72
1001
0100
0010
0100
0001
1000
0100
0010
,  // measure 73
0110
1000
0001
0100
0101
1000
0100
0010
,  // measure 74
0110
0000
0000
0000
0000
0000
0000
0000
0110
0110
0000
0110
0110
0000
0110
0000
,  // measure 75
0110
0000
0100
0000
0110
0000
0100
0010
0000
0010
0100
0000
0011
0000
0100
0000
,  // measure 76
0110
0000
0100
0000
0110
0000
0100
0010
0000
0001
0100
0000
1100
0000
0100
0000
,  // measure 77
1100
0000
0100
0000
0110
0000
0100
0001
0000
0001
0100
0000
0110
0000
0100
0000
,  // measure 78
0101
0000
0100
0000
1100
0000
0010
0001
0000
0010
0100
0000
0110
0000
0100
0000
,  // measure 79
1100
0000
0100
0000
0101
0000
0100
0010
0000
1000
0100
0000
1010
0000
1000
0000
,  // measure 80
1010
0000
1000
0000
1010
0000
0100
0010
0000
0001
1000
0000
1010
0000
1000
0000
,  // measure 81
1010
0000
0010
0000
1010
0000
0010
1000
0000
0001
0010
0000
1010
0000
0010
0000
,  // measure 82
0011
0000
0001
0000
0011
0000
0001
0010
0000
0100
1000
0000
0011
0000
0001
0000
,  // measure 83
0101
0000
0100
0000
0101
0000
0100
0010
0000
1000
0001
0000
0001
0100
0000
1000
,  // measure 84
0001
0000
0001
0000
0101
0000
0100
0001
0000
1000
0100
0000
0001
0100
0010
0001
,  // measure 85
0100
0000
0001
0000
0101
0000
0001
0100
0000
0100
0001
0000
0001
0100
0000
0010
,  // measure 86
1000
0000
1000
0000
1010
0000
1000
0010
0000
0010
1000
0000
1000
0010
1000
0010
,  // measure 87
0011
0000
0100
0000
0101
0000
0100
0001
0000
0001
0100
0000
0100
0010
0100
0010
,  // measure 88
1010
0000
0010
0000
1010
0000
0010
1000
0000
1000
0010
0000
0010
0100
0010
0100
,  // measure 89
0010
0001
0000
0001
0010
0100
0010
0001
0010
1000
0000
0001
1000
0001
1000
0001
,  // measure 90
1000
0001
0000
0000
1001
0000
0100
0000
0010
0110
0000
0100
0110
0000
0100
0000
,  // measure 91
2002
0000
0000
0000
,  // measure 92
0000
0000
0000
3003
,  // measure 93
1000
0100
0010
0000
0100
0001
0010
0000
0100
0010
0100
0000
0010
1000
0010
0000
,  // measure 94
1000
0001
0100
0000
0010
0100
0001
0000
1000
0001
1000
0000
0001
0100
0001
0000
,  // measure 95
0100
0010
0001
0000
0010
0100
0010
0000
0100
0001
0100
0000
0010
1000
0010
0000
,  // measure 96
1000
0100
0010
0000
0010
0100
0001
0000
0100
0001
0100
0000
0010
1000
0010
0000
,  // measure 97
1000
0001
0100
0000
0010
0100
0001
0000
1000
0001
1000
0000
0001
0100
0001
0000
,  // measure 98
0100
0001
0010
0000
0001
1000
0100
0000
0010
0100
0010
0000
1000
0001
1000
0000
,  // measure 99
0100
1000
0010
0000
0001
1000
0100
0000
0001
0010
0001
0000
1000
0100
1000
0000
,  // measure 100
0100
0001
0010
0000
0001
1000
0100
0000
0010
0100
0010
0000
1000
0001
1000
0000
,  // measure 101
0010
1000
0100
0000
0010
0100
0010
0000
1000
0001
0100
0000
0001
1000
0001
0000
,  // measure 102
0100
0010
0100
0000
0010
1000
0010
0000
1000
0001
1000
0000
0001
1000
0001
0000
,  // measure 103
0100
0010
1000
0000
0100
1000
0010
0000
0001
0100
1000
0000
0100
0001
0010
0000
,  // measure 104
0001
1000
0100
0000
1000
0001
0010
0000
0100
1000
0010
0000
1000
0001
0010
0000
,  // measure 105
1000
0001
0100
0000
0010
1000
0001
0000
1000
0001
0010
0000
0100
1000
0001
0000
,  // measure 106
1000
0001
0100
0000
0010
0100
0001
0000
0100
0001
1000
0000
0001
1000
0100
0000
,  // measure 107
0010
0001
1000
0000
0100
0001
0010
0000
0001
1000
0100
0000
1000
0001
1000
0000
,  // measure 108
0100
1000
0010
0000
0001
0010
0100
0000
1000
0001
0100
0000
0010
1000
0100
0000
,  // measure 109
2001
0000
3020
0000
,  // measure 110
0230
0000
0320
0000
,  // measure 111
2030
0000
3200
0320
,  // measure 112
0230
0000
0320
0000
,  // measure 113
2030
0000
3002
0000
,  // measure 114
0203
0000
0320
0000
,  // measure 115
2030
0000
3002
0000
,  // measure 116
2000
0000
0000
3003
,  // measure 117
0110
0000
0000
0000
0010
0000
0000
0000
0100
0000
0000
0000
0010
0100
0000
0100
,  // measure 118
0010
0000
1000
0000
0100
0000
0010
0000
0001
0000
0001
0000
1000
0001
1000
0001
,  // measure 119
1001
0000
1000
0000
0010
0000
0001
0000
0100
0000
0010
0000
0100
0010
0000
0010
,  // measure 120
0100
0000
0010
0000
1000
0000
0100
0000
0010
0000
0010
0000
1000
0001
1000
0001
,  // measure 121
1001
0000
0100
0000
0010
0000
0100
0000
0010
0000
0100
0000
0001
0100
0001
0100
,  // measure 122
0101
0000
1000
0000
0010
0000
0100
0000
0010
0100
0010
0100
0010
0100
0010
1000
,  // measure 123
0010
0100
0000
0100
0010
0100
0010
0100
0010
0100
0000
0100
0010
0001
0100
0010
,  // measure 124
1001
1000
1001
1000
1001
1000
1001
1000
,  // measure 125
2002
0000
0000
3003
,  // measure 126
0100
0000
0100
0000
0010
0100
0000
0010
0000
0100
0000
1000
0010
0000
0010
0000
,  // measure 127
0110
0000
1000
0000
0100
0000
0100
0000
0010
0000
0000
0010
0000
0000
1000
0000
,  // measure 128
0001
0000
1000
0000
0100
0000
0010
0001
0000
0001
0000
1000
0001
0000
1000
0000
,  // measure 129
0002
0000
0000
0023
0000
0000
0130
0000
0001
0000
0000
0002
0000
0000
1003
0000
,  // measure 130
0100
0000
0000
0020
0000
0000
0130
0000
0001
1000
0000
0010
1000
0000
0100
0000
,  // measure 131
0010
0000
0000
0100
0000
0000
0100
0000
0001
0000
0000
0010
0000
0000
1000
0000
,  // measure 132
0010
0000
0100
0000
0001
0000
1000
0001
0000
0001
0000
0010
1000
0000
1000
0000
,  // measure 133
0010
0000
0000
0010
0001
0000
1000
0000
1000
0000
0000
0100
0001
0000
0001
0000
,  // measure 134
1000
0100
0010
1000
0100
0001
1000
1000
,  // measure 135
1001
0000
0100
0000
0010
0000
0100
0000
0010
0000
1000
0000
0010
0100
0000
0100
,  // measure 136
0010
0000
1000
0000
0001
0000
0100
0000
0010
0000
0010
0000
1000
0010
1000
0010
,  // measure 137
0110
0000
1000
0000
0001
0000
0100
0000
0010
0000
1000
0000
0010
1000
0010
1000
,  // measure 138
1010
0000
1000
0000
0100
0000
0010
0000
0110
0000
1000
0000
0100
0010
0100
0010
,  // measure 139
0110
1000
0001
0001
1001
0001
0001
0001
,  // measure 140
1001
0000
0001
0000
1001
0000
0010
1010
0000
1010
0000
0010
1010
0000
1010
0000
,  // measure 141
1010
0000
0000
1010
0000
0000
1010
0000
1010
0000
0000
1010
0000
0000
1010
0000
,  // measure 142
0010
1000
0010
0100
0010
0001
0010
0100
2002
0000
0000
0000
0000
0000
3003
0000
,  // measure 143
0110
0100
0010
0001
0100
0100
0010
0100
,  // measure 144
1000
0100
0010
0001
0001
1000
1000
0010
,  // measure 145
0110
0100
0010
0100
0010
1000
0010
0100
,  // measure 146
0010
0010
1000
0001
0100
0010
1000
1000
,  // measure 147
0010
1000
0100
0010
0001
0001
0100
0100
,  // measure 148
0010
0010
1000
0100
0010
0001
0100
0010
,  // measure 149
0010
0010
0010
0010
1000
1000
1000
1000
,  // measure 150
0001
0001
0001
0001
0100
0100
0010
0100
,  // measure 151
0110
0000
1000
0000
0110
0000
0100
0000
0110
0000
0100
0000
0100
0001
0000
0010
,  // measure 152
0100
0000
0100
0000
0100
0000
0100
0000
0010
0000
0010
0000
1000
0001
1000
0001
,  // measure 153
1001
0000
0100
0000
0010
0000
0010
0000
0100
0000
0100
0000
0010
0100
0000
0001
,  // measure 154
1001
0000
0100
0000
0010
0000
0100
0000
0110
0000
0100
0000
0100
0010
0100
0010
,  // measure 155
1001
0100
0010
0100
0101
0100
0010
0100
,  // measure 156
0110
0000
1000
0000
0001
0000
1000
1010
0000
1010
0000
0010
0011
0000
0100
0000
,  // measure 157
0110
0000
0000
0110
0000
0000
0011
0000
0110
0000
0000
0110
0000
0000
0110
0000
,  // measure 158
0101
0000
0100
0010
0100
0010
0100
0010
0100
0010
0100
0010
0100
0010
0100
0000
,  // measure 159
2002
0000
0000
0000
,  // measure 160
0000
0000
0000
0000
,  // measure 161
0000
0000
0000
0000
,  // measure 162
0000
0000
0000
0000
,  // measure 163
0000
0000
0000
0000
,  // measure 164
3003
0000
0000
0000
;
