#TITLE:Lupa Password;
#SUBTITLE:[FULL SONG];
#ARTIST:Luzzy x Rakuin feat. Hatsune Miku;
#TITLETRANSLIT:;
#SUBTITLETRANSLIT:;
#ARTISTTRANSLIT:;
#CREDIT:;
#BANNER:[Full Song] Lupa Password.png;
#BACKGROUND:[Full Song] Lupa Password-bg.png;
#LYRICSPATH:;
#CDTITLE:;
#MUSIC:[Full Song] Lupa Password.mp3;
#MENUCOLOR:0,1,0,1;
#METERTYPE:DDR X;
#OFFSET:-1.459;
#SAMPLESTART:100.000;
#SAMPLELENGTH:12.000;
#SELECTABLE:YES;
#BPMS:0.000=168.000,432.000=336.000,433.000=168.000,440.000=84.000,456.000=168.000,568.000=84.000;
#STOPS:432.000=0.045
,432.250=0.045
,432.500=0.045
,432.750=0.045
,438.000=1.429
;
#DISPLAYBPM:168;
#BGCHANGES:;

//---------------dance-single - ----------------
#NOTES:
     dance-single:
     :
     Challenge:
     12:
     0.419,0.485,0.122,0.428,0.002: // measure 1
0000
0000
0000
0000
,  // measure 2
0000
0000
0000
0000
,  // measure 3
0000
0000
0000
0000
,  // measure 4
0000
0000
0000
0000
,  // measure 5
0000
0000
0000
0000
,  // measure 6
0000
0000
0000
0000
,  // measure 7
0000
0000
0000
0000
,  // measure 8
0000
0000
0000
0000
,  // measure 9
0020
0130
1000
0100
,  // measure 10
0010
1000
0100
0010
,  // measure 11
0002
0103
1000
0100
,  // measure 12
0010
0100
0001
0100
,  // measure 13
0200
1300
0100
0010
,  // measure 14
1000
0010
0001
0100
,  // measure 15
2000
3100
0010
0001
,  // measure 16
0100
0010
1000
0100
,  // measure 17
0002
0000
0000
0000
,  // measure 18
0000
0000
0000
0000
,  // measure 19
1003
0000
0000
0010
0100
0000
0010
1000
,  // measure 20
0000
0100
0000
0010
0000
0001
0000
0100
,  // measure 21
0000
0000
0000
1000
0100
0010
0000
0001
,  // measure 22
0000
1000
0000
0010
0000
0100
0000
0010
,  // measure 23
0000
1000
0200
0000
0000
0000
0000
0000
,  // measure 24
1300
0100
0010
0001
,  // measure 25
1000
0000
0000
0010
0100
0010
1000
0000
,  // measure 26
0100
0010
0000
0001
0000
0100
0000
0010
,  // measure 27
0000
0000
0000
1000
0100
0010
0000
0100
,  // measure 28
0000
0001
0000
0100
0000
0010
0000
1000
,  // measure 29
0000
0100
0010
0000
0000
0000
1000
0002
,  // measure 30
0000
0000
0000
0000
,  // measure 31
1003
0000
0000
0100
0010
0100
0000
0010
,  // measure 32
0000
1000
0000
0100
0000
0010
0100
0010
,  // measure 33
1000
0000
0000
0100
0010
0100
0000
0001
,  // measure 34
0000
0100
0000
0010
0000
1000
0000
0000
,  // measure 35
0100
0000
0000
0010
0100
0001
0000
0100
,  // measure 36
0000
0010
0000
0100
0000
0100
0010
0100
,  // measure 37
0001
0100
0010
0100
,  // measure 38
1001
0000
0010
0100
,  // measure 39
2001
0100
0010
0001
,  // measure 40
0020
3030
0100
1000
,  // measure 41
0210
1000
0010
0001
,  // measure 42
0020
0330
0010
1000
,  // measure 43
0120
1000
0100
0001
,  // measure 44
0200
0000
0330
0000
0010
0000
1000
0100
,  // measure 45
0210
1000
0010
0001
,  // measure 46
0020
0330
0010
0100
,  // measure 47
0102
1000
0100
1000
,  // measure 48
0020
0000
0033
0000
0001
0001
0100
0100
,  // measure 49
0120
1000
0100
0100
,  // measure 50
2000
0000
3030
0000
0010
0000
1000
0100
,  // measure 51
0120
1000
0100
0001
,  // measure 52
0200
0000
0330
0000
0100
0000
0010
0100
,  // measure 53
0201
1000
0010
0001
,  // measure 54
0020
0000
0330
0000
0010
0000
0001
1000
,  // measure 55
0010
0000
0100
0000
0001
1000
0001
0000
,  // measure 56
0100
0010
0100
0000
1000
0100
0010
0000
,  // measure 57
1001
0000
0100
0000
0010
1000
0000
1000
,  // measure 58
0010
0000
0100
0000
0010
0100
0000
1000
,  // measure 59
0001
0000
0000
1000
1000
0010
0000
0010
,  // measure 60
0000
0100
0000
0010
0000
1000
0100
0010
,  // measure 61
0000
0000
0000
1000
0001
0100
0000
0001
,  // measure 62
0000
0100
0000
0010
0000
1000
0000
0100
,  // measure 63
0001
0100
0010
0000
0000
0000
0000
1000
,  // measure 64
0100
0010
0100
0001
0100
0010
1000
0100
,  // measure 65
0001
0000
0000
0100
0010
0100
0000
1000
,  // measure 66
0000
0100
0000
0010
0000
0001
1000
0010
,  // measure 67
0000
0000
0000
0100
0010
0100
0000
1000
,  // measure 68
0000
0100
0000
0010
0000
0001
0000
1000
,  // measure 69
0000
0010
0100
0000
0000
0000
1000
0002
,  // measure 70
0000
0000
0000
0000
,  // measure 71
0013
0000
0000
0100
0010
0100
0000
1000
,  // measure 72
0000
0100
0000
0010
0000
0100
0010
0000
,  // measure 73
0101
0000
0000
1000
0100
0010
0000
1000
,  // measure 74
0000
0100
0000
0010
0000
0001
0100
0010
,  // measure 75
0000
0000
0000
1000
0100
0010
0000
0001
,  // measure 76
0000
0100
0000
0010
0000
1000
0100
0010
,  // measure 77
0200
0010
1000
0310
,  // measure 78
0110
0000
1000
0100
,  // measure 79
0201
1000
0010
0001
,  // measure 80
0020
0000
0330
0000
1000
1000
0100
0100
,  // measure 81
0102
1000
0100
0010
,  // measure 82
0200
0303
1000
0010
,  // measure 83
2001
0100
0010
0001
,  // measure 84
0200
0000
3300
0000
0100
0000
0010
0001
,  // measure 85
0201
0010
0001
1000
,  // measure 86
0020
0330
1000
0100
,  // measure 87
0021
0100
1000
0100
,  // measure 88
0200
0000
0330
0000
1000
1000
0100
0100
,  // measure 89
0201
1000
0010
0001
,  // measure 90
0020
0330
1000
0100
,  // measure 91
2001
0100
0010
0001
,  // measure 92
0002
3003
0010
0100
,  // measure 93
0102
1000
0010
0100
,  // measure 94
2000
3003
0100
0010
,  // measure 95
0110
0000
1000
0000
0100
0010
0100
0000
,  // measure 96
0001
1000
0001
0000
0100
0010
0100
0000
,  // measure 97
1001
0000
0100
0000
0010
0100
0000
0001
,  // measure 98
1000
0000
0001
0000
0100
0010
0000
0100
,  // measure 99
0010
0000
1000
0000
1000
0100
0000
0010
,  // measure 100
0100
0000
0010
0000
1000
0100
0000
0000
,  // measure 101
2000
0000
0000
0100
0000
0000
0100
0000
,  // measure 102
0200
0000
3000
0010
0000
0000
0010
0000
,  // measure 103
0020
0000
0300
0001
0000
0000
0001
0000
,  // measure 104
0032
0000
0000
0100
0000
0000
0010
0000
,  // measure 105
2003
0000
0000
0100
0000
0000
0010
0000
,  // measure 106
3002
0000
0000
0100
0000
0000
0100
0000
,  // measure 107
0023
0000
0000
0100
0000
0000
0001
0000
,  // measure 108
1030
1000
0001
1000
,  // measure 109
0002
0000
0003
1000
0010
0000
0100
0000
,  // measure 110
2000
0000
3000
0000
,  // measure 111
2000
0000
0000
0000
,  // measure 112
0200
3000
0000
0000
,  // measure 113
0020
0300
0000
0000
,  // measure 114
0002
0000
0030
0000
0000
0000
1000
1000
,  // measure 115
2003
0010
0100
0010
,  // measure 116
0002
0000
3003
0000
0100
0100
0001
0001
,  // measure 117
0102
1000
0100
0010
,  // measure 118
2000
0000
3003
0000
0000
0000
0100
0100
,  // measure 119
0210
1000
0010
0001
,  // measure 120
0002
0303
0000
0010
,  // measure 121
0120
1000
0100
0001
,  // measure 122
0200
0000
0330
0000
0000
0001
0100
0000
,  // measure 123
0000
2000
0000
0000
0000
0000
0000
0000
0000
0000
0000
0000
0000
0000
0000
0000
0000
0000
0000
0000
0000
0000
0000
0000
0000
0000
0000
0000
0000
0000
0000
0000
0000
0000
0000
0000
0000
0000
0000
0000
0000
0000
0000
0000
0000
0000
0000
0000
3100
0000
0000
0000
0000
0000
0000
0000
0000
0000
0000
0000
0000
0000
0000
0000
0000
0000
0000
0000
0000
0000
0000
0000
0000
0000
0000
0000
0000
0000
0000
0000
0000
0000
0000
0000
0000
0000
0000
0000
0000
0000
0000
0000
0000
0000
0000
0000
0200
0000
0000
0000
0000
0000
0000
0000
0000
0000
0000
0000
0000
0000
0000
0000
0000
0000
0000
0000
0000
0000
0000
0000
0000
0000
0000
0000
0000
0000
0000
0000
0000
0000
0000
0000
0000
0000
0000
0000
0000
0000
0000
0000
0000
0000
0000
0000
0310
0000
0000
0000
0000
0000
0000
0000
0000
0000
0000
0000
0000
0000
0000
0000
0000
0000
0000
0000
0000
0000
0000
0000
0000
0000
0000
0000
0000
0000
0000
0000
0000
0000
0000
0000
0000
0000
0000
0000
0000
0000
0000
0000
0000
0000
0000
0000
,  // measure 124
0020
0031
0002
0103
,  // measure 125
2000
0000
3100
0000
0010
0100
0000
0010
,  // measure 126
0000
0100
0000
0020
0000
1030
0100
0010
,  // measure 127
0001
0000
0100
0000
1000
0010
0000
2000
,  // measure 128
0000
3100
0000
0010
0000
1000
0100
0010
,  // measure 129
0002
0000
0103
0000
1000
0100
0000
0020
,  // measure 130
0000
2030
0000
3200
0000
0320
0000
0031
,  // measure 131
0200
0310
2000
3100
,  // measure 132
0020
0031
0200
0310
,  // measure 133
2000
0000
3100
0000
0001
0200
0000
0310
,  // measure 134
0000
2000
0000
3100
0000
0010
0001
0000
,  // measure 135
0200
0000
0310
0000
0001
1000
0000
0020
,  // measure 136
0000
0130
0000
0002
0000
1003
0100
0010
,  // measure 137
0002
0000
0103
0000
0010
0100
0000
2000
,  // measure 138
0000
3100
0000
0020
0000
0031
1000
0100
,  // measure 139
0020
1030
0020
0130
,  // measure 140
2000
3100
0020
0130
,  // measure 141
2002
0000
0000
3003
,  // measure 142
0000
1000
0100
0010
0001
0100
0010
0100
,  // measure 143
2002
0000
0000
0000
,  // measure 144
0000
0000
3003
0000
;
