#TITLE:Kokuhaku;
#SUBTITLE:[FULL SONG] Amagami SS Plus ED;
#ARTIST:azusa;
#TITLETRANSLIT:;
#SUBTITLETRANSLIT:;
#ARTISTTRANSLIT:;
#CREDIT:;
#BANNER:[Full Song] Kokuhaku.png;
#BACKGROUND:[Full Song] Kokuhaku-bg.png;
#LYRICSPATH:;
#CDTITLE:;
#MUSIC:[Full Song] Kokuhaku.mp3;
#MENUCOLOR:0,0,1,1;
#METERTYPE:DDR X;
#OFFSET:0.000;
#SAMPLESTART:100.050;
#SAMPLELENGTH:12.000;
#SELECTABLE:YES;
#BPMS:0.000=80.000,296.000=40.000,304.000=80.000;
#STOPS:;
#BGCHANGES:;

//---------------dance-single - ----------------
#NOTES:
     dance-single:
     :
     Challenge:
     6:
     0.182,0.238,0.095,0.120,0.000: // measure 1
0000
0000
0000
0000
,  // measure 2
0000
0000
0000
0000
,  // measure 3
0000
0000
0000
0000
,  // measure 4
0000
0000
0000
0000
,  // measure 5
0010
0010
0010
0010
,  // measure 6
0100
0100
0100
0100
,  // measure 7
0010
0010
0010
0010
,  // measure 8
0100
0100
0100
0100
,  // measure 9
1000
1000
0001
0001
,  // measure 10
1000
1000
0001
0001
,  // measure 11
1001
1000
1000
0000
,  // measure 12
0001
0001
0002
0000
,  // measure 13
1003
1000
0001
0001
,  // measure 14
1000
1000
2000
0000
,  // measure 15
3001
0001
0010
0010
,  // measure 16
0100
0100
2000
0000
,  // measure 17
3001
0001
0100
0100
,  // measure 18
0020
0000
1030
0001
,  // measure 19
1001
0000
0001
0000
,  // measure 20
0001
0010
0100
1000
,  // measure 21
0020
0000
0230
0000
,  // measure 22
0302
0000
1003
1000
,  // measure 23
2001
0000
3002
0000
,  // measure 24
0203
0000
0310
0010
,  // measure 25
1001
0000
0001
0000
1000
0000
0001
0010
,  // measure 26
0100
0000
1000
0000
0100
0000
0010
0001
,  // measure 27
0100
0010
1000
0010
,  // measure 28
0100
0010
0100
0010
0100
0000
0001
0000
,  // measure 29
2000
0000
3001
0001
,  // measure 30
1001
0000
0000
0000
0010
0000
0100
0010
,  // measure 31
0100
0001
2000
0000
,  // measure 32
3001
0000
0001
0000
0010
0100
0010
0100
,  // measure 33
0100
0010
1000
0001
,  // measure 34
1000
0000
0001
0000
1000
0001
1000
0001
,  // measure 35
1000
1000
1000
1000
,  // measure 36
0001
0001
0001
0001
,  // measure 37
1000
1000
1000
1000
,  // measure 38
0001
0001
0001
0001
,  // measure 39
0100
0100
0010
0010
,  // measure 40
0100
0100
0010
0010
,  // measure 41
0100
0100
0010
0010
,  // measure 42
0200
0000
0020
0000
,  // measure 43
0330
0001
0001
0001
,  // measure 44
1000
1000
1001
1001
,  // measure 45
0010
0010
0100
0100
,  // measure 46
0001
0001
2000
3001
,  // measure 47
0010
0010
0100
0100
,  // measure 48
0010
0110
0110
0000
,  // measure 49
0002
1003
2000
3001
,  // measure 50
1001
1001
1001
1001
,  // measure 51
0010
0010
0010
0010
,  // measure 52
0100
0100
0100
0100
,  // measure 53
1000
1000
1000
1000
,  // measure 54
0001
0001
0001
0001
,  // measure 55
2001
0000
3020
0000
,  // measure 56
0230
0000
0310
0110
,  // measure 57
1001
0000
0001
0000
0001
0000
1000
0001
,  // measure 58
1000
0000
1001
0000
0010
0000
0100
0010
,  // measure 59
0100
0001
2000
3000
,  // measure 60
0002
0003
2000
3001
,  // measure 61
0020
0000
0130
0000
,  // measure 62
0110
0000
0200
0000
,  // measure 63
0310
0000
2000
0000
,  // measure 64
3001
0000
0000
0000
1000
0100
0010
0001
,  // measure 65
1001
0000
0000
0000
1000
0001
1000
0000
,  // measure 66
0001
0000
0001
0000
1000
0001
1000
0000
,  // measure 67
0002
0000
1003
0100
,  // measure 68
0010
0010
0100
0010
0100
0000
1000
0000
,  // measure 69
0001
0001
1000
0001
,  // measure 70
1000
1000
1001
0000
,  // measure 71
0110
0000
0010
0010
,  // measure 72
0010
0000
0000
0000
1000
0001
1000
0000
,  // measure 73
0010
0000
0010
0000
,  // measure 74
2000
0000
0000
0000
,  // measure 75
3001
0001
0001
1000
,  // measure 76
0100
0010
0001
0100
,  // measure 77
1000
0000
1000
0000
,  // measure 78
0101
0000
0001
0000
,  // measure 79
1001
0000
2000
3010
,  // measure 80
0002
0103
1001
0000
,  // measure 81
2000
0000
3001
0001
,  // measure 82
1001
0000
0010
1000
,  // measure 83
1001
0000
0000
0100
0020
0000
0000
0000
,  // measure 84
0130
0000
0000
1000
0001
0000
1000
0000
,  // measure 85
0001
0000
1000
0010
,  // measure 86
0200
0000
0000
0000
,  // measure 87
0000
0000
0000
0000
,  // measure 88
0300
0000
0000
0000
;
