#TITLE:JOINT (ANIME HOUSE PROJECT MIX);
#SUBTITLE:[FULL SONG][Remix] Shakugan no Shana II OP;
#ARTIST:anporin;
#TITLETRANSLIT:;
#SUBTITLETRANSLIT:;
#ARTISTTRANSLIT:;
#CREDIT:;
#BANNER:[Full Song] JOINT (ANIME HOUSE PROJECT MIX).png;
#BACKGROUND:[Full Song] JOINT (ANIME HOUSE PROJECT MIX)-bg.png;
#LYRICSPATH:;
#CDTITLE:;
#MUSIC:[Full Song] JOINT (ANIME HOUSE PROJECT MIX).mp3;
#MENUCOLOR:0,0,1,1;
#METERTYPE:DDR X;
#OFFSET:-2.852;
#SAMPLESTART:100.010;
#SAMPLELENGTH:12.000;
#SELECTABLE:YES;
#BPMS:0.000=180.000;
#STOPS:612.000=2.333
;
#BGCHANGES:;

//---------------dance-single - ----------------
#NOTES:
     dance-single:
     :
     Challenge:
     15:
     0.798,0.992,0.382,0.084,0.231: // measure 1
0000
0000
0000
0000
,  // measure 2
0000
0000
0000
0000
,  // measure 3
0000
0000
0000
0000
,  // measure 4
0000
0000
0000
0000
,  // measure 5
0000
0000
0000
0000
,  // measure 6
0000
0000
0000
0000
,  // measure 7
0000
0000
0000
0000
,  // measure 8
1001
0000
0100
0010
0100
0010
0100
0010
,  // measure 9
0000
1000
0100
0010
0001
0100
0010
0100
,  // measure 10
0000
1000
0100
0001
0100
1000
0100
0010
,  // measure 11
0000
1000
0100
0001
0100
1000
0010
1000
,  // measure 12
0000
1000
0010
0001
0010
1000
0100
0010
,  // measure 13
0000
0100
0001
0100
0010
1000
0100
0001
,  // measure 14
0000
1000
0100
1000
0001
1000
0010
0100
,  // measure 15
0000
1000
0001
0010
0001
1000
0010
0100
,  // measure 16
0000
1000
0100
0001
1000
1000
0010
1000
,  // measure 17
0000
0100
0100
0001
0001
0100
0010
0100
,  // measure 18
0000
0001
0001
1000
1000
0010
0100
0010
,  // measure 19
0000
0100
0100
0001
1000
0010
0100
0010
,  // measure 20
0000
0100
0100
0010
1000
0100
0001
0100
,  // measure 21
0000
0010
0010
1000
0100
0001
1000
0010
,  // measure 22
0000
0001
0001
1000
0100
0010
0001
0100
,  // measure 23
0000
1000
0001
0100
0001
0010
0100
1000
,  // measure 24
1001
0000
0010
0000
0100
0010
0100
0010
,  // measure 25
1000
0100
0010
0001
0100
1000
0010
0100
,  // measure 26
0001
1000
1001
0000
0100
0000
0100
0000
,  // measure 27
0100
0000
0100
0000
1000
0100
0010
0001
,  // measure 28
0101
0000
0100
0000
0010
0100
0001
0100
,  // measure 29
0010
1000
0100
0000
0010
0100
0010
1000
,  // measure 30
0100
0000
0001
0000
0100
1000
0100
0000
,  // measure 31
1000
0100
0010
0000
1000
0001
1000
0010
,  // measure 32
0110
0000
0110
0000
1000
0100
0010
0100
,  // measure 33
0000
0010
0100
0000
1000
0100
0001
0100
,  // measure 34
1000
0010
1000
0000
0010
1000
0010
0000
,  // measure 35
1000
0100
0001
0100
1000
0010
1000
0010
,  // measure 36
1000
0000
0100
0000
0010
0100
0010
0100
,  // measure 37
0000
0010
0100
0000
1000
0100
0000
0010
,  // measure 38
0100
0000
0001
0000
1000
0100
0010
0000
,  // measure 39
0001
0100
0010
0100
,  // measure 40
0110
0110
1000
0100
,  // measure 41
0001
0100
0001
1000
0100
0010
1000
0000
,  // measure 42
0010
0000
0010
0000
1000
0100
0001
0100
,  // measure 43
1000
0100
1001
0000
0100
0000
0001
0000
,  // measure 44
0000
0000
0000
0000
1000
0100
0010
0100
,  // measure 45
0000
0010
0100
0000
0010
0100
0000
0000
,  // measure 46
0010
0100
1000
0110
,  // measure 47
0001
0110
1000
0110
,  // measure 48
1000
1000
0000
0000
,  // measure 49
1000
0001
1000
0001
1000
0001
1000
0001
1000
0000
0001
0000
1001
0000
1000
0001
,  // measure 50
1000
0000
0100
0000
0010
0000
0100
0010
0100
0000
0100
0000
0100
0000
0010
0100
,  // measure 51
0010
0000
1000
0000
0100
0000
0001
0100
0001
0000
0001
0000
0101
0000
1000
0010
,  // measure 52
0100
0000
0010
0000
0100
0000
0010
0100
0010
0000
0010
0000
0110
0000
0010
0001
,  // measure 53
0100
0000
0001
0000
0100
0000
1000
0100
1000
0000
0010
0000
0110
0000
0100
0001
,  // measure 54
1000
0000
1000
0000
0001
0000
0100
0001
0100
0000
0100
0000
0110
0000
0010
0100
,  // measure 55
1000
0000
0001
0000
1000
0000
0100
0001
0100
0000
0010
0000
0110
0000
0100
0001
,  // measure 56
1000
0000
1000
0000
0001
0000
0100
0010
0100
0000
0100
0000
0101
0000
0010
1000
,  // measure 57
0100
0000
0010
0000
0100
0000
0001
0010
0001
0000
0010
0000
1010
0000
1000
0001
,  // measure 58
0100
0000
0010
0000
0001
0000
0010
1000
0010
0000
0010
0000
1100
0000
0001
0100
,  // measure 59
1000
0000
0100
0000
0010
0000
0010
0100
0010
0000
0010
0000
0011
0000
0100
0010
,  // measure 60
0100
0000
0010
0000
0100
0000
0001
1000
0001
0000
0010
0000
0110
0000
0100
0001
,  // measure 61
1000
0000
0010
0000
0100
0000
0010
0100
0010
0000
0010
0000
1001
0000
0001
0010
,  // measure 62
0100
0000
0010
0000
0100
0000
0001
0010
0001
0000
0010
0000
0011
0000
0001
1000
,  // measure 63
0100
0000
0010
0000
0100
0000
1000
0001
1000
0000
0100
0000
1100
0000
0010
0001
,  // measure 64
1000
0000
0100
0000
0010
0000
1000
0001
1000
0000
0001
0000
0101
0000
1000
0100
,  // measure 65
0001
0000
0100
0000
0010
0000
0010
0001
0010
0000
0010
0000
1010
0000
0100
0001
,  // measure 66
0100
0000
0010
0000
1000
0000
0010
0100
0010
0000
0010
0000
1001
0000
0000
0000
,  // measure 67
0100
0010
0100
0010
0000
1000
0100
0010
,  // measure 68
0001
0100
0010
0100
0000
1000
0100
0001
,  // measure 69
0100
1000
0010
0100
0000
0100
0100
0010
,  // measure 70
1000
0100
0010
0001
0000
0100
0010
0100
,  // measure 71
0100
0001
1000
0100
0000
0010
0010
0100
,  // measure 72
1000
0001
0100
0010
0000
1000
0100
0001
,  // measure 73
0000
0001
0100
1000
0000
1000
0100
0010
,  // measure 74
0001
0000
0000
0000
0000
0000
0000
0000
0000
0000
0000
0000
0000
0000
0000
0001
,  // measure 75
0100
0100
0010
0000
0100
0010
0100
0000
,  // measure 76
1000
0100
0001
0100
1000
0010
0100
0000
,  // measure 77
1000
0100
0001
0100
0010
1000
0100
0000
,  // measure 78
0100
0000
0001
0100
0001
1000
0100
0000
,  // measure 79
1000
0100
0010
0100
0010
0100
0001
0000
,  // measure 80
0100
0001
0100
0010
0100
0010
0100
0000
,  // measure 81
1000
0100
0001
0100
0010
0100
0001
0000
,  // measure 82
0010
0000
0001
0000
1000
0010
0001
0010
,  // measure 83
1000
0001
0100
0000
0010
0100
0001
0100
,  // measure 84
0010
0100
0001
0000
0100
0010
0001
0010
,  // measure 85
0100
0010
0001
0000
0100
0001
0100
0010
,  // measure 86
0001
0100
0001
0000
0100
0001
0100
0001
,  // measure 87
0100
0010
0100
0000
1000
0100
0001
0100
,  // measure 88
0010
0100
0001
0000
1000
0100
0010
0000
,  // measure 89
1000
0100
0001
0000
0001
0100
1000
0000
,  // measure 90
0110
0000
0101
0000
1000
0100
0010
0100
,  // measure 91
0001
0100
0010
0000
0100
1000
0100
0000
,  // measure 92
0100
1000
0100
0000
0010
0100
0001
0000
,  // measure 93
1000
0100
0001
0100
1000
0010
1000
0000
,  // measure 94
0010
0000
0100
0000
1000
0100
0001
0000
,  // measure 95
0100
1000
0010
0000
0100
0001
0100
0000
,  // measure 96
1000
0100
0010
0000
1000
0100
0010
0000
,  // measure 97
0001
0010
0100
0000
0001
0010
0100
0000
,  // measure 98
1000
1000
0000
0000
,  // measure 99
1000
0001
1000
0001
1000
0001
1000
0001
1000
0000
0001
0000
1001
0000
1000
0001
,  // measure 100
1000
0000
0001
0000
0100
0000
0010
0100
0010
0000
0010
0000
0110
0000
0010
0001
,  // measure 101
1000
0000
0100
0000
0001
0000
0100
0010
0100
0000
0100
0000
0101
0000
1000
0100
,  // measure 102
0010
0000
0100
0000
0001
0000
0100
0010
0100
0000
1000
0000
1010
0000
0010
0001
,  // measure 103
0100
0000
0001
0000
0100
0000
0010
0100
0010
0000
0001
0000
0101
0000
1000
0100
,  // measure 104
0010
0000
0100
0000
0010
0000
0010
0100
0010
0000
0100
0000
0101
0000
0100
0001
,  // measure 105
1000
0000
0100
0000
0010
0000
0001
0100
0001
0000
0010
0000
0110
0000
0010
0100
,  // measure 106
1000
0000
0100
0000
0010
0000
1000
0010
1000
0000
0100
0000
0110
0000
0010
0001
,  // measure 107
1000
0000
0100
0000
0001
0000
0100
0010
0100
0000
0100
0000
0110
0000
0010
0001
,  // measure 108
1000
0000
0100
0000
0001
0000
0001
0010
0001
0000
1000
0000
1010
0000
0010
1000
,  // measure 109
0100
0000
0001
0000
0100
0000
0100
0010
0100
0000
0100
0000
0110
0000
0100
0010
,  // measure 110
1000
0000
0100
0000
0010
0000
1000
0010
1000
0000
0100
0000
0101
0000
0010
0001
,  // measure 111
0100
0000
0010
0000
1000
0000
0100
0001
0100
0000
1000
0000
0110
0000
0010
1000
,  // measure 112
0100
0000
0001
0000
0100
0000
0001
0100
0001
0000
0100
0000
0110
0000
0010
0001
,  // measure 113
1000
0000
0100
0000
0010
0000
1000
0001
1000
0000
0010
0000
0110
0000
0010
0100
,  // measure 114
0001
0000
0100
0000
0001
0000
0010
0100
0010
0000
0100
0000
0110
0000
0010
0100
,  // measure 115
0001
0000
1000
0000
0010
0000
0100
0010
0100
0000
0010
0000
0110
0000
0000
0000
,  // measure 116
1001
0000
1000
0100
0010
0001
0100
0000
,  // measure 117
1000
0100
0000
0010
0000
0000
0100
0000
,  // measure 118
0010
1000
0100
0010
0100
0001
0100
0000
,  // measure 119
1000
0100
0010
0100
0001
0100
0100
0000
,  // measure 120
0010
1000
0100
0010
0001
0100
0100
0000
,  // measure 121
0010
1000
0100
0010
0001
1000
1010
0000
,  // measure 122
0100
0001
0100
0010
0100
0001
0101
0000
,  // measure 123
1000
0100
0010
0100
0001
1000
0110
0000
,  // measure 124
1000
0100
0010
0001
0100
1000
0110
0000
,  // measure 125
1000
0100
0001
1000
0010
0100
0001
0010
0100
0001
1000
0010
,  // measure 126
0001
0100
0010
0100
0000
0010
0100
0000
,  // measure 127
0000
0010
1000
0100
0010
0001
0100
0000
,  // measure 128
1000
0100
0010
0001
0000
0100
0000
0010
,  // measure 129
1000
0010
0100
0000
0010
1000
0100
0000
,  // measure 130
1000
0000
0100
0010
0000
0100
0010
0000
0100
0010
0000
0100
0010
0000
0000
0000
,  // measure 131
0001
0010
0001
0100
0000
1001
0000
0010
,  // measure 132
2000
0000
0010
0000
,  // measure 133
0010
0000
0010
0000
,  // measure 134
3002
0000
0100
0000
,  // measure 135
0100
0000
0100
0000
,  // measure 136
0203
0000
0001
0000
,  // measure 137
0001
0000
0001
0000
,  // measure 138
0320
0000
1000
0000
,  // measure 139
1000
0000
1000
0000
,  // measure 140
2030
0000
0001
0000
,  // measure 141
0001
0000
0001
0000
,  // measure 142
3002
0000
1000
0000
,  // measure 143
1000
0000
1000
0000
,  // measure 144
0203
0000
0010
0000
,  // measure 145
2300
0000
0100
0000
,  // measure 146
3020
0001
0100
0001
,  // measure 147
0230
0000
1000
0010
,  // measure 148
1300
0000
0001
0000
0100
0010
0100
0010
,  // measure 149
1000
0100
0010
0001
0100
0010
0100
0000
,  // measure 150
0000
0100
1000
0010
,  // measure 151
0100
1000
0100
0010
,  // measure 152
1000
1000
0001
1000
,  // measure 153
0010
0100
0010
0100
0010
0100
0010
0100
0010
0000
0100
0000
0100
0000
0000
0000
,  // measure 154
2002
3003
0100
0010
0001
0000
0010
0000
0100
0000
0010
0100
0010
0000
0100
0000
,  // measure 155
0101
0000
0010
0001
0100
0000
0010
0000
0100
0000
0001
0010
0001
0000
0010
0000
,  // measure 156
0110
0000
0010
0001
1000
0000
0100
0000
0001
0000
0100
1000
0100
0000
0100
0000
,  // measure 157
0110
0000
0100
0001
1000
0000
0001
0000
0100
0000
1000
0001
1000
0000
0010
0000
,  // measure 158
0110
0000
0001
0010
1000
0000
0100
0000
0001
0000
0001
1000
0001
0000
0100
0000
,  // measure 159
0110
0000
0001
0010
0001
0000
0100
0000
0010
0000
0010
0100
0010
0000
0100
0000
,  // measure 160
0110
0000
1000
0100
1000
0000
0100
0000
0001
0000
0100
0010
0100
0000
1000
0000
,  // measure 161
0110
0000
1000
0001
0100
0000
1000
0100
1000
0000
0010
0000
0100
0000
0010
0000
,  // measure 162
0011
0000
0010
0001
0100
0000
0010
0000
1000
0000
0100
0010
0100
0000
0001
0000
,  // measure 163
1100
0000
0010
1000
0100
0000
0010
0000
0100
0000
0010
0100
0010
0000
0001
0000
,  // measure 164
0011
0000
0010
0001
0100
0000
0010
0000
0100
0000
0001
0010
0001
0000
0010
0000
,  // measure 165
0110
0000
0100
0001
1000
0000
0100
0000
0001
0000
0010
0001
0010
0000
0100
0000
,  // measure 166
1001
0000
1000
0001
0100
0000
0010
0000
0100
0000
0010
0100
0010
0000
0010
0000
,  // measure 167
1100
0000
0010
0001
1000
0000
0100
0000
0010
0000
0100
0010
0100
0000
0010
0000
,  // measure 168
0011
0000
0010
0001
0100
0000
0010
0000
0100
0000
1000
0100
1000
0000
0010
0000
,  // measure 169
0110
0000
0010
0100
0010
1000
0010
0100
,  // measure 170
0110
0000
1000
0100
0010
0100
0001
0100
,  // measure 171
0110
0000
1000
0100
0001
0100
0010
0100
,  // measure 172
0110
0000
1000
0100
0001
0100
0010
1000
,  // measure 173
0110
0000
1000
0100
0010
0100
0001
0100
,  // measure 174
0110
0000
1000
0100
0010
0100
0001
0100
,  // measure 175
0110
0000
1000
0100
0010
0100
0001
0100
,  // measure 176
0110
0000
0110
1000
0010
0100
0010
0100
,  // measure 177
0101
0000
0110
1000
0100
0010
0100
0001
,  // measure 178
0110
0000
1010
0100
0010
0100
0001
0100
,  // measure 179
0110
0000
0101
0100
0010
1000
0010
0100
,  // measure 180
0110
0000
0110
1000
0100
0010
0001
0100
,  // measure 181
0110
0000
0101
0100
0010
0100
0001
1000
,  // measure 182
0110
0000
0101
1000
0100
0010
1000
0001
,  // measure 183
0110
0000
1000
0010
0100
0001
0100
0010
,  // measure 184
0100
0000
2010
0000
3010
0000
0100
0010
,  // measure 185
0100
0010
0102
0000
0103
0000
1000
0010
,  // measure 186
0100
0010
0210
0000
0310
1000
0100
0010
,  // measure 187
0001
0100
0120
0000
0130
0001
1000
0100
,  // measure 188
0010
0100
2010
0000
3010
0100
0010
0100
,  // measure 189
0001
0100
0102
0000
0103
1000
0010
0100
,  // measure 190
0010
0100
0210
0000
0310
1000
0010
0100
,  // measure 191
0001
0000
0120
0000
0130
0000
1000
0010
,  // measure 192
0100
0000
1010
0000
0100
0010
0100
0010
,  // measure 193
0100
0000
1000
0100
0010
0100
0010
0100
,  // measure 194
0010
0000
1000
0100
0001
0000
0100
0010
,  // measure 195
1000
0000
1000
0100
0010
0000
0001
0100
,  // measure 196
1000
0000
0100
0010
0100
0000
0001
0100
,  // measure 197
0010
0000
1000
0100
0010
0000
1000
0100
,  // measure 198
0010
0100
0000
1000
0100
0010
0000
0100
,  // measure 199
0100
0001
0000
1000
1000
0010
0000
0100
,  // measure 200
0100
0002
0000
2000
3003
0000
0000
0000
;
