#TITLE:I'm so Happy (feat. Lucky Vacuum);
#SUBTITLE:[FULL SONG];
#ARTIST:Ryu☆ feat. Lucky Vacuum;
#TITLETRANSLIT:;
#SUBTITLETRANSLIT:;
#ARTISTTRANSLIT:;
#CREDIT:;
#BANNER:[Full Song] I'm so Happy (feat. Lucky Vacuum).png;
#BACKGROUND:[Full Song] I'm so Happy (feat. Lucky Vacuum)-bg.png;
#LYRICSPATH:;
#CDTITLE:;
#MUSIC:[Full Song] I'm so Happy (feat. Lucky Vacuum).mp3;
#OFFSET:-0.164;
#SAMPLESTART:100.030;
#SAMPLELENGTH:12.000;
#SELECTABLE:YES;
#BPMS:0.000=183.020,212.000=91.510,228.000=183.020;
#STOPS:136.000=2.623
;
#BGCHANGES:;

//---------------dance-single - ----------------
#NOTES:
     dance-single:
     :
     Challenge:
     16:
     0.731,1.000,0.471,0.135,0.256: // measure 1
0000
0000
0000
0000
,  // measure 2
0000
0000
0000
0000
,  // measure 3
0000
0000
0000
0000
,  // measure 4
0000
0000
0000
0000
,  // measure 5
1000
0000
0001
0000
0100
0010
0100
0000
,  // measure 6
0001
0000
1000
0000
0010
0100
0010
0000
,  // measure 7
1000
0000
0001
0000
0100
0010
0100
0000
,  // measure 8
0001
0000
1000
0000
0010
0100
0010
0000
,  // measure 9
1000
0000
1000
0000
0001
0100
0001
0000
,  // measure 10
1000
0000
1000
0000
1000
0010
1000
0000
,  // measure 11
0001
0000
0001
0000
1000
0001
1000
0000
,  // measure 12
0010
0000
0010
0000
1000
0001
1000
0000
,  // measure 13
0100
0000
0100
0000
0001
1000
0001
0000
,  // measure 14
1000
0000
1000
0000
0000
0110
0000
0010
,  // measure 15
0000
0001
0000
0010
0100
0000
0010
0000
,  // measure 16
1000
0100
0010
0001
0100
0010
1000
0000
,  // measure 17
1001
0000
0100
0000
1000
0100
0010
0000
,  // measure 18
1000
0000
0100
0000
0001
0010
0100
0000
,  // measure 19
0010
0000
0001
0000
1000
0100
0010
0000
,  // measure 20
0001
0000
0100
0000
1000
0100
0010
0000
,  // measure 21
0001
0000
0010
0000
0100
0010
0001
0000
,  // measure 22
0100
0000
0010
0000
1000
0100
0010
0000
,  // measure 23
0100
0000
0010
0000
0001
0010
0100
0000
,  // measure 24
1000
1000
0000
1001
,  // measure 25
1001
0000
0100
0000
1000
0100
0010
0000
,  // measure 26
0001
0000
0010
0000
1000
0010
1000
0000
,  // measure 27
0100
0000
0010
0000
0100
0001
0100
0000
,  // measure 28
0010
0000
0010
0000
1000
0100
0010
0000
,  // measure 29
1001
0000
0100
0000
1000
0100
0010
0000
,  // measure 30
0001
0000
0100
0000
0010
0100
0010
0000
,  // measure 31
1000
0001
1000
1000
,  // measure 32
1000
0010
0000
0100
,  // measure 33
1001
0000
0100
0000
0010
0100
0010
0000
,  // measure 34
1000
0100
0010
0001
0010
0100
1000
0000
1000
0000
0000
0000
0000
0000
0000
0000
,  // measure 35
2002
0000
0000
3003
,  // measure 36
1001
0000
0010
0000
0010
0100
0010
0000
,  // measure 37
1001
0000
0010
0000
0100
0000
1000
0000
0100
0000
0010
0000
0000
0100
0010
0000
,  // measure 38
0100
0000
0000
0010
0000
0010
0100
0000
0100
0000
0100
0000
0100
0010
0100
0000
,  // measure 39
0100
0000
0010
0000
0100
0000
0010
0000
1000
0000
0000
0010
0000
0100
0010
0000
,  // measure 40
0000
0010
0000
0100
0000
0100
0010
0000
1000
0000
0100
0000
0010
0000
0001
0000
,  // measure 41
0100
0000
0010
0000
0100
0000
0010
0000
1000
0000
0000
1000
0000
0001
1000
0000
,  // measure 42
0100
0000
0000
0010
0000
1000
0100
0000
0010
0000
0000
0010
0000
0100
0010
0000
,  // measure 43
1000
0000
0100
0000
0010
0000
0001
0000
0010
0000
0000
0001
0000
0010
0100
0000
,  // measure 44
0010
0000
0100
0000
0000
0100
0010
0000
1000
0000
0100
0000
0010
0000
0001
0000
,  // measure 45
1000
0000
0100
0000
0010
0000
0001
0000
1000
0000
0000
1000
0000
0001
1000
0000
,  // measure 46
0010
0000
0000
0010
0000
0100
0010
0000
0100
0000
0000
0100
0000
0010
0100
0000
,  // measure 47
0001
0000
1000
0000
0010
0000
0100
0000
0001
0000
0000
0001
0000
1000
0001
0000
,  // measure 48
0100
0000
0000
0100
0000
0010
0100
0000
0010
0000
0000
0010
0000
0100
0010
0000
,  // measure 49
1000
0000
0100
0000
0010
0000
0001
0000
0010
0000
0000
0001
0000
0100
1000
0000
,  // measure 50
0010
0000
0000
0010
0000
0100
0010
0000
1000
0000
0000
1000
0000
0001
1000
0000
,  // measure 51
0010
0000
0100
0000
0010
0000
0100
0000
0001
0000
0000
0001
0000
1000
0001
0000
,  // measure 52
1000
0000
0000
1000
0000
0001
1000
0000
0010
0000
0000
0010
0000
0100
0010
0000
,  // measure 53
0100
1001
0100
0010
,  // measure 54
2100
0010
0001
0100
3002
0100
1000
0100
,  // measure 55
0203
0001
0010
0001
0320
1000
0001
1000
,  // measure 56
0230
1000
0001
1000
0302
0100
1000
0010
,  // measure 57
0203
0001
0010
0001
2300
0100
0010
0001
,  // measure 58
3100
0000
1000
0000
0100
0000
0010
0001
0010
0000
0100
0000
0010
0000
0000
0000
,  // measure 59
1000
0000
0100
0000
0010
0000
0010
0001
0100
0000
0010
0000
0100
0000
0000
0000
,  // measure 60
0001
0000
0001
0000
0100
0000
0010
0100
1000
0000
0010
0000
0100
0000
0000
0000
,  // measure 61
1000
0000
0100
0000
0010
0000
0001
0010
0100
0000
0010
0000
0100
0000
0000
0000
,  // measure 62
1000
1000
0100
0100
0100
0010
0010
0010
,  // measure 63
1000
1000
1000
1000
0001
0001
0001
0001
,  // measure 64
1000
0100
0010
0001
1000
0100
0010
0001
1000
0000
0100
0000
0110
0000
0100
0000
,  // measure 65
0110
1000
1001
0100
0110
1000
0101
1000
,  // measure 66
0010
2000
0000
0000
0000
0000
0000
0000
,  // measure 67
3010
0100
1000
0100
0010
0010
0100
0000
,  // measure 68
0100
1000
0100
0010
0001
0100
0010
0000
,  // measure 69
0010
0010
1000
0100
0010
0001
0100
0000
,  // measure 70
1000
0010
0100
0010
0100
0010
0100
0101
,  // measure 71
1000
0100
0010
0001
0100
0010
0100
0000
,  // measure 72
1000
0100
0001
0100
0010
0100
0010
0100
,  // measure 73
1000
0100
0100
0100
1010
1000
1010
0000
,  // measure 74
0110
0100
0110
0000
0000
0000
1001
0000
,  // measure 75
0100
1000
0100
0010
0100
0010
0200
0000
,  // measure 76
0301
0001
1000
1000
0100
0010
0200
0000
,  // measure 77
1300
1000
0100
0010
0100
0010
0200
0000
,  // measure 78
0301
0001
0100
0010
0100
0010
0002
0000
,  // measure 79
1003
0100
0010
0100
0001
0100
0020
0000
,  // measure 80
1030
1000
0100
0010
0001
0100
0020
0000
,  // measure 81
1030
0100
0110
0110
,  // measure 82
0110
1001
0100
0110
,  // measure 83
1010
0000
0100
0000
0010
0100
0010
0100
,  // measure 84
0010
1000
0100
0000
0010
0100
0010
0100
,  // measure 85
0010
1000
0100
0010
0001
0100
0010
0100
,  // measure 86
0000
0100
0010
0100
0010
0100
0010
0100
,  // measure 87
1001
0000
0110
0000
1000
0100
0010
0001
,  // measure 88
0100
0000
0110
0000
1000
0100
0010
0001
,  // measure 89
1000
1001
0001
1001
,  // measure 90
1001
1001
0100
1001
,  // measure 91
1001
0000
1000
0000
0100
0010
0001
0000
,  // measure 92
1000
0100
1000
0100
,  // measure 93
1000
0000
0100
0000
0010
0100
0010
0100
,  // measure 94
0001
0000
0010
0000
0100
0010
0100
0010
,  // measure 95
0100
0000
1000
0000
0100
0010
0100
0000
,  // measure 96
1000
0000
0100
0000
0010
0100
1001
0000
,  // measure 97
0110
0000
1000
0000
1010
0000
0101
0100
,  // measure 98
0101
0000
0000
0000
1010
0000
0000
0000
0010
0100
0010
0100
0010
0001
0010
0100
,  // measure 99
1000
0000
0100
0000
0010
0000
0001
0000
0100
0010
0001
0000
0100
0000
0010
0000
,  // measure 100
1000
0100
0001
0010
0100
0010
0001
0100
0002
0000
0000
0000
0003
0000
0000
0000
,  // measure 101
1001
0000
0000
0000
,  // measure 102
1010
0000
0000
0000
0000
0000
0100
0010
,  // measure 103
0110
0000
0000
0000
,  // measure 104
1001
0000
0000
0000
0000
0000
0001
0100
,  // measure 105
0101
0000
0000
0000
,  // measure 106
1010
0000
0000
0000
0000
0000
1000
0010
,  // measure 107
1010
0000
0000
0000
,  // measure 108
0101
0010
0010
1010
,  // measure 109
0101
0000
0010
0000
1000
0000
0010
0100
0010
0100
0010
0000
0101
0000
0000
0000
,  // measure 110
1010
0000
0010
0000
0010
0000
0100
0010
0100
0010
0100
0000
0010
0000
0001
0000
,  // measure 111
0110
0000
0100
0000
0100
0000
1000
0100
1000
0100
1000
0000
0110
0000
1000
0000
,  // measure 112
1000
0000
0100
0000
0010
0000
0001
0010
0001
0010
0001
0000
0101
0000
0000
0000
,  // measure 113
1010
1010
1010
1010
0100
0101
0101
0101
,  // measure 114
1010
1000
1010
1010
0110
0110
0110
0110
,  // measure 115
1000
0100
0110
0100
0110
0100
0101
0100
,  // measure 116
1010
0110
0110
1001
,  // measure 117
0110
0110
0000
0000
0000
1000
0000
0100
,  // measure 118
0000
0010
0100
0010
0100
0000
0000
0000
,  // measure 119
1000
0000
0100
0010
0010
0000
0100
0010
,  // measure 120
0100
0100
0010
1000
0100
0010
0010
0000
,  // measure 121
0100
1000
0100
0001
0100
0020
0000
0000
,  // measure 122
1030
0100
0010
0010
0100
0020
0000
0000
,  // measure 123
1030
0100
0010
0100
0001
0200
0000
0000
,  // measure 124
0310
0010
1000
0100
0001
0200
0000
0300
,  // measure 125
0010
0010
1000
0010
0100
0010
0110
0000
,  // measure 126
0110
1001
0100
0010
,  // measure 127
1000
1000
0001
0100
0010
0100
0020
0000
,  // measure 128
0130
0100
0010
2000
0000
3020
0000
0000
,  // measure 129
0000
0000
0100
0000
0100
0000
0100
0030
,  // measure 130
2000
0000
0010
0000
0010
0000
0010
3000
,  // measure 131
0100
0000
0010
0100
0010
0100
0010
0000
,  // measure 132
1000
0100
0010
0001
0000
0100
0000
0000
,  // measure 133
0010
0000
1000
0100
0000
0000
0010
0000
,  // measure 134
1001
0110
1000
1001
,  // measure 135
1001
0100
0000
0010
,  // measure 136
1000
0001
0000
0110
,  // measure 137
0001
0010
0000
0110
,  // measure 138
1000
0110
0000
0101
,  // measure 139
1000
0001
0100
0010
1000
0001
0100
0010
1000
0001
0100
0010
1000
0000
0000
0000
,  // measure 140
0001
0100
0010
1000
0001
0100
0010
1000
0001
0100
0010
1000
0001
0000
0000
0000
,  // measure 141
1000
0100
0010
0001
0010
0100
1000
0100
0010
0001
0010
0100
1000
0100
0010
0001
,  // measure 142
0100
0101
0110
0110
,  // measure 143
1000
0100
0010
0001
0100
0010
0100
0001
,  // measure 144
1001
2002
0000
0000
0000
0000
3003
0000
,  // measure 145
1010
0100
0010
0100
0010
0100
0100
0100
,  // measure 146
1000
0010
0100
0000
0010
0100
0001
0000
0100
1000
0010
0000
1002
0000
0000
0000
,  // measure 147
0103
0010
0100
0010
0100
0100
0010
0010
,  // measure 148
1000
0010
0100
0000
0010
0001
0100
0000
0001
1000
0001
0000
0001
0000
0001
0000
,  // measure 149
1000
0100
0010
0001
0100
1000
0100
0100
,  // measure 150
0010
0100
1000
0000
0100
0010
0001
0000
0010
0100
1000
0000
0002
0000
0000
0000
,  // measure 151
1003
0100
0010
0100
0010
0010
0100
0100
,  // measure 152
0010
0010
0010
1000
0100
0100
0100
0100
,  // measure 153
0010
0010
0010
0010
1000
1000
1000
1000
,  // measure 154
0010
1000
0100
0000
0010
0001
0100
0000
0010
1000
0001
0000
0002
0000
0000
0000
,  // measure 155
0103
0010
1000
0100
0010
0001
0100
0010
,  // measure 156
0010
0100
0010
0000
1000
0001
1000
0000
0010
0100
0010
0000
0010
0000
0100
0000
,  // measure 157
0001
0010
0001
0010
0100
0010
0100
1000
0100
1000
0100
0010
0001
0000
0000
0000
,  // measure 158
1000
0001
0100
0010
1000
0001
0100
0010
1000
0001
0100
0010
1000
0000
0000
0000
,  // measure 159
0001
0010
0100
1000
0100
0010
0001
0010
0100
1000
0100
0010
0001
0010
0100
1000
,  // measure 160
0010
0100
0010
0100
,  // measure 161
1001
1001
0000
1000
0000
1000
1000
0000
,  // measure 162
0100
0000
0010
0000
1000
0100
1001
0000
,  // measure 163
0100
0000
0010
0000
1000
0001
1001
0000
,  // measure 164
0100
0000
0010
0000
0001
0010
1001
0000
,  // measure 165
0100
0000
0010
0000
1000
0100
0010
0000
,  // measure 166
0001
0000
0010
0000
0010
0010
0001
0000
,  // measure 167
0100
0000
0010
0000
1000
0010
1000
0000
,  // measure 168
0100
0110
1000
1001
,  // measure 169
1001
0000
1000
0000
0100
0010
0100
0000
,  // measure 170
1000
0000
0001
0000
0010
0100
0010
0110
,  // measure 171
1000
0000
0100
0000
1000
0100
0010
0001
,  // measure 172
0100
0000
0010
0000
0100
0010
0100
0010
,  // measure 173
0100
0000
0010
0000
1000
0100
0010
0001
,  // measure 174
0100
0000
0010
0000
0001
0010
0100
0010
,  // measure 175
0100
0010
1001
0110
,  // measure 176
1001
0110
1000
1001
,  // measure 177
1001
0000
1000
0000
0100
0010
0001
0000
,  // measure 178
1000
0100
0010
0001
0010
0100
1000
0000
,  // measure 179
2002
0000
0000
0000
,  // measure 180
0000
0000
0000
0000
,  // measure 181
3003
0000
0000
0000
;
