#TITLE:I Miss You (DJ SHARPNEL Remix);
#SUBTITLE:[FULL SONG][Remix] FORTUNE ARTERIAL ~Akai Yakusoku~ ED;
#ARTIST:Remixed by DJ SHARPNEL feat. LIA;
#TITLETRANSLIT:;
#SUBTITLETRANSLIT:;
#ARTISTTRANSLIT:;
#CREDIT:;
#BANNER:[Full Song] I miss you (DJ SHARPNEL Remix).png;
#BACKGROUND:[Full Song] I miss you (DJ SHARPNEL Remix)-bg.png;
#LYRICSPATH:;
#CDTITLE:;
#MUSIC:[Full Song] I miss you (DJ SHARPNEL Remix).mp3;
#MENUCOLOR:0,0,1,1;
#METERTYPE:DDR X;
#OFFSET:-0.653;
#SAMPLESTART:100.000;
#SAMPLELENGTH:12.000;
#SELECTABLE:YES;
#BPMS:0.000=173.000;
#STOPS:;
#BGCHANGES:;

//---------------dance-single - ----------------
#NOTES:
     dance-single:
     :
     Challenge:
     13:
     0.450,0.737,0.088,0.128,0.044: // measure 1
0000
0000
0000
0000
,  // measure 2
0000
0000
0000
0000
,  // measure 3
2002
0000
0000
0000
,  // measure 4
0000
0000
0000
0000
,  // measure 5
0000
0000
0000
0000
,  // measure 6
0000
0000
0000
0000
,  // measure 7
3003
0000
0000
0000
,  // measure 8
0000
0000
0000
0000
,  // measure 9
0000
0000
0000
0000
,  // measure 10
0000
0000
0000
0000
,  // measure 11
0110
0000
0000
0010
0000
0000
0010
0000
,  // measure 12
0010
0000
0000
0010
0000
0000
0010
0000
,  // measure 13
0010
0000
0000
1000
0000
0000
1000
0000
,  // measure 14
1000
0000
0000
0001
0000
0000
0001
0000
,  // measure 15
0001
0000
0000
0100
0000
0000
0100
0000
,  // measure 16
0100
0000
0000
0010
0000
0000
0010
0000
,  // measure 17
0010
0000
0000
1000
0000
0000
1000
0000
,  // measure 18
1000
0000
0000
0000
0001
0000
0000
0000
1000
0001
1000
0001
1000
0001
1000
0001
,  // measure 19
1000
0100
1000
0100
,  // measure 20
0010
0001
1000
0100
,  // measure 21
0010
0001
1000
0001
,  // measure 22
0100
0010
0001
1000
,  // measure 23
0001
0100
1000
0010
,  // measure 24
0001
1000
0100
0001
,  // measure 25
1000
0001
0010
1000
,  // measure 26
0001
0000
0000
0000
1000
0000
0000
0000
0001
1000
0001
1000
0001
1000
0001
1000
,  // measure 27
0001
0100
0010
0100
,  // measure 28
1001
0001
0101
1000
,  // measure 29
1010
0100
0110
0010
,  // measure 30
0011
0010
0110
0100
,  // measure 31
1001
0100
0000
0010
,  // measure 32
0100
0001
0000
0001
,  // measure 33
1000
0010
0000
0100
,  // measure 34
0001
0000
0000
0000
1000
0000
0000
0000
0001
1000
0001
1000
0001
1000
0001
1000
,  // measure 35
0001
0000
0100
0000
0010
0000
1000
0001
,  // measure 36
1000
0010
0100
0010
,  // measure 37
1001
0010
0001
0100
,  // measure 38
0010
0000
1000
0100
0000
0020
0000
0000
,  // measure 39
1030
0100
0010
0001
,  // measure 40
0100
0000
0020
0000
0030
1000
0000
0000
,  // measure 41
0002
0103
0010
0100
,  // measure 42
2000
0000
3010
0200
0000
0301
0100
0000
,  // measure 43
0010
1000
0100
0010
,  // measure 44
0001
0000
0100
0000
0010
0000
1000
0001
,  // measure 45
1000
0010
0100
0001
,  // measure 46
1000
0000
0000
0000
0000
0000
0010
0000
1000
0001
1000
0001
1000
0001
1000
0001
,  // measure 47
1000
0000
0100
0000
0010
0000
1000
0001
,  // measure 48
1000
0010
0000
0100
0000
0010
0000
0000
,  // measure 49
1000
0100
0010
0001
,  // measure 50
1000
0000
0010
0100
0000
0002
0000
0000
,  // measure 51
1003
0100
0010
0001
,  // measure 52
1000
0000
0010
0200
0000
0301
0000
0000
,  // measure 53
1000
0100
0010
0001
,  // measure 54
1000
0000
0010
0100
0000
0000
0001
0000
,  // measure 55
0101
0010
1000
0100
,  // measure 56
0010
0001
1000
0020
,  // measure 57
1030
0100
0010
0001
,  // measure 58
1000
0001
1000
0010
,  // measure 59
1000
0010
0100
0001
,  // measure 60
1000
0100
0001
0100
,  // measure 61
1000
0010
0001
1000
,  // measure 62
1000
0001
1000
0001
1000
0001
1000
0001
1000
0001
1000
0001
1000
0001
1000
0001
,  // measure 63
1000
0000
0110
0000
0010
0100
0010
0000
,  // measure 64
0100
0000
0010
0000
1000
0001
1000
0001
,  // measure 65
1000
0010
0000
0100
0000
0020
0000
0000
,  // measure 66
0130
0000
0001
0000
1000
0000
0100
0100
,  // measure 67
0100
0000
0010
0000
1000
0001
1000
0010
,  // measure 68
0000
0000
0100
0000
0001
1000
0001
0100
,  // measure 69
0010
1000
0000
0001
0000
0100
0010
0000
,  // measure 70
1000
0000
0100
0000
0010
0000
0001
0001
,  // measure 71
0001
0000
0100
0000
0010
1000
0001
0100
,  // measure 72
0020
0000
1000
0000
0100
0000
0031
1000
,  // measure 73
0001
0100
0010
0100
,  // measure 74
1000
0100
0010
0001
1000
0100
0010
0001
,  // measure 75
1001
0000
0100
0010
0100
0000
1000
0000
,  // measure 76
0001
0100
0001
0000
1000
0010
0100
0000
,  // measure 77
0010
0100
0010
0000
1000
0100
0010
0000
,  // measure 78
0001
0100
0001
0000
0100
0010
1000
0010
,  // measure 79
0100
0010
0100
0000
0001
0100
0001
0100
,  // measure 80
0010
1000
0010
0000
0100
0001
0100
0010
,  // measure 81
1000
0100
0010
0000
0001
0100
0001
0100
,  // measure 82
0010
1000
0100
0000
0001
0100
0010
1000
,  // measure 83
1100
0010
0001
0000
1000
0100
0001
0100
,  // measure 84
1000
0010
0001
0000
0100
0010
0100
0001
,  // measure 85
1000
0100
0001
0000
0010
1000
0001
0010
,  // measure 86
0100
1000
0001
0000
0100
0010
1000
0001
,  // measure 87
0100
0010
1000
0000
1000
0100
0010
0001
,  // measure 88
1000
0010
0100
0000
1000
0100
0001
0100
,  // measure 89
1000
0010
0001
0000
1000
0001
0100
0001
,  // measure 90
2000
0000
0000
0000
,  // measure 91
3001
0000
0100
0000
0010
0000
1000
0001
,  // measure 92
1000
0010
0000
0100
0000
0010
0000
0000
,  // measure 93
1000
0100
0010
0001
,  // measure 94
1000
0000
0001
1000
0000
0002
0000
0000
,  // measure 95
1003
0100
0010
0001
,  // measure 96
1000
0000
0010
0100
0000
0002
0000
0000
,  // measure 97
1003
0100
0010
0001
,  // measure 98
0100
0000
0010
1000
0000
0000
0010
0000
,  // measure 99
1000
0100
0010
0001
,  // measure 100
1000
0010
0100
0010
,  // measure 101
1000
0001
0100
0010
,  // measure 102
0100
0001
2000
0000
,  // measure 103
3001
0000
0100
0000
0010
0000
1000
0010
,  // measure 104
0100
0010
0000
1000
0000
0100
0000
0000
,  // measure 105
0002
0000
0000
0000
,  // measure 106
1003
0000
0100
0010
0000
1000
0000
0000
,  // measure 107
0002
0000
0000
0000
,  // measure 108
0103
0000
0010
0001
0000
0100
0000
0000
,  // measure 109
2000
0000
0000
0000
,  // measure 110
3010
0000
0100
0001
0000
1000
0100
0000
,  // measure 111
0110
0100
0010
1000
,  // measure 112
0100
0010
0001
2000
,  // measure 113
0001
3000
0001
0000
0100
0000
0010
0000
,  // measure 114
1000
0200
0310
0001
,  // measure 115
1200
0310
1000
0002
,  // measure 116
1003
0100
0010
0100
,  // measure 117
0020
1000
0100
1000
,  // measure 118
0100
1030
0001
0100
,  // measure 119
2002
0000
0000
3003
,  // measure 120
0000
0010
0020
0000
,  // measure 121
1030
0000
0100
0000
,  // measure 122
0010
0000
0001
0000
,  // measure 123
0100
0000
0000
0100
0000
0100
0000
0000
,  // measure 124
0100
0000
0010
0000
,  // measure 125
0001
0000
1000
0000
,  // measure 126
0010
0000
1000
0000
,  // measure 127
0010
0000
0000
0010
0000
0010
0000
0000
,  // measure 128
0010
0000
0100
0000
,  // measure 129
0001
0000
0000
0000
1000
0001
1000
0001
,  // measure 130
0020
0000
0000
0000
,  // measure 131
2000
0000
0000
0000
,  // measure 132
3030
0000
0000
0000
,  // measure 133
1001
0000
0000
0100
0000
0000
0010
0000
,  // measure 134
0010
0000
0000
0100
0000
0000
0100
0000
,  // measure 135
0100
0000
0000
0001
0000
0000
0001
0000
,  // measure 136
0001
0000
1000
1000
,  // measure 137
0010
0000
0000
0010
0000
0000
1000
0000
,  // measure 138
1000
0000
0001
0000
,  // measure 139
0001
0000
0000
0001
0000
0000
0100
0000
,  // measure 140
0000
0010
1000
0000
,  // measure 141
1001
0000
0000
0100
0000
0000
0100
0000
,  // measure 142
0010
0000
0000
0010
0000
0000
1000
0000
,  // measure 143
1000
0000
0000
0001
0000
0000
0001
0000
,  // measure 144
0000
0100
0000
0000
0010
0000
0010
0000
,  // measure 145
1000
0000
0000
0001
0000
0000
0100
0000
,  // measure 146
0010
0000
0000
1000
0000
0000
0100
0000
,  // measure 147
0010
0000
0000
0001
0000
0000
1000
0000
,  // measure 148
0010
1000
0001
0000
,  // measure 149
1001
0000
0100
0000
0010
1000
0010
0000
,  // measure 150
0100
0000
0001
0000
1000
0100
0010
0001
,  // measure 151
0100
0010
0000
1000
0000
0002
0000
0000
,  // measure 152
1003
0000
0100
0000
0010
0000
0100
0100
,  // measure 153
0100
0000
0010
0000
1000
0100
0010
0001
,  // measure 154
0000
0000
0100
0000
0010
1000
0010
0100
,  // measure 155
0001
0100
0000
0010
0000
0002
0000
0000
,  // measure 156
1003
0000
0010
0000
0001
0000
0010
0010
,  // measure 157
0010
0000
0100
0000
0001
0010
0001
0010
,  // measure 158
0200
0000
0010
0000
0010
0300
1000
0010
,  // measure 159
0200
0010
0010
0010
,  // measure 160
0310
1000
0100
0010
0001
0000
0100
0000
,  // measure 161
1001
0000
0100
0010
0100
0000
1000
0000
,  // measure 162
0100
0010
0100
0010
0100
0000
0010
0100
,  // measure 163
0010
1000
0100
0010
0001
0000
0100
0010
,  // measure 164
0000
1000
0100
0000
0010
0001
0100
0000
,  // measure 165
0010
0100
0000
0010
1000
0000
0100
0010
,  // measure 166
0000
1000
0100
0000
1000
0100
0010
0001
,  // measure 167
0100
0010
0000
1000
0100
0000
0001
0100
,  // measure 168
0000
1000
0100
0000
0010
0100
0010
0100
,  // measure 169
1001
0100
0000
0010
1000
0000
0100
0010
,  // measure 170
0001
0100
0010
0000
1000
0100
0001
0100
,  // measure 171
1000
0100
0010
0000
0100
0001
0100
0010
,  // measure 172
0001
0010
0100
0000
0010
0100
0001
0010
,  // measure 173
0100
0001
1000
0000
0100
0010
0001
1000
,  // measure 174
0010
0100
0001
0000
1000
0100
1000
0010
,  // measure 175
0100
0001
0100
0000
0100
0001
0001
0010
,  // measure 176
1100
1000
0100
0000
0020
0000
0000
0000
,  // measure 177
1030
0100
0010
0001
,  // measure 178
1000
1000
0010
0010
,  // measure 179
0100
0100
0001
0001
,  // measure 180
1000
1000
0100
0100
,  // measure 181
0010
0010
0001
0001
,  // measure 182
1000
1000
0010
0010
,  // measure 183
0100
0001
0100
0010
,  // measure 184
1000
0100
0002
0000
,  // measure 185
1003
0100
0010
0001
,  // measure 186
1000
1000
0100
0100
,  // measure 187
0010
0000
0000
0010
0000
0000
0010
0000
,  // measure 188
0001
0000
0000
0001
0000
0000
0010
0000
,  // measure 189
1001
0100
0000
0010
,  // measure 190
0010
0001
0000
0001
,  // measure 191
0100
0100
0000
0010
,  // measure 192
0100
0100
0001
1000
,  // measure 193
0001
0000
0000
0000
;
