#TITLE:Hari Yang Indah;
#SUBTITLE:[FULL SONG];
#ARTIST:DreamReal feat. Gumi;
#TITLETRANSLIT:;
#SUBTITLETRANSLIT:;
#ARTISTTRANSLIT:;
#CREDIT:;
#BANNER:[Full Song] Hari yang Indah.png;
#BACKGROUND:[Full Song] Hari yang Indah-bg.png;
#LYRICSPATH:;
#CDTITLE:;
#MUSIC:[Full Song] Hari yang Indah.mp3;
#MENUCOLOR:0,1,0,1;
#METERTYPE:DDR X;
#OFFSET:0.000;
#SAMPLESTART:100.000;
#SAMPLELENGTH:12.000;
#SELECTABLE:YES;
#BPMS:0.000=170.020;
#STOPS:;
#BGCHANGES:;

//---------------dance-single - ----------------
#NOTES:
     dance-single:
     :
     Challenge:
     12:
     0.495,0.506,0.203,0.437,0.000: // measure 1
0000
0000
0000
0000
,  // measure 2
0000
0000
0000
0000
,  // measure 3
1001
0100
0100
0010
,  // measure 4
0010
1000
0001
0000
,  // measure 5
0100
0100
0001
0001
,  // measure 6
1000
1000
0010
0000
,  // measure 7
0100
0100
0010
0010
,  // measure 8
0001
0001
1000
0000
,  // measure 9
0001
0001
1000
1000
,  // measure 10
0010
0010
0100
0000
,  // measure 11
0101
1000
0100
0010
,  // measure 12
1000
0001
0100
0010
,  // measure 13
1000
0100
0010
0001
,  // measure 14
1000
0100
0002
2003
,  // measure 15
3010
0100
0010
1000
,  // measure 16
0100
0001
0200
0320
,  // measure 17
1030
0100
0010
0001
,  // measure 18
1000
1000
0100
0100
,  // measure 19
0020
0031
0100
0010
,  // measure 20
1000
0100
0010
0001
,  // measure 21
2000
3001
0100
0010
,  // measure 22
0001
0010
0200
0310
,  // measure 23
1000
0100
0010
0001
,  // measure 24
0001
0010
0010
0100
,  // measure 25
2002
0000
0000
0000
,  // measure 26
0000
0000
0000
3003
,  // measure 27
0110
1000
0100
0010
,  // measure 28
0001
1000
0010
0100
,  // measure 29
2000
0000
0000
3001
0000
0100
0000
0020
,  // measure 30
0000
0000
0000
0000
0000
0000
1030
0001
,  // measure 31
1000
0000
0010
0100
0000
0010
0000
0002
,  // measure 32
0000
0203
0000
0320
0000
2030
0000
3200
,  // measure 33
0000
0000
0310
2000
0000
3002
0000
0203
,  // measure 34
0000
0000
0310
1000
0000
0002
0000
0000
,  // measure 35
0000
0000
0103
0000
0010
1000
0000
0100
,  // measure 36
0000
0010
0000
0001
0000
0100
0000
0020
,  // measure 37
0000
0000
0000
2030
0000
3002
0000
0203
,  // measure 38
0000
2300
0000
3200
0000
0302
0000
0023
,  // measure 39
0000
0030
0100
0010
0000
1000
0000
0110
,  // measure 40
0000
0001
0100
0000
0000
0000
1000
0100
,  // measure 41
0010
0000
0001
0100
0000
0001
0000
1100
,  // measure 42
0000
1000
0100
0010
0001
0000
0010
0000
,  // measure 43
0011
0100
0001
0100
,  // measure 44
0010
1000
0100
0010
,  // measure 45
0110
0100
0001
0100
,  // measure 46
1000
0100
0010
0100
,  // measure 47
1001
0000
0100
0000
0010
0000
0100
0001
,  // measure 48
0000
0020
0000
0230
0000
2300
0000
3002
,  // measure 49
0000
1003
0002
0000
0000
0000
0000
0000
,  // measure 50
1003
0000
0001
0000
1000
1001
0000
0000
,  // measure 51
0110
0000
1000
0000
0100
0001
0100
0000
,  // measure 52
0010
0000
1000
0000
0001
1000
0100
0000
,  // measure 53
0001
0000
1000
0000
1000
0001
0100
0000
,  // measure 54
0010
0000
2000
3200
,  // measure 55
0310
0000
0100
0010
0000
1000
0000
0002
,  // measure 56
0000
0203
0000
2300
0000
3020
0000
0230
,  // measure 57
0000
0000
0000
0000
0000
0000
0000
0301
,  // measure 58
0000
1000
0001
1000
0001
0000
1000
0000
,  // measure 59
1001
0000
0100
0010
0000
0100
0000
0010
,  // measure 60
0000
1000
0000
0100
0000
0010
0000
0002
,  // measure 61
0000
0000
1003
0001
0000
0100
0000
0020
,  // measure 62
0000
0000
0000
1030
,  // measure 63
0110
0000
0001
0100
0000
0010
0000
1000
,  // measure 64
0000
0100
0000
0010
0000
0001
0000
2000
,  // measure 65
0000
0000
0001
0000
0001
0000
0001
3000
,  // measure 66
0001
0101
0000
1010
0000
0110
0000
0000
,  // measure 67
0110
0000
0100
0001
0100
0001
0100
0000
,  // measure 68
1000
0100
0010
0000
0010
0100
0001
0100
,  // measure 69
0020
0000
1030
0100
0010
0000
0101
0001
,  // measure 70
0000
0000
0110
0000
0100
0010
1000
0000
,  // measure 71
0110
0000
1000
0100
0000
0010
0000
0002
,  // measure 72
0000
2003
0000
3020
0000
0230
0000
0302
,  // measure 73
0000
0000
1000
0000
1000
0003
1000
0001
,  // measure 74
0100
0000
0010
0100
0000
0010
1000
1001
,  // measure 75
0000
0100
0010
0000
0100
0000
0010
0000
,  // measure 76
0010
0000
0000
0010
0100
0000
0010
1000
,  // measure 77
0010
0100
0010
0010
,  // measure 78
1000
0100
0010
0001
,  // measure 79
0200
0000
0000
0310
0000
1000
0000
0002
,  // measure 80
0000
0000
1000
0000
1000
0003
1000
0010
,  // measure 81
1000
0000
0010
0100
0000
0010
0000
0200
,  // measure 82
0000
2300
0000
3020
0000
0032
0000
0203
,  // measure 83
0000
0000
0301
0100
0000
0010
0000
2000
,  // measure 84
0000
0000
3010
0001
0000
0020
0000
0000
,  // measure 85
1030
0000
0010
0000
0100
0010
0000
1000
,  // measure 86
0000
0100
0000
0001
0000
0001
0000
2000
,  // measure 87
0000
0000
0000
3020
0000
0230
0000
0301
,  // measure 88
0000
2000
0000
3200
0000
0320
0000
0032
,  // measure 89
0000
0000
1003
0001
0000
0001
0000
0101
,  // measure 90
0000
1000
0010
0000
0100
0000
0010
0100
,  // measure 91
0010
0000
1000
0100
0000
0001
0000
1100
,  // measure 92
0000
1000
0100
0010
0001
0000
0100
0000
,  // measure 93
0101
0000
1000
0000
0100
0010
0100
0000
,  // measure 94
0010
0000
1000
0000
0100
0010
0100
0000
,  // measure 95
0002
1003
0001
0100
,  // measure 96
0020
0000
1000
0030
0100
0001
0100
0000
,  // measure 97
0010
0000
0100
0000
0020
0000
1030
0100
,  // measure 98
0000
0001
0000
0200
0000
1300
0000
0010
,  // measure 99
0000
1000
0020
0000
0000
0000
1000
0000
,  // measure 100
1000
0000
0001
0000
0031
1000
0000
0000
,  // measure 101
0110
0000
1000
0000
0100
0010
0100
0000
,  // measure 102
0001
1000
0001
0000
0100
0010
0100
0000
,  // measure 103
2000
3100
0002
0013
,  // measure 104
1001
0100
0010
1000
,  // measure 105
0110
0000
1000
0100
0000
0010
0000
2000
,  // measure 106
0000
0001
0000
0001
0000
0001
0000
3002
,  // measure 107
0000
0000
1000
0000
0013
0000
0100
0110
,  // measure 108
0000
1000
0100
0010
0100
0010
0100
0000
,  // measure 109
0000
1001
0000
0000
0000
0000
0000
0000
,  // measure 110
1001
0000
0100
0010
0000
0100
0000
0010
,  // measure 111
1000
0100
0010
0000
0001
0100
0001
0000
,  // measure 112
2000
0000
3010
0100
0001
1000
0100
0020
,  // measure 113
0000
0100
0100
1030
,  // measure 114
0101
0000
0100
0000
0010
1000
0000
0020
,  // measure 115
0000
2030
0000
3100
0000
0020
0000
0031
,  // measure 116
1000
0001
0100
0010
,  // measure 117
0000
1010
0000
0110
0000
0011
0000
0000
,  // measure 118
0011
0000
1000
0100
0000
0010
0000
0100
,  // measure 119
0000
1000
0000
0100
0000
0010
0000
2000
,  // measure 120
0000
0000
3100
0010
0000
0001
0000
0100
,  // measure 121
0000
0010
1000
0100
,  // measure 122
0110
0000
1000
0001
0000
2000
0000
3002
,  // measure 123
0000
2003
0000
3100
0000
0020
0000
0032
,  // measure 124
0000
0000
1003
0000
0001
0000
1000
0001
,  // measure 125
1000
0000
0001
0100
0000
0001
0100
0000
,  // measure 126
1010
0000
0100
0010
0000
0001
0000
2000
,  // measure 127
0000
3200
0000
0320
0000
0032
0000
0203
,  // measure 128
0000
0000
0301
1000
0000
0020
0000
0130
,  // measure 129
0000
0000
0001
0000
0100
0010
0100
0000
,  // measure 130
1010
0000
0100
0010
0000
0001
0000
0200
,  // measure 131
0000
0301
0000
2000
0000
3100
0000
0010
,  // measure 132
0000
0000
0101
0000
0001
0100
0001
0000
,  // measure 133
0100
0101
0000
1010
0000
0110
0000
0000
,  // measure 134
0011
0000
0000
0010
0100
1000
0100
0000
,  // measure 135
0010
0000
0100
0000
0001
0100
0001
0000
,  // measure 136
2000
0000
3001
0100
0001
0000
1000
0000
,  // measure 137
0010
0000
0100
0000
0010
0100
0010
0000
,  // measure 138
1001
0000
0100
0010
0000
0100
0000
0002
,  // measure 139
0000
2003
0000
3100
0000
0020
0000
0031
,  // measure 140
0100
0000
0001
0000
0100
0000
0010
1000
,  // measure 141
0000
0010
0100
0000
0000
0000
1000
0010
,  // measure 142
1000
0000
0001
0100
0000
0001
0000
0000
,  // measure 143
0100
0010
1000
0000
0100
0010
0100
0010
,  // measure 144
0000
1000
0100
0000
0010
0100
0010
0000
,  // measure 145
0001
0000
0100
0000
0010
1000
0010
0100
,  // measure 146
0000
0010
0100
0000
0001
0100
0000
0100
,  // measure 147
0001
0000
1000
0000
0100
0010
0100
0010
,  // measure 148
0000
1000
0000
0100
0010
0100
0010
1000
,  // measure 149
0000
0100
0010
0001
0000
0100
0010
0100
,  // measure 150
0000
0001
1000
0001
0000
1000
0000
1001
;
