#TITLE:Hacking to the Gate;
#SUBTITLE:[FULL SONG] Steins-Gate OP;
#ARTIST:Itou Kanako;
#TITLETRANSLIT:;
#SUBTITLETRANSLIT:;
#ARTISTTRANSLIT:;
#GENRE:;
#CREDIT:;
#BANNER:[Full Song] Hacking to the Gate.png;
#BACKGROUND:[Full Song] Hacking to the Gate-bg.png;
#LYRICSPATH:;
#CDTITLE:;
#MUSIC:[Full Song] Hacking to the Gate.mp3;
#OFFSET:1.502;
#SAMPLESTART:99.990;
#SAMPLELENGTH:12.000;
#LASTBEATHINT:1.346;
#SELECTABLE:YES;
#BPMS:0.000=161.000,103.500=80.500,111.500=161.000,127.500=80.500,135.500=161.000,327.500=80.500,335.500=161.000,351.500=80.500,359.500=161.000;
#STOPS:551.500=1.491
;
#TIMESIGNATURES:0.000=4=4
;
#BGCHANGES:;
#KEYSOUNDS:;

//---------------dance-single - ----------------
#NOTES:
     dance-single:
     :
     Challenge:
     14:
     0.667,0.810,0.725,0.188,0.120,958.000,185.000,48.000,0.000,0.000,0.000,0.667,0.810,0.725,0.188,0.120,958.000,185.000,48.000,0.000,0.000,0.000: // measure 1
0000
0000
0000
0000
,  // measure 2
0000
0000
0000
0000
,  // measure 3
1010
0000
0100
0010
0100
0010
0100
0010
,  // measure 4
0110
0000
0001
0100
0001
0100
0001
0100
,  // measure 5
0110
0000
0100
0010
0100
0010
1000
0010
,  // measure 6
1010
0000
0100
0010
0100
0010
0100
0001
,  // measure 7
0101
0000
1000
1000
0010
0010
0100
0100
,  // measure 8
0101
0000
0010
0010
0100
0100
0001
0001
,  // measure 9
0110
0000
1000
1000
0001
0001
0100
0100
,  // measure 10
0110
0000
1000
0000
0001
0100
0010
0000
,  // measure 11
0110
0000
1000
0010
0100
0010
1000
0010
,  // measure 12
0100
0010
0110
0000
0100
0000
0001
1000
,  // measure 13
0100
0000
0010
0100
0010
1000
0100
0010
,  // measure 14
0001
0000
0100
0000
1010
0100
0101
1000
,  // measure 15
0110
0000
0110
1000
0010
0100
0001
1000
,  // measure 16
0100
0010
0001
1000
0100
0010
0001
0100
,  // measure 17
1100
0000
1100
0000
1100
0000
1100
0000
0010
0000
0100
0000
0001
0000
0100
0010
,  // measure 18
0100
0010
0100
0000
0100
0000
0101
0000
0100
0000
0100
0010
0100
0010
0100
0010
,  // measure 19
0100
1000
0100
0010
0001
0100
1000
0010
,  // measure 20
0100
0001
0110
0000
0100
0010
1000
0010
,  // measure 21
0100
0010
0001
1000
0100
0010
0001
0100
,  // measure 22
0000
0000
0000
0000
1001
0100
0110
1000
,  // measure 23
0101
0000
0110
1000
0010
0100
0010
1000
,  // measure 24
0001
0100
0010
1000
0100
0010
0001
0100
,  // measure 25
0110
0110
0110
1000
0100
0010
0001
0110
,  // measure 26
0100
0010
0100
0000
0110
0110
0000
0020
,  // measure 27
0000
1000
0000
0100
0100
0000
0001
0000
0100
0100
0100
0000
0000
0000
0130
2000
,  // measure 28
0000
0100
0100
0000
0010
0010
0010
0000
0000
0000
0000
0000
3001
0001
0002
0000
,  // measure 29
0000
1000
1000
0000
0000
0100
0100
0100
,  // measure 30
0000
1000
1003
0000
0000
0000
0100
0010
,  // measure 31
0110
0000
1000
0100
0010
0001
0100
0010
,  // measure 32
0110
0110
0110
0000
1001
1001
0000
0210
,  // measure 33
0000
1000
0000
0010
0010
0000
0001
0000
0010
0010
0010
0000
0000
0000
0000
0320
,  // measure 34
0000
0100
0100
0000
1000
1000
1000
0000
0000
1000
0000
1000
1000
1030
1001
0000
,  // measure 35
0000
0100
0010
0100
0010
0100
0010
0110
,  // measure 36
0000
0100
0010
0100
0010
0100
0010
0110
,  // measure 37
0000
1000
0010
1010
0000
0100
0010
0110
,  // measure 38
0000
0110
0000
0110
0000
1000
0110
0000
,  // measure 39
0110
0000
1000
0100
0010
0001
0100
0010
,  // measure 40
1100
1100
0011
0011
0100
0010
0100
0110
,  // measure 41
0000
0100
0010
0100
0010
1000
1000
1000
,  // measure 42
0100
0010
0001
0100
0010
0100
0010
1000
,  // measure 43
1000
0000
0001
0000
0100
0000
0000
0000
0100
0000
0010
0000
0100
0010
0100
0000
,  // measure 44
0110
0110
0110
0110
0000
1000
0001
1001
,  // measure 45
0000
0100
0010
0100
0010
1000
1000
1000
,  // measure 46
0100
0010
0100
0101
0100
0010
0100
0110
,  // measure 47
0000
0100
0010
0001
1000
0100
0010
0100
,  // measure 48
0011
0011
0011
0011
0100
0010
0100
0110
,  // measure 49
0000
1000
0100
0010
0001
1000
0100
0010
,  // measure 50
0100
1000
1000
0010
0100
0010
0100
0110
,  // measure 51
1000
0000
0100
0000
0010
0000
0001
0000
0100
0000
1000
0000
0100
0000
0010
0001
,  // measure 52
0010
1100
1100
1100
0010
0100
0010
0110
,  // measure 53
0000
1000
0110
0000
0110
0010
1000
0100
,  // measure 54
0010
0001
0100
0110
1000
0010
0100
0110
,  // measure 55
1000
0001
0101
1000
0010
0100
0010
0100
,  // measure 56
0110
0110
1000
0101
0100
0010
0100
2010
,  // measure 57
0000
0010
0000
0000
0010
0000
0010
0000
,  // measure 58
3002
0100
0100
0100
,  // measure 59
0203
0010
0010
0010
,  // measure 60
0320
1000
0100
0100
,  // measure 61
0230
0010
0001
0001
,  // measure 62
0320
1000
0100
0001
,  // measure 63
0230
0000
1000
0000
0010
0000
0001
0300
,  // measure 64
0020
0000
1000
0000
0100
0000
0001
0030
,  // measure 65
1000
0100
1000
0000
0001
0010
0001
0000
0100
1000
0100
0000
0010
0001
0010
0000
,  // measure 66
1000
0001
1000
0000
0100
0010
0100
0000
0001
1000
0001
1000
0100
0010
0100
0010
,  // measure 67
0100
1000
0010
0100
0001
1000
0100
0010
,  // measure 68
0100
0001
0110
0000
0000
0000
0110
1000
,  // measure 69
0100
0010
0100
0001
1000
0010
0100
0010
,  // measure 70
0110
0000
0010
0000
1010
0100
0101
0100
,  // measure 71
0110
1000
0110
1000
0100
0010
0100
0001
,  // measure 72
0110
1000
0100
0010
0001
0100
0010
1000
,  // measure 73
0110
0000
0110
0000
0110
0000
0010
0000
1000
0000
0010
0000
0100
0000
0100
0010
,  // measure 74
1000
0100
0010
0000
0100
0000
0101
0000
1000
0000
0100
0010
0100
0010
0100
0000
,  // measure 75
0110
1000
0100
0010
0001
0100
0010
1000
,  // measure 76
0010
0100
0110
0000
0110
0000
1000
0100
,  // measure 77
0110
0001
0100
0010
0100
0010
0100
0110
,  // measure 78
0000
0000
0000
0000
1010
0100
0110
0001
,  // measure 79
0110
1000
1010
0100
0100
0100
0010
1000
,  // measure 80
0100
0010
0001
0100
0010
1000
0100
0010
,  // measure 81
0110
0110
0110
0110
1000
0001
1000
1001
,  // measure 82
0100
0110
0110
1000
1001
1001
0000
0210
,  // measure 83
0000
0010
0000
0010
0010
0000
1000
0000
0010
0010
0010
0000
0000
0000
0001
0001
,  // measure 84
0000
0010
0010
0000
1000
1000
1000
0000
0000
0000
0000
0000
0010
0010
0320
0000
,  // measure 85
0000
1000
1000
0000
0000
0100
0100
0100
,  // measure 86
0000
0001
0001
0000
0000
0000
0100
0100
,  // measure 87
0230
0000
1000
1000
0000
0010
0010
0000
,  // measure 88
0001
0001
0001
0000
0010
0010
0000
2300
,  // measure 89
0000
0000
0000
0010
0010
0000
0001
0000
0001
0001
0001
0000
0000
0000
0001
3002
,  // measure 90
0000
0100
0100
0000
1000
1000
1000
0000
0000
0000
0000
0000
0010
0010
2003
0000
,  // measure 91
0000
0000
0010
0010
0000
0010
0010
3002
,  // measure 92
0000
0000
0100
0100
0000
0000
0100
0100
,  // measure 93
0000
0103
0010
0110
0000
1000
0001
1001
,  // measure 94
0000
0000
0000
1001
0000
0100
0110
0000
,  // measure 95
1001
0000
0100
0010
0100
0010
0100
0000
,  // measure 96
1010
1010
1010
1010
0000
0100
0010
0110
,  // measure 97
0000
0100
0001
0100
0010
1000
1000
1000
,  // measure 98
0100
0010
0001
0100
0010
0100
0010
0100
,  // measure 99
0010
0100
0101
0100
0010
0100
0010
0100
,  // measure 100
0110
0110
0110
0110
0000
1000
0001
1001
,  // measure 101
0000
0100
0010
0100
0010
1000
1000
0100
,  // measure 102
0010
0100
0010
0100
0010
1000
0010
0110
,  // measure 103
0000
0010
0100
0001
0100
0010
0100
0001
,  // measure 104
0011
0011
0011
0011
0100
0010
0100
0110
,  // measure 105
0100
0000
1100
0010
0100
0010
0100
0010
,  // measure 106
1000
0100
0010
0001
0100
1000
0100
0010
,  // measure 107
0100
0110
0110
1000
0100
0010
0100
0001
,  // measure 108
1100
1100
1100
1100
0010
0100
0010
0110
,  // measure 109
0100
0010
0100
0010
1000
0100
0010
0101
,  // measure 110
0100
0010
0100
0110
1000
0010
0100
0010
,  // measure 111
1000
0010
0110
1000
0100
0010
0001
0100
,  // measure 112
0110
0110
1000
0101
0100
0110
0000
0100
,  // measure 113
0002
0000
0000
0000
0000
0000
0000
0000
0010
0000
0000
0000
0010
0000
0000
0103
,  // measure 114
2000
0000
0000
0000
,  // measure 115
3020
0000
0000
0000
0000
0000
0000
0000
0100
0000
0000
0000
0100
0000
0000
0031
,  // measure 116
0200
0000
0000
0000
,  // measure 117
0302
0000
0000
0000
0000
0000
0000
0000
0100
0000
0000
0000
0100
0000
0000
1003
,  // measure 118
0020
0000
0000
0000
,  // measure 119
2030
0000
0000
0000
0000
0000
0000
0000
0010
0000
0000
0000
0010
0000
0000
3010
,  // measure 120
0002
0000
0000
0000
,  // measure 121
0023
0000
0000
0000
0000
0000
0000
0000
0100
0000
0000
0000
0100
0000
0000
0031
,  // measure 122
2000
0000
0000
0000
,  // measure 123
3002
0000
0000
0000
0000
0000
0000
0000
1000
0000
0000
0000
1000
0000
0000
0013
,  // measure 124
0200
0000
0000
0000
,  // measure 125
0320
0000
0000
0000
0000
0000
0000
0000
0001
0000
0000
0000
0001
0000
0000
0130
,  // measure 126
2000
0000
0000
0000
,  // measure 127
3002
0000
0000
0000
0000
0000
0000
0000
0100
0000
0000
0000
0100
0000
0000
1003
,  // measure 128
0200
0000
0000
0000
,  // measure 129
0320
0000
0000
0000
0000
0000
0000
0000
0001
0000
0000
0000
0001
0000
0000
0031
,  // measure 130
2000
0000
0000
0000
,  // measure 131
3002
0000
0000
0000
0000
0000
0000
0000
1000
0000
0000
0000
1000
0000
0000
1003
,  // measure 132
0200
0000
0000
0000
,  // measure 133
0320
0000
0000
0000
0000
0000
0000
0000
0100
0000
0000
0000
0100
0000
0000
0130
,  // measure 134
2000
0000
0000
0000
,  // measure 135
3002
0000
0000
0000
,  // measure 136
0203
0000
0000
0000
,  // measure 137
0002
0000
0000
0300
,  // measure 138
2000
0000
0000
0000
0000
0000
0000
0000
0000
0000
0000
0000
0000
0000
0000
0000
0000
0000
0000
0000
0000
0000
0000
0000
0000
0000
0000
0000
0000
3003
0000
0000
,  // measure 139
0110
0110
0110
0110
0000
0110
0100
0110
,  // measure 140
0000
1000
0100
0010
0001
1000
1000
1000
,  // measure 141
0010
0100
0010
0110
1000
0100
0010
0101
,  // measure 142
0100
0010
0110
0000
0000
0100
0001
1000
,  // measure 143
0110
0110
0110
0110
1000
0001
1000
1001
,  // measure 144
0100
0010
0100
0010
0100
1000
1000
1000
,  // measure 145
0100
0010
0100
0110
1000
0101
0100
0110
,  // measure 146
1000
0100
0110
0110
0110
1000
0001
0100
,  // measure 147
1100
1100
1100
1100
0010
0100
0010
0110
,  // measure 148
0000
0010
0001
0100
0010
0100
0010
1010
,  // measure 149
0100
0010
0100
0001
1000
0100
0010
0001
,  // measure 150
0100
1000
0110
0000
0000
0000
0100
0001
,  // measure 151
0101
0101
0101
0101
1000
0010
1000
1010
,  // measure 152
0100
0010
0100
0010
1000
1000
1000
0100
,  // measure 153
0010
0100
0010
0110
1000
0100
0001
0101
,  // measure 154
1000
0010
0110
1000
0100
0010
0001
0100
,  // measure 155
0110
0110
1000
0110
0000
0110
0000
2002
,  // measure 156
0000
0000
0000
0000
,  // measure 157
0000
0000
0000
0000
,  // measure 158
0000
0000
0000
0000
,  // measure 159
0000
0000
0000
0000
,  // measure 160
3003
0000
0000
0000
;
