#TITLE:Galau;
#SUBTITLE:[FULL SONG];
#ARTIST:Luzzy feat. Hatsune Miku;
#TITLETRANSLIT:;
#SUBTITLETRANSLIT:;
#ARTISTTRANSLIT:;
#CREDIT:;
#BANNER:[Full Song] Galau.png;
#BACKGROUND:[Full Song] Galau-bg.png;
#LYRICSPATH:;
#CDTITLE:;
#MUSIC:[Full Song] Galau.mp3;
#OFFSET:-0.079;
#SAMPLESTART:100.000;
#SAMPLELENGTH:12.000;
#SELECTABLE:YES;
#BPMS:0.000=118.000;
#STOPS:;
#BGCHANGES:;

//---------------dance-single - ----------------
#NOTES:
     dance-single:
     :
     Challenge:
     7:
     0.254,0.290,0.025,0.119,0.000: // measure 1
0000
0000
0000
0000
,  // measure 2
0000
0000
0000
0000
,  // measure 3
0000
0000
0000
0000
,  // measure 4
0000
0000
0000
0000
,  // measure 5
0000
0000
0000
0000
,  // measure 6
0000
0000
0000
0000
,  // measure 7
1000
1000
1000
0000
,  // measure 8
0100
0100
0100
0000
,  // measure 9
0010
0010
0010
0000
,  // measure 10
0001
0001
0001
0000
,  // measure 11
0100
0010
1000
0100
,  // measure 12
0010
0001
1000
0010
,  // measure 13
0100
1000
0100
0010
,  // measure 14
0001
1000
0001
1000
,  // measure 15
0001
0100
0010
1000
,  // measure 16
0002
0100
1000
1000
,  // measure 17
1003
0100
0010
1000
,  // measure 18
2000
0100
0010
0001
,  // measure 19
3001
0100
0001
0100
,  // measure 20
0200
1000
1000
0010
,  // measure 21
0310
1000
0001
0100
,  // measure 22
0020
1000
0100
0001
,  // measure 23
0031
0100
0010
1000
,  // measure 24
0020
1030
0001
0100
,  // measure 25
0010
1000
0100
0001
,  // measure 26
2000
3001
0100
0010
,  // measure 27
1000
0100
0010
0001
,  // measure 28
1000
0100
0010
0001
,  // measure 29
1000
0100
0010
1000
,  // measure 30
0010
0100
0010
1000
,  // measure 31
0001
0100
0010
1000
,  // measure 32
0100
0010
0001
0100
,  // measure 33
0010
1000
0100
0010
,  // measure 34
0100
0010
1000
0001
,  // measure 35
1001
0001
0001
0001
,  // measure 36
2000
0001
0001
3001
,  // measure 37
0001
0100
0010
0100
,  // measure 38
0002
1000
1000
1003
,  // measure 39
0100
0010
0001
1000
,  // measure 40
0200
0010
0010
0310
,  // measure 41
0100
0010
0001
1000
,  // measure 42
0020
0100
0100
0130
,  // measure 43
1001
0100
0010
1000
,  // measure 44
2000
3100
0100
0010
,  // measure 45
0001
0100
1000
0100
,  // measure 46
0002
0013
1000
1000
,  // measure 47
0010
0001
1000
0010
,  // measure 48
0200
0301
1000
0100
,  // measure 49
0010
0001
0100
0010
,  // measure 50
0020
1030
0100
0010
,  // measure 51
1001
0100
0001
0100
,  // measure 52
2000
0001
0000
0001
,  // measure 53
3001
0100
0010
1000
,  // measure 54
0002
1000
0000
1000
,  // measure 55
1003
0100
0010
0000
,  // measure 56
1000
0001
0100
0000
,  // measure 57
0010
1000
0100
0000
,  // measure 58
0010
0001
0100
0000
,  // measure 59
1000
0010
0001
0000
,  // measure 60
0001
0010
1000
0000
,  // measure 61
1000
0100
0001
0000
,  // measure 62
0001
0100
1000
0000
,  // measure 63
1000
1000
0000
0100
,  // measure 64
0000
0010
0010
0000
,  // measure 65
0001
0000
0010
0010
,  // measure 66
0000
1000
0000
0100
,  // measure 67
0100
0000
0010
0000
,  // measure 68
0001
0001
0000
1000
,  // measure 69
0000
0100
0100
0000
,  // measure 70
0010
0000
0001
0001
,  // measure 71
0000
0100
0000
1000
,  // measure 72
1000
0100
0010
0000
,  // measure 73
0001
0001
0100
0000
,  // measure 74
1000
0100
0002
0000
,  // measure 75
1003
0100
0010
0001
,  // measure 76
0100
0010
2000
0000
,  // measure 77
3001
0100
0010
0001
,  // measure 78
1000
0100
0020
0000
,  // measure 79
0130
0010
0001
0000
,  // measure 80
1000
0100
0002
0000
,  // measure 81
0003
0000
0001
0100
,  // measure 82
2000
0000
3000
0000
,  // measure 83
0100
0010
0002
0000
,  // measure 84
0003
0100
0010
1000
,  // measure 85
0000
0100
0010
0001
,  // measure 86
1000
0001
0100
0010
,  // measure 87
1000
1000
0001
0001
,  // measure 88
0100
0010
1000
0100
,  // measure 89
0010
0001
0100
0001
,  // measure 90
1000
0100
0010
0001
,  // measure 91
1000
0001
0100
0010
,  // measure 92
1000
0001
0100
0010
,  // measure 93
0001
0001
1000
1000
,  // measure 94
0020
0130
0200
0310
,  // measure 95
1001
0100
0010
1000
,  // measure 96
0001
0100
0020
0031
,  // measure 97
0001
0100
0200
1300
,  // measure 98
0100
0010
0001
1000
,  // measure 99
1001
0001
0100
0010
,  // measure 100
0002
1003
2000
3001
,  // measure 101
0100
0010
1000
0100
,  // measure 102
0010
0001
0100
1000
,  // measure 103
0101
1000
0100
0010
,  // measure 104
1000
0001
0100
0010
,  // measure 105
0001
1000
0001
0001
,  // measure 106
1000
0100
0010
0001
,  // measure 107
1000
0100
0000
1000
,  // measure 108
0001
0100
0010
1000
,  // measure 109
0001
1000
0100
0010
,  // measure 110
1000
0001
1000
0001
,  // measure 111
1000
1000
0000
0100
,  // measure 112
0000
0001
0001
0000
,  // measure 113
0010
1000
0000
1000
,  // measure 114
0001
0000
1000
0000
0001
0000
1000
0001
;
1000
0000
0001
0000
1000
0001
;
