#TITLE:Futari no Kimochi no Honto no Himitsu;
#SUBTITLE:[FULL SONG] Kill me Baby! ED;
#ARTIST:Kill me Baby;
#TITLETRANSLIT:;
#SUBTITLETRANSLIT:;
#ARTISTTRANSLIT:;
#CREDIT:;
#BANNER:[Full Song] Futari no Kimochi no Honto no Himitsu.png;
#BACKGROUND:[Full Song] Futari no Kimochi no Honto no Himitsu-bg.png;
#LYRICSPATH:;
#CDTITLE:;
#MUSIC:[Full Song] Futari no Kimochi no Honto no Himitsu.mp3;
#MENUCOLOR:0,0,1,1;
#METERTYPE:DDR X;
#OFFSET:0.000;
#SAMPLESTART:100.050;
#SAMPLELENGTH:12.000;
#SELECTABLE:YES;
#BPMS:0.000=132.000;
#STOPS:;
#BGCHANGES:;

//---------------dance-single - ----------------
#NOTES:
     dance-single:
     :
     Challenge:
     8:
     0.321,0.429,0.210,0.131,0.000: // measure 1
0000
0000
0000
0000
,  // measure 2
0000
0000
0000
0000
,  // measure 3
0000
0000
0000
0000
,  // measure 4
0000
0000
0002
0000
,  // measure 5
1003
0000
0000
0000
,  // measure 6
0000
0000
0020
0000
,  // measure 7
0130
0000
0000
0000
,  // measure 8
0000
0000
2000
0000
,  // measure 9
3001
0000
0000
0000
,  // measure 10
0000
0000
0200
0000
,  // measure 11
0310
0010
1000
0100
,  // measure 12
0010
0000
0001
0100
0010
0000
0100
0000
,  // measure 13
0001
0001
1000
1000
,  // measure 14
0010
1000
0100
0001
0100
0000
0100
0000
,  // measure 15
0010
0010
1000
1000
,  // measure 16
0010
0000
1000
0100
0001
0000
0010
0000
,  // measure 17
1000
0100
0010
0001
,  // measure 18
0001
0010
0100
1000
0001
0000
0100
0000
,  // measure 19
0010
0010
1000
0100
,  // measure 20
1000
0100
0010
0001
0100
0000
0010
0000
,  // measure 21
1000
1000
0001
0001
,  // measure 22
0100
0100
0010
0110
,  // measure 23
1000
1000
0001
0001
,  // measure 24
0100
0100
0010
0110
,  // measure 25
1000
1000
0001
0001
,  // measure 26
0100
0010
0100
0110
,  // measure 27
1000
1000
0010
0010
,  // measure 28
0100
0100
0001
1001
,  // measure 29
0100
0100
0010
1001
,  // measure 30
0010
0010
0010
1000
,  // measure 31
0100
0010
2000
3001
,  // measure 32
0100
0100
0010
0010
,  // measure 33
1000
0001
0002
1003
,  // measure 34
0100
0100
0010
0010
,  // measure 35
1000
0100
0020
0130
,  // measure 36
1000
1000
0001
0001
,  // measure 37
0100
0100
0010
0110
,  // measure 38
1000
1000
0001
0001
,  // measure 39
1000
0100
0010
0100
,  // measure 40
1000
1000
1000
1000
,  // measure 41
0001
1000
0001
1001
,  // measure 42
0001
0001
0001
0001
,  // measure 43
1000
0001
1000
1001
,  // measure 44
0100
0100
0010
0010
,  // measure 45
0100
0100
0010
0110
,  // measure 46
1000
1000
0001
0001
,  // measure 47
1000
1000
0001
1001
,  // measure 48
0100
0100
0100
0010
,  // measure 49
2000
0000
0000
0000
0000
0000
3010
0200
,  // measure 50
0000
0000
0000
0000
0000
0000
0310
0002
,  // measure 51
0000
0000
0000
0000
0000
0000
0013
0200
,  // measure 52
0000
0000
0000
0000
,  // measure 53
2300
0000
0000
3200
,  // measure 54
0320
0000
0000
0032
0000
0000
0000
0023
,  // measure 55
0000
0000
0000
0230
0000
0000
0000
0000
,  // measure 56
0000
0000
0000
0310
,  // measure 57
0110
0110
1010
1010
,  // measure 58
1000
0100
0010
0001
0100
0000
1001
0000
,  // measure 59
0001
0001
0010
0010
,  // measure 60
0001
0010
0100
1000
0010
0000
0110
0000
,  // measure 61
1000
1000
0001
0001
,  // measure 62
1000
0100
0001
0100
1000
0000
1001
0000
,  // measure 63
0001
0001
1000
1000
,  // measure 64
1000
0001
0100
1000
0001
0000
0101
0000
,  // measure 65
1000
0100
0010
0001
1000
0000
1001
0000
,  // measure 66
1000
1000
0010
0010
,  // measure 67
0100
0100
0010
1000
,  // measure 68
0001
0001
1000
1000
,  // measure 69
0010
0010
0100
0100
,  // measure 70
0010
0010
0100
0100
,  // measure 71
0001
0001
1000
1000
,  // measure 72
0010
0010
0010
0010
,  // measure 73
0100
0100
0100
0100
,  // measure 74
0010
0010
0010
0010
,  // measure 75
1000
1000
1000
1000
,  // measure 76
1001
1000
1000
1000
,  // measure 77
1001
1001
0001
0001
,  // measure 78
1001
1001
1000
1000
,  // measure 79
1001
1001
0001
0001
,  // measure 80
0110
0100
0110
0100
,  // measure 81
0110
0100
0110
0100
,  // measure 82
0110
0010
0110
0010
,  // measure 83
0110
0010
0110
0010
,  // measure 84
1001
1000
0001
1001
,  // measure 85
0010
0010
0100
0100
,  // measure 86
0010
1000
0020
0000
,  // measure 87
0130
0100
0010
1000
,  // measure 88
0001
0010
0200
0000
,  // measure 89
0310
1000
0100
0010
,  // measure 90
0001
0010
0200
0000
,  // measure 91
0310
0100
0010
1000
,  // measure 92
0100
0010
0002
0000
,  // measure 93
1003
0000
0010
0000
0100
0000
0000
0220
,  // measure 94
0000
0000
0000
0000
,  // measure 95
0000
0330
0000
0000
;
