#TITLE:Far East Nightbird;
#SUBTITLE:[FULL SONG];
#ARTIST:猫叉Master;
#TITLETRANSLIT:;
#SUBTITLETRANSLIT:;
#ARTISTTRANSLIT:;
#CREDIT:;
#BANNER:[Full Song] Far East Nightbird.png;
#BACKGROUND:[Full Song] Far East Nightbird-bg.png;
#LYRICSPATH:;
#CDTITLE:;
#MUSIC:[FULL SONG] Far East Nightbird.mp3;
#OFFSET:0.000;
#SAMPLESTART:100.050;
#SAMPLELENGTH:12.000;
#SELECTABLE:YES;
#BPMS:0.000=180.001,280.000=120.001,296.000=180.001,460.000=120.001,508.000=180.001,532.000=90.000,548.000=180.001,644.000=45.000,648.000=180.001;
#STOPS:76.000=2.500
,77.500=2.167
,79.500=2.000
,81.500=1.333
;
#BGCHANGES:;

//---------------dance-single - ----------------
#NOTES:
     dance-single:
     :
     Challenge:
     16:
     0.568,0.907,0.214,0.018,0.371: // measure 1
0000
0000
0000
0000
,  // measure 2
0000
0000
0000
0000
,  // measure 3
0000
0000
0000
0000
,  // measure 4
0000
0000
0000
0000
,  // measure 5
0000
0000
0000
0000
,  // measure 6
0000
0000
0000
0000
,  // measure 7
0000
0000
0000
0000
,  // measure 8
0000
0000
0000
0000
,  // measure 9
0000
0000
0000
0000
,  // measure 10
0000
0000
0000
0000
,  // measure 11
0000
0000
0000
0000
,  // measure 12
1000
0000
0001
0000
0000
0100
0010
0000
,  // measure 13
1000
0000
0001
0000
0000
0010
0100
0000
,  // measure 14
1000
0000
0001
0000
0000
0010
0100
0000
,  // measure 15
1000
0100
0010
0001
,  // measure 16
1000
0000
0100
0000
0000
0001
0010
0000
,  // measure 17
1000
0000
0001
0000
0000
1000
0100
0000
,  // measure 18
0010
0000
0100
0000
0000
0010
0100
0000
,  // measure 19
0002
0000
0000
0000
,  // measure 20
1003
0001
0000
1100
1100
0000
0000
0011
,  // measure 21
0011
0000
0000
1001
0000
0000
0000
0000
,  // measure 22
1000
0000
0001
0000
0100
0010
0100
0000
,  // measure 23
1001
0000
0100
0000
0010
0100
0010
0000
,  // measure 24
0001
0010
0100
1000
0100
0010
0001
0000
,  // measure 25
0100
0000
0010
1000
0000
1000
0010
0000
,  // measure 26
0100
0001
0010
0100
1000
0100
0010
0000
,  // measure 27
0100
0000
0010
0100
0000
0100
0010
0000
,  // measure 28
1000
0100
0010
0000
0001
0010
0100
0000
,  // measure 29
1000
0100
0010
0100
0010
0100
0010
0000
,  // measure 30
1000
0100
0010
0000
0001
0100
0010
0000
,  // measure 31
1000
0000
0000
1000
0000
0000
1000
0000
0000
0000
1000
0000
0001
0000
1000
0000
,  // measure 32
0001
0000
0100
0000
0000
0010
0100
0000
,  // measure 33
1000
0100
0010
0001
0000
0100
0010
0100
,  // measure 34
0000
0000
0001
0010
0100
0000
1000
0000
,  // measure 35
0010
0000
0100
0100
0000
1000
0100
0010
,  // measure 36
0000
0000
0100
0000
0010
0100
0010
0000
,  // measure 37
1000
0100
0010
0001
0000
0100
0010
0000
,  // measure 38
0100
0001
0100
1000
,  // measure 39
1001
0000
0100
0000
0010
0100
0001
0010
,  // measure 40
0000
0000
0100
0000
0010
0000
1000
0100
,  // measure 41
0000
0010
0001
0100
,  // measure 42
0010
0000
0010
0000
1000
0100
0010
0000
,  // measure 43
0001
0000
0010
0000
0100
1000
0100
0010
,  // measure 44
0100
0000
0001
0000
0100
1000
0100
0000
,  // measure 45
0010
0000
0100
0000
1000
0100
0001
0000
,  // measure 46
0001
0000
0001
0000
0001
0100
1000
0100
,  // measure 47
0001
0000
0010
0000
0001
0010
1000
0010
,  // measure 48
0000
0000
0100
0000
0001
0000
1000
0100
,  // measure 49
0000
0010
0001
0010
,  // measure 50
0001
0000
1000
0000
0100
0010
0100
0000
,  // measure 51
0001
0000
0010
0000
0100
0000
1000
0100
,  // measure 52
0000
0000
0001
0010
0000
0000
1000
0100
,  // measure 53
0001
1000
1000
0001
,  // measure 54
0100
0010
1000
0100
,  // measure 55
1000
0000
0100
0000
0010
0100
0000
0001
,  // measure 56
0010
0000
0100
0000
1000
0100
0010
0001
,  // measure 57
0100
0000
0010
0000
0001
0010
0000
1000
,  // measure 58
0010
0000
0100
0000
1000
0100
0010
0000
,  // measure 59
0100
0000
0010
0000
0100
0010
0000
0100
,  // measure 60
1000
0000
0100
0000
0001
0010
0100
0000
,  // measure 61
1000
0000
0100
0000
1000
0100
0000
0001
,  // measure 62
0010
0100
0010
0100
,  // measure 63
0000
0000
1000
0100
1000
0100
1000
0000
0001
0010
0001
0010
0001
0000
1000
0100
,  // measure 64
1000
0100
1000
0000
0001
0010
0001
0010
0001
0000
0000
0000
0010
0000
0000
0000
,  // measure 65
0100
0000
0000
0000
1000
0000
0000
0000
1000
0100
1000
0100
1000
0000
0100
0010
,  // measure 66
0100
0010
0100
0000
0010
0001
0010
0001
0010
0000
0010
0000
0001
0000
0000
0000
,  // measure 67
0100
0000
0001
0010
0001
0010
0001
0000
1000
0100
1000
0100
1000
0000
0001
0010
,  // measure 68
0001
0010
0001
0000
1000
0100
1000
0100
1000
0000
0000
0000
0010
0000
0000
0000
,  // measure 69
0001
0000
0000
0000
1000
0000
0000
0000
0001
0010
0001
0010
0001
0000
0100
0010
,  // measure 70
0100
0010
0100
0000
1000
0100
1000
0100
1000
0000
1000
0000
1000
0000
1000
0000
,  // measure 71
0001
0000
0000
0000
0000
0000
0000
0000
0000
0000
0000
0000
0000
0000
0000
0000
0000
0000
0000
0000
0000
0000
0000
0000
0000
0000
0000
0000
0000
0000
0000
0000
0000
0000
0000
0000
0000
0000
0000
0000
0000
0000
0000
0000
0000
0000
0000
0000
0000
0000
0000
0000
0000
0000
0000
0000
0000
0000
0000
0000
0000
0000
0000
0000
1000
0000
0000
0000
0000
0000
0000
0000
0000
0000
0000
0000
0000
0000
0000
0000
0000
0000
0000
0000
0000
1000
0000
0000
0000
0000
0000
0000
0000
0000
0000
0000
0000
0000
0000
0000
0000
0000
0000
0000
0000
0000
0100
0000
0000
0000
0000
0000
0000
0000
0000
0000
0000
0000
0000
0000
0000
0000
0000
0000
0000
0000
0000
0000
0100
0000
0000
0000
0000
0000
0000
0000
0000
0000
0000
0000
0000
0000
0000
0000
0000
0000
0000
0000
0000
0010
0000
0000
0000
0000
0000
0000
0000
0000
0000
0000
0000
0000
0000
0000
0000
0000
0000
0000
0000
0000
0010
0000
0000
0000
0000
0000
0000
0000
0000
0000
0000
0000
0000
0000
0000
0000
0000
0000
0000
0000
0000
0000
,  // measure 72
0001
0000
0000
0000
0000
0000
0000
0000
0000
0000
0000
0000
0000
0000
0000
0000
0000
0000
0000
0000
0000
0001
0000
0000
0000
0000
0000
0000
0000
0000
0000
0000
0000
0000
0000
0000
0000
0000
0000
0000
0000
0000
1000
0000
0000
0000
0000
0000
0000
0000
0000
0000
0000
0000
0000
0000
0000
0000
0000
0000
0000
0000
0000
0000
1001
0000
0000
0000
0000
0000
0000
0000
0000
0000
0000
0000
0000
0000
0000
0000
0000
0000
0000
0000
0000
0100
0000
0000
0000
0000
0000
0000
0000
0000
0000
0000
0000
0000
0000
0000
0000
0000
0000
0000
0000
0000
0110
0000
0000
0000
0000
0000
0000
0000
0000
0000
0000
0000
0000
0000
0000
0000
0000
0000
0000
0000
0000
0000
1000
0000
0000
0000
0000
0000
0000
0000
0000
0000
0000
0000
0000
0000
0000
0000
0000
0000
0000
0000
0000
1000
0000
0000
0000
0000
0000
0000
0000
0000
0000
0000
0000
0000
0000
0000
0000
0000
0000
0000
0000
0000
0001
0000
0000
0000
0000
0000
0000
0000
0000
0000
0000
0000
0000
0000
0000
0000
0000
0000
0000
0000
0000
0000
,  // measure 73
0101
0000
0000
0000
0000
0000
0000
0000
0000
0000
0000
0000
0000
0000
0000
0000
0000
0000
0000
0000
0000
0100
0000
0000
0000
0000
0000
0000
0000
0000
0000
0000
0000
0000
0000
0000
0000
0000
0000
0000
0000
0000
0010
0000
0000
0000
0000
0000
0000
0000
0000
0000
0000
0000
0000
0000
0000
0000
0000
0000
0000
0000
0000
0000
0010
0000
0000
0000
0000
0000
0000
0000
0000
0000
0000
0000
0000
0000
0000
0000
0000
0000
0000
0000
0000
0010
0000
0000
0000
0000
0000
0000
0000
0000
0000
0000
0000
0000
0000
0000
0000
0000
0000
0000
0000
0000
1000
0000
0000
0000
0000
0000
0000
0000
0000
0000
0000
0000
0000
0000
0000
0000
0000
0000
0000
0000
0000
0000
1010
0000
0000
0000
0000
0000
0000
0000
0000
0000
0000
0000
0000
0000
0000
0000
0000
0000
0000
0000
0000
0100
0000
0000
0000
0000
0000
0000
0000
0000
0000
0000
0000
0000
0000
0000
0000
0000
0000
0000
0000
0000
0010
0000
0000
0000
0000
0000
0000
0000
0000
0000
0000
0000
0000
0000
0000
0000
0000
0000
0000
0000
0000
0000
,  // measure 74
0001
0000
0000
0000
0000
0000
0000
0000
0000
0000
0000
0000
0000
0000
0000
0000
0000
0000
0000
0000
0000
0010
0000
0000
0000
0000
0000
0000
0000
0000
0000
0000
0000
0000
0000
0000
0000
0000
0000
0000
0000
0000
0100
0000
0000
0000
0000
0000
0000
0000
0000
0000
0000
0000
0000
0000
0000
0000
0000
0000
0000
0000
0000
0000
0001
0000
0000
0000
0000
0000
0000
0000
0000
0000
0000
0000
0000
0000
0000
0000
0000
0000
0000
0000
0000
0001
0000
0000
0000
0000
0000
0000
0000
0000
0000
0000
0000
0000
0000
0000
0000
0000
0000
0000
0000
0000
0110
0000
0000
0000
0000
0000
0000
0000
0000
0000
0000
0000
0000
0000
0000
0000
0000
0000
0000
0000
0000
0000
0010
0000
0000
0000
0000
0000
0000
0000
0000
0000
0000
0000
0000
0000
0000
0000
0000
0000
0000
0000
0000
0100
0000
0000
0000
0000
0000
0000
0000
0000
0000
0000
0000
0000
0000
0000
0000
0000
0000
0000
0000
0000
0010
0000
0000
0000
0000
0000
0000
0000
0000
0000
0000
0000
0000
0000
0000
0000
0000
0000
0000
0000
0000
0000
,  // measure 75
0110
0000
0000
0000
,  // measure 76
1001
0000
0110
0000
1000
0001
0101
0000
,  // measure 77
0100
0000
0010
1000
0100
0001
0010
0100
,  // measure 78
1000
0000
0000
0000
0010
0000
0000
0000
1000
0001
1000
0000
0001
0000
0000
0000
,  // measure 79
0100
0000
0010
0000
1000
0100
0010
0000
,  // measure 80
1001
0000
0100
0010
0100
0010
0100
0000
,  // measure 81
0001
0000
0010
0100
1000
0100
0010
0001
,  // measure 82
0100
0100
0001
0100
0001
0100
0001
0000
,  // measure 83
1000
0100
0010
0000
0001
0010
0100
0000
,  // measure 84
1000
0000
1000
0000
0001
0100
0001
0000
,  // measure 85
0100
0000
1000
0100
0010
0001
0100
0010
,  // measure 86
0100
0000
0000
0000
0100
0000
0000
0000
0001
1000
0001
0000
0010
0000
0000
0000
,  // measure 87
0001
0010
0100
0010
,  // measure 88
1100
0000
0010
0100
0010
0100
0010
0000
0100
0010
0100
0010
0100
0000
0000
0000
,  // measure 89
0000
0000
1000
0100
0010
0001
0100
1000
,  // measure 90
0100
0010
0100
0001
0100
1000
0100
0001
,  // measure 91
0010
0100
1000
0010
0001
0010
1000
0010
,  // measure 92
1001
0000
0100
0010
0100
0010
0100
0010
,  // measure 93
0000
0010
1000
0010
0000
0100
0010
0100
,  // measure 94
0010
0000
0100
1000
0100
0010
0001
0100
,  // measure 95
0000
0100
0010
1000
0000
1000
0010
0100
,  // measure 96
0010
0000
0100
1000
0000
1000
0100
0010
,  // measure 97
0000
0100
0010
0100
0000
0010
0100
0001
,  // measure 98
0000
0001
0000
0001
0000
1000
0100
0010
,  // measure 99
0000
1000
0000
0010
0000
0000
0100
0000
,  // measure 100
0001
1000
0100
0010
0000
1000
0100
0010
,  // measure 101
0000
0100
0001
0100
0000
0010
0100
1000
,  // measure 102
0100
0000
0001
0010
0000
0100
1000
0100
,  // measure 103
0000
0010
0000
0010
0000
1000
0100
0010
,  // measure 104
0001
0000
0100
0010
0000
0100
0010
1000
,  // measure 105
0000
1000
0000
1000
0000
0100
0010
0001
,  // measure 106
0000
0100
0000
0010
0000
1000
0100
0010
,  // measure 107
0000
0001
0000
0100
0000
0010
1000
0000
,  // measure 108
0010
0000
0000
1000
0000
0000
1000
0000
0000
0010
0000
0000
0100
0000
0001
0000
,  // measure 109
0010
0100
0000
0100
0000
0000
0010
1000
,  // measure 110
0100
0010
1000
0010
,  // measure 111
0100
0100
0010
0000
1000
1000
0001
0000
,  // measure 112
1000
0000
0001
0000
0000
0010
0010
0000
,  // measure 113
0100
0000
1000
0000
0010
0010
0100
0000
,  // measure 114
0001
0000
1000
0100
0010
0001
0100
0000
,  // measure 115
1001
0100
0010
0100
,  // measure 116
1000
0000
0000
0000
0000
0000
0000
0000
0000
0000
0000
0000
0000
0000
0000
0000
0000
0000
0000
0000
0000
1000
0000
0000
0000
0000
0000
0000
0000
0000
0000
0000
0000
0000
0000
0000
0000
0000
0000
0000
0000
0000
0100
0000
0000
0000
0000
0000
0000
0000
0000
0000
0000
0000
0000
0000
0000
0000
0000
0000
0000
0000
0000
0000
0100
0000
0000
0000
0000
0000
0000
0000
0000
0000
0000
0000
0000
0000
0000
0000
0000
0000
0000
0000
0000
0010
0000
0000
0000
0000
0000
0000
0000
0000
0000
0000
0000
0000
0000
0000
0000
0000
0000
0000
0000
0000
0010
0000
0000
0000
0000
0000
0000
0000
0000
0000
0000
0000
0000
0000
0000
0000
0000
0000
0000
0000
0000
0000
0001
0000
0000
0000
0000
0000
0000
0000
0000
0000
0000
0000
0000
0000
0000
0000
0000
0000
0000
0000
0000
0001
0000
0000
0000
0000
0000
0000
0000
0000
0000
0000
0000
0000
0000
0000
0000
0000
0000
0000
0000
0000
0010
0000
0000
0000
0000
0000
0000
0000
0000
0000
0000
0000
0000
0000
0000
0000
0000
0000
0000
0000
0000
0000
,  // measure 117
0010
0000
0000
0000
0000
0000
0000
0000
0000
0000
0000
0000
0000
0000
0000
0000
0000
0000
0000
0000
0000
0100
0000
0000
0000
0000
0000
0000
0000
0000
0000
0000
0000
0000
0000
0000
0000
0000
0000
0000
0000
0000
0100
0000
0000
0000
0000
0000
0000
0000
0000
0000
0000
0000
0000
0000
0000
0000
0000
0000
0000
0000
0000
0000
1001
0000
0000
0000
0000
0000
0000
0000
0000
0000
0000
0000
0000
0000
0000
0000
0000
0000
0000
0000
0000
0100
0000
0000
0000
0000
0000
0000
0000
0000
0000
0000
0000
0000
0000
0000
0000
0000
0000
0000
0000
0000
0110
0000
0000
0000
0000
0000
0000
0000
0000
0000
0000
0000
0000
0000
0000
0000
0000
0000
0000
0000
0000
0000
1000
0000
0000
0000
0000
0000
0000
0000
0000
0000
0000
0000
0000
0000
0000
0000
0000
0000
0000
0000
0000
1100
0000
0000
0000
0000
0000
0000
0000
0000
0000
0000
0000
0000
0000
0000
0000
0000
0000
0000
0000
0000
0010
0000
0000
0000
0000
0000
0000
0000
0000
0000
0000
0000
0000
0000
0000
0000
0000
0000
0000
0000
0000
0000
,  // measure 118
0110
0000
0000
0000
0000
0000
0000
0000
0000
0000
0000
0000
0000
0000
0000
0000
0000
0000
0000
0000
0000
0010
0000
0000
0000
0000
0000
0000
0000
0000
0000
0000
0000
0000
0000
0000
0000
0000
0000
0000
0000
0000
0011
0000
0000
0000
0000
0000
0000
0000
0000
0000
0000
0000
0000
0000
0000
0000
0000
0000
0000
0000
0000
0000
0100
0000
0000
0000
0000
0000
0000
0000
0000
0000
0000
0000
0000
0000
0000
0000
0000
0000
0000
0000
0000
0110
0000
0000
0000
0000
0000
0000
0000
0000
0000
0000
0000
0000
0000
0000
0000
0000
0000
0000
0000
0000
1000
0000
0000
0000
0000
0000
0000
0000
0000
0000
0000
0000
0000
0000
0000
0000
0000
0000
0000
0000
0000
0000
1100
0000
0000
0000
0000
0000
0000
0000
0000
0000
0000
0000
0000
0000
0000
0000
0000
0000
0000
0000
0000
0010
0000
0000
0000
0000
0000
0000
0000
0000
0000
0000
0000
0000
0000
0000
0000
0000
0000
0000
0000
0000
0110
0000
0000
0000
0000
0000
0000
0000
0000
0000
0000
0000
0000
0000
0000
0000
0000
0000
0000
0000
0000
0000
,  // measure 119
0010
0000
0000
0000
0000
0000
0000
0000
0000
0000
0000
0000
0000
0000
0000
0000
0000
0000
0000
0000
0000
0011
0000
0000
0000
0000
0000
0000
0000
0000
0000
0000
0000
0000
0000
0000
0000
0000
0000
0000
0000
0000
0100
0000
0000
0000
0000
0000
0000
0000
0000
0000
0000
0000
0000
0000
0000
0000
0000
0000
0000
0000
0000
0000
0101
0000
0000
0000
0000
0000
0000
0000
0000
0000
0000
0000
0000
0000
0000
0000
0000
0000
0000
0000
0000
1000
0000
0000
0000
0000
0000
0000
0000
0000
0000
0000
0000
0000
0000
0000
0000
0000
0000
0000
0000
0000
1010
0000
0000
0000
0000
0000
0000
0000
0000
0000
0000
0000
0000
0000
0000
0000
0000
0000
0000
0000
0000
0000
1000
0000
0000
0000
0000
0000
0000
0000
0000
0000
0000
0000
0000
0000
0000
0000
0000
0000
0000
0000
0000
1010
0000
0000
0000
0000
0000
0000
0000
0000
0000
0000
0000
0000
0000
0000
0000
0000
0000
0000
0000
0000
0100
0000
0000
0000
0000
0000
0000
0000
0000
0000
0000
0000
0000
0000
0000
0000
0000
0000
0000
0000
0000
0000
,  // measure 120
0110
0000
0000
0000
0000
0000
0000
0000
0000
0000
0000
0000
0000
0000
0000
0000
0000
0000
0000
0000
0000
0010
0000
0000
0000
0000
0000
0000
0000
0000
0000
0000
0000
0000
0000
0000
0000
0000
0000
0000
0000
0000
0011
0000
0000
0000
0000
0000
0000
0000
0000
0000
0000
0000
0000
0000
0000
0000
0000
0000
0000
0000
0000
0000
0100
0000
0000
0000
0000
0000
0000
0000
0000
0000
0000
0000
0000
0000
0000
0000
0000
0000
0000
0000
0000
0110
0000
0000
0000
0000
0000
0000
0000
0000
0000
0000
0000
0000
0000
0000
0000
0000
0000
0000
0000
0000
1000
0000
0000
0000
0000
0000
0000
0000
0000
0000
0000
0000
0000
0000
0000
0000
0000
0000
0000
0000
0000
0000
1100
0000
0000
0000
0000
0000
0000
0000
0000
0000
0000
0000
0000
0000
0000
0000
0000
0000
0000
0000
0000
0010
0000
0000
0000
0000
0000
0000
0000
0000
0000
0000
0000
0000
0000
0000
0000
0000
0000
0000
0000
0000
0110
0000
0000
0000
0000
0000
0000
0000
0000
0000
0000
0000
0000
0000
0000
0000
0000
0000
0000
0000
0000
0000
,  // measure 121
0010
0000
0000
0000
0000
0000
0000
0000
0000
0000
0000
0000
0000
0000
0000
0000
0000
0000
0000
0000
0000
0011
0000
0000
0000
0000
0000
0000
0000
0000
0000
0000
0000
0000
0000
0000
0000
0000
0000
0000
0000
0000
0100
0000
0000
0000
0000
0000
0000
0000
0000
0000
0000
0000
0000
0000
0000
0000
0000
0000
0000
0000
0000
0000
0101
0000
0000
0000
0000
0000
0000
0000
0000
0000
0000
0000
0000
0000
0000
0000
0000
0000
0000
0000
0000
1000
0000
0000
0000
0000
0000
0000
0000
0000
0000
0000
0000
0000
0000
0000
0000
0000
0000
0000
0000
0000
1001
0000
0000
0000
0000
0000
0000
0000
0000
0000
0000
0000
0000
0000
0000
0000
0000
0000
0000
0000
0000
0000
0100
0000
0000
0000
0000
0000
0000
0000
0000
0000
0000
0000
0000
0000
0000
0000
0000
0000
0000
0000
0000
0110
0000
0000
0000
0000
0000
0000
0000
0000
0000
0000
0000
0000
0000
0000
0000
0000
0000
0000
0000
0000
1000
0000
0000
0000
0000
0000
0000
0000
0000
0000
0000
0000
0000
0000
0000
0000
0000
0000
0000
0000
0000
0000
,  // measure 122
1001
0000
0000
0000
0000
0000
0000
0000
0000
0000
0000
0000
0000
0000
0000
0000
0000
0000
0000
0000
0000
0100
0000
0000
0000
0000
0000
0000
0000
0000
0000
0000
0000
0000
0000
0000
0000
0000
0000
0000
0000
0000
1100
0000
0000
0000
0000
0000
0000
0000
0000
0000
0000
0000
0000
0000
0000
0000
0000
0000
0000
0000
0000
0000
0010
0000
0000
0000
0000
0000
0000
0000
0000
0000
0000
0000
0000
0000
0000
0000
0000
0000
0000
0000
0000
0100
0000
0000
0000
0000
0000
0000
0000
0000
0000
0000
0000
0000
0000
0000
0000
0000
0000
0000
0000
0000
0010
0000
0000
0000
0000
0000
0000
0000
0000
0000
0000
0000
0000
0000
0000
0000
0000
0000
0000
0000
0000
0000
1000
0000
0000
0000
0000
0000
0000
0000
0000
0000
0000
0000
0000
0000
0000
0000
0000
0000
0000
0000
0000
0100
0000
0000
0000
0000
0000
0000
0000
0000
0000
0000
0000
0000
0000
0000
0000
0000
0000
0000
0000
0000
0010
0000
0000
0000
0000
0000
0000
0000
0000
0000
0000
0000
0000
0000
0000
0000
0000
0000
0000
0000
0000
0000
,  // measure 123
0001
0000
0000
0000
0000
0000
0000
0000
0000
0000
0000
0000
0000
0000
0000
0000
0000
0000
0000
0000
0000
0100
0000
0000
0000
0000
0000
0000
0000
0000
0000
0000
0000
0000
0000
0000
0000
0000
0000
0000
0000
0000
0010
0000
0000
0000
0000
0000
0000
0000
0000
0000
0000
0000
0000
0000
0000
0000
0000
0000
0000
0000
0000
0000
0010
0000
0000
0000
0000
0000
0000
0000
0000
0000
0000
0000
0000
0000
0000
0000
0000
0000
0000
0000
0000
1000
0000
0000
0000
0000
0000
0000
0000
0000
0000
0000
0000
0000
0000
0000
0000
0000
0000
0000
0000
0000
1000
0000
0000
0000
0000
0000
0000
0000
0000
0000
0000
0000
0000
0000
0000
0000
0000
0000
0000
0000
0000
0000
0001
0000
0000
0000
0000
0000
0000
0000
0000
0000
0000
0000
0000
0000
0000
0000
0000
0000
0000
0000
0000
0001
0000
0000
0000
0000
0000
0000
0000
0000
0000
0000
0000
0000
0000
0000
0000
0000
0000
0000
0000
0000
0100
0000
0000
0000
0000
0000
0000
0000
0000
0000
0000
0000
0000
0000
0000
0000
0000
0000
0000
0000
0000
0000
,  // measure 124
0010
0000
0000
0000
0000
0000
0000
0000
0000
0000
0000
0000
0000
0000
0000
0000
0000
0000
0000
0000
0000
1000
0000
0000
0000
0000
0000
0000
0000
0000
0000
0000
0000
0000
0000
0000
0000
0000
0000
0000
0000
0000
0100
0000
0000
0000
0000
0000
0000
0000
0000
0000
0000
0000
0000
0000
0000
0000
0000
0000
0000
0000
0000
0000
0010
0000
0000
0000
0000
0000
0000
0000
0000
0000
0000
0000
0000
0000
0000
0000
0000
0000
0000
0000
0000
0001
0000
0000
0000
0000
0000
0000
0000
0000
0000
0000
0000
0000
0000
0000
0000
0000
0000
0000
0000
0000
0100
0000
0000
0000
0000
0000
0000
0000
0000
0000
0000
0000
0000
0000
0000
0000
0000
0000
0000
0000
0000
0000
1000
0000
0000
0000
0000
0000
0000
0000
0000
0000
0000
0000
0000
0000
0000
0000
0000
0000
0000
0000
0000
0100
0000
0000
0000
0000
0000
0000
0000
0000
0000
0000
0000
0000
0000
0000
0000
0000
0000
0000
0000
0000
0010
0000
0000
0000
0000
0000
0000
0000
0000
0000
0000
0000
0000
0000
0000
0000
0000
0000
0000
0000
0000
0000
,  // measure 125
0001
0000
0000
0000
0000
0000
0000
0000
0000
0000
0000
0000
0000
0000
0000
0000
0000
0000
0000
0000
0000
1000
0000
0000
0000
0000
0000
0000
0000
0000
0000
0000
0000
0000
0000
0000
0000
0000
0000
0000
0000
0000
0001
0000
0000
0000
0000
0000
0000
0000
0000
0000
0000
0000
0000
0000
0000
0000
0000
0000
0000
0000
0000
0000
1000
0000
0000
0000
0000
0000
0000
0000
0000
0000
0000
0000
0000
0000
0000
0000
0000
0000
0000
0000
0000
0010
0000
0000
0000
0000
0000
0000
0000
0000
0000
0000
0000
0000
0000
0000
0000
0000
0000
0000
0000
0000
0100
0000
0000
0000
0000
0000
0000
0000
0000
0000
0000
0000
0000
0000
0000
0000
0000
0000
0000
0000
0000
0000
1000
0000
0000
0000
0000
0000
0000
0000
0000
0000
0000
0000
0000
0000
0000
0000
0000
0000
0000
0000
0000
0100
0000
0000
0000
0000
0000
0000
0000
0000
0000
0000
0000
0000
0000
0000
0000
0000
0000
0000
0000
0000
0010
0000
0000
0000
0000
0000
0000
0000
0000
0000
0000
0000
0000
0000
0000
0000
0000
0000
0000
0000
0000
0000
,  // measure 126
0001
0000
0000
0000
0000
0000
0000
0000
0000
0000
0000
0000
0000
0000
0000
0000
0000
0000
0000
0000
0000
0001
0000
0000
0000
0000
0000
0000
0000
0000
0000
0000
0000
0000
0000
0000
0000
0000
0000
0000
0000
0000
0100
0000
0000
0000
0000
0000
0000
0000
0000
0000
0000
0000
0000
0000
0000
0000
0000
0000
0000
0000
0000
0000
0100
0000
0000
0000
0000
0000
0000
0000
0000
0000
0000
0000
0000
0000
0000
0000
0000
0000
0000
0000
0000
0010
0000
0000
0000
0000
0000
0000
0000
0000
0000
0000
0000
0000
0000
0000
0000
0000
0000
0000
0000
0000
0010
0000
0000
0000
0000
0000
0000
0000
0000
0000
0000
0000
0000
0000
0000
0000
0000
0000
0000
0000
0000
0000
1000
0000
0000
0000
0000
0000
0000
0000
0000
0000
0000
0000
0000
0000
0000
0000
0000
0000
0000
0000
0000
1000
0000
0000
0000
0000
0000
0000
0000
0000
0000
0000
0000
0000
0000
0000
0000
0000
0000
0000
0000
0000
0100
0000
0000
0000
0000
0000
0000
0000
0000
0000
0000
0000
0000
0000
0000
0000
0000
0000
0000
0000
0000
0000
,  // measure 127
0010
0000
0000
0000
0000
0000
0000
0000
0000
0000
0000
0000
0000
0000
0000
0000
0000
0000
0000
0000
0000
0010
0000
0000
0000
0000
0000
0000
0000
0000
0000
0000
0000
0000
0000
0000
0000
0000
0000
0000
0000
0000
1000
0000
0000
0000
0000
0000
0000
0000
0000
0000
0000
0000
0000
0000
0000
0000
0000
0000
0000
0000
0000
0000
1000
0000
0000
0000
0000
0000
0000
0000
0000
0000
0000
0000
0000
0000
0000
0000
0000
0000
0000
0000
0000
0001
0000
0000
0000
0000
0000
0000
0000
0000
0000
0000
0000
0000
0000
0000
0000
0000
0000
0000
0000
0000
0001
0000
0000
0000
0000
0000
0000
0000
0000
0000
0000
0000
0000
0000
0000
0000
0000
0000
0000
0000
0000
0000
0100
0000
0000
0000
0000
0000
0000
0000
0000
0000
0000
0000
0000
0000
0000
0000
0000
0000
0000
0000
0000
0100
0000
0000
0000
0000
0000
0000
0000
0000
0000
0000
0000
0000
0000
0000
0000
0000
0000
0000
0000
0000
0010
0000
0000
0000
0000
0000
0000
0000
0000
0000
0000
0000
0000
0000
0000
0000
0000
0000
0000
0000
0000
0000
,  // measure 128
1000
0000
1000
0000
0001
0000
0001
0000
0100
0000
0100
0000
,  // measure 129
0010
0000
1000
0000
0010
0100
0110
0000
,  // measure 130
1000
0000
0001
0100
0010
0100
0010
0000
,  // measure 131
1000
0100
0010
0000
0001
0100
0010
0000
,  // measure 132
1000
1000
0001
0010
,  // measure 133
1000
0001
1000
0001
,  // measure 134
1001
0000
0000
0000
0000
0000
1000
0100
0000
0000
0000
0000
0000
0000
0001
0010
,  // measure 135
0000
0000
0000
0000
0000
0000
1000
0000
1000
0000
1000
0000
0001
0010
0100
0000
,  // measure 136
0010
0000
0000
0000
0000
0000
0000
1000
0100
0000
0010
0000
1000
0100
0001
0000
,  // measure 137
0000
0000
0000
0000
0001
0001
0001
0001
,  // measure 138
1001
0000
0100
0000
0010
1000
0001
0001
,  // measure 139
0100
0000
0010
0000
0100
0000
0001
1000
,  // measure 140
0100
0010
0001
0100
,  // measure 141
0100
0000
0010
0000
1000
0100
0001
0000
,  // measure 142
0100
0000
0010
0000
0001
0010
1000
0100
,  // measure 143
0010
0000
0100
0010
0000
0010
0100
0100
,  // measure 144
0010
0000
1000
0100
0010
0000
0001
0000
,  // measure 145
0100
1000
0100
0010
0001
0100
0010
0000
,  // measure 146
1100
0000
0010
0000
0100
0010
0100
0000
,  // measure 147
0001
0000
0010
0000
0100
0010
0100
0000
,  // measure 148
1000
0000
0101
0000
0100
0010
0100
0000
,  // measure 149
1000
0100
0001
0000
0100
0000
1100
0000
,  // measure 150
0100
0010
0100
0000
0001
0010
0100
0000
,  // measure 151
1000
0100
0010
0000
0100
0010
0100
0000
,  // measure 152
1000
0100
0001
0010
0100
0010
0100
0000
,  // measure 153
1000
0100
0010
0000
0001
0100
0010
0000
,  // measure 154
1000
0000
1000
0001
1000
0001
1000
0000
0001
1000
0001
1000
0001
0000
1000
0001
,  // measure 155
1000
0001
1000
0000
0001
1000
0001
1000
0001
0000
0000
0000
0100
0000
0000
0000
,  // measure 156
0010
0000
0000
0000
0001
0000
0001
0000
0010
0100
0010
0100
0010
0000
0100
0010
,  // measure 157
0100
0010
0100
0000
0010
0100
0010
0100
0010
0000
0100
0000
0000
0000
0010
0000
,  // measure 158
0000
0000
0001
1000
0001
1000
0001
0000
0100
0010
0100
0010
0100
0000
0001
1000
,  // measure 159
0001
1000
0001
0000
0010
0100
0010
0100
0010
0000
0010
0000
0000
0000
0010
0000
,  // measure 160
0100
0000
0010
0000
0100
0000
0001
0000
1000
0100
1000
0100
1000
0000
0100
0010
,  // measure 161
0100
0010
0100
0000
0010
0001
0010
0001
0010
0000
0100
0000
0100
0000
0100
0000
,  // measure 162
2000
0000
0000
0000
0000
0000
0000
0000
0002
0000
0000
0000
0000
0000
0000
3003
,  // measure 163
0220
0000
0000
0330
,  // measure 164
1001
0000
0100
0000
0010
0100
0110
0000
,  // measure 165
1000
0000
0100
0010
0001
0010
0100
1000
,  // measure 166
0001
0000
1001
0000
1000
0100
0001
0000
,  // measure 167
0100
0000
0010
0000
0001
0010
1000
0010
,  // measure 168
0001
0000
0100
0000
0001
0100
1000
0000
,  // measure 169
0100
0000
1000
0010
0001
0010
1000
0100
,  // measure 170
0001
0100
1000
0100
0010
0001
0010
1000
,  // measure 171
0010
0001
0010
0100
1000
0010
0001
0100
,  // measure 172
0101
0000
1000
0000
0010
0100
0010
0000
,  // measure 173
0100
0000
1000
0100
0010
0001
0010
0100
,  // measure 174
1000
0000
0001
0000
1000
1000
0001
0000
,  // measure 175
0100
0010
0001
0100
,  // measure 176
1001
0000
0100
0110
0000
1000
1100
0000
,  // measure 177
0010
0000
0100
1000
0100
0010
0001
0100
,  // measure 178
1000
1000
0001
0001
1000
1000
0010
0100
,  // measure 179
1000
0100
0010
0001
0100
0010
0100
0010
,  // measure 180
1000
0000
1000
0000
0010
0000
0010
0000
0100
0000
0100
0000
,  // measure 181
0001
0000
0001
0000
1000
0000
1000
0000
0001
0000
1000
0000
,  // measure 182
1001
0000
0000
1001
0000
0000
1001
0000
;
