#TITLE:F.D.D.;
#SUBTITLE:[FULL SONG] Chaos-Head OP;
#ARTIST:Itou Kanako;
#TITLETRANSLIT:;
#SUBTITLETRANSLIT:;
#ARTISTTRANSLIT:;
#GENRE:;
#CREDIT:;
#BANNER:[Full Song] F.D.D..png;
#BACKGROUND:[Full Song] F.D.D.-bg.png;
#LYRICSPATH:;
#CDTITLE:;
#MUSIC:[Full Song] F.D.D..mp3;
#OFFSET:1.741;
#SAMPLESTART:100.050;
#SAMPLELENGTH:12.000;
#LASTBEATHINT:2.039;
#SELECTABLE:YES;
#BPMS:0.000=165.000;
#STOPS:539.000=0.727
;
#TIMESIGNATURES:0.000=4=4
;
#BGCHANGES:;
#KEYSOUNDS:;

//---------------dance-single - ----------------
#NOTES:
     dance-single:
     :
     Challenge:
     14:
     0.630,0.747,0.293,0.238,0.141,993.000,75.000,61.000,0.000,0.000,0.000,0.630,0.747,0.293,0.238,0.141,993.000,75.000,61.000,0.000,0.000,0.000: // measure 1
0000
0000
0000
0000
,  // measure 2
0000
0000
0000
0000
,  // measure 3
0000
0000
0000
0000
,  // measure 4
0000
0000
0000
0000
,  // measure 5
0110
0000
0100
0001
0100
0100
0000
0010
,  // measure 6
1000
0100
0010
0010
0100
0001
0000
0100
,  // measure 7
1000
0100
0010
0100
0001
0100
0000
0010
,  // measure 8
0100
1000
0100
0001
0010
1000
1000
0001
,  // measure 9
1000
0010
0100
0000
0010
0100
0010
0000
,  // measure 10
1000
0100
0010
0100
0001
0100
0000
0010
,  // measure 11
1000
0100
0010
0100
0001
0100
0000
0010
,  // measure 12
1000
0100
0010
0100
0001
0100
0010
0000
,  // measure 13
2002
0000
0000
3003
,  // measure 14
0110
0000
1000
0100
0001
0000
0100
1000
,  // measure 15
0000
0010
0100
1000
0100
0001
0100
0010
,  // measure 16
0000
0000
0100
1000
0000
0001
0000
0100
,  // measure 17
1000
0010
0000
0100
0000
0101
0000
0000
,  // measure 18
0110
0000
1000
0100
0000
0001
0100
0010
,  // measure 19
0000
1000
0100
0010
0000
0001
0100
0010
,  // measure 20
0000
0000
1000
0100
0000
0010
0000
0001
,  // measure 21
0100
0010
0100
0010
0100
0101
0000
0000
,  // measure 22
0100
0010
2000
0010
0000
0010
0000
0010
,  // measure 23
0000
0001
0000
0010
0000
0001
0000
3000
,  // measure 24
0010
0100
0010
0200
0000
0010
0000
0001
,  // measure 25
0000
0010
0000
0000
1000
1300
0000
0010
,  // measure 26
0110
0000
0001
0000
0100
0010
0100
1000
,  // measure 27
0001
0000
0100
0000
0010
0100
0010
1000
,  // measure 28
0002
0000
0100
0000
0100
0000
0100
0003
,  // measure 29
0200
0000
0010
0000
0010
0000
0010
0300
,  // measure 30
1000
0100
0020
0001
0000
0100
0000
0001
,  // measure 31
0000
1000
0000
0100
0000
0001
0001
0000
,  // measure 32
0031
0010
0200
1000
0000
0010
0000
0001
,  // measure 33
0000
0010
0000
1000
0000
1000
0000
0300
,  // measure 34
0010
1000
0100
0010
0100
0010
0200
0000
,  // measure 35
0310
1000
0100
0001
0100
0010
1000
0100
,  // measure 36
0002
0000
0100
0000
1000
0000
0100
0003
,  // measure 37
2002
0000
0000
3003
,  // measure 38
0110
1000
0100
0010
0100
0001
0100
0010
,  // measure 39
0100
0010
1000
0101
0000
1000
0100
0010
,  // measure 40
0110
0000
1000
0100
0010
0100
0001
0100
,  // measure 41
0020
0000
1000
0000
0100
0000
0031
1000
,  // measure 42
0100
0000
0020
0001
0000
0031
0010
0000
0100
0000
0200
1000
0000
1300
0100
0000
,  // measure 43
0001
0000
0002
1000
0000
1003
0001
0000
1000
0000
0000
0000
0110
0000
0000
0000
,  // measure 44
1000
0100
0010
0001
0100
0010
0000
1000
,  // measure 45
0100
0010
0001
0100
0010
1000
0100
0010
,  // measure 46
0001
0000
0000
0010
0000
0000
0001
0000
0100
0000
0000
0010
0000
0000
1000
0000
,  // measure 47
0100
0000
0000
0010
0000
0000
0001
0000
0000
0000
1000
0000
0100
0000
0010
0000
,  // measure 48
0001
0000
1000
0100
0001
0100
0010
1000
,  // measure 49
0200
0000
0010
0000
0001
0000
0010
0301
,  // measure 50
1000
0000
0200
0010
0000
0310
0100
0000
0010
0000
0002
1000
0000
1003
0001
0000
,  // measure 51
0100
0000
0020
0001
0000
0031
0010
0000
0100
0000
0000
0000
1000
0000
0100
0000
,  // measure 52
0010
0000
0000
0001
0100
0010
1000
0010
,  // measure 53
0100
0000
1000
0100
0010
0100
0001
0100
,  // measure 54
2000
0000
0000
0100
0100
0000
0000
0001
,  // measure 55
0000
0010
0010
0010
,  // measure 56
3002
0000
0000
0100
0100
0000
0000
0000
,  // measure 57
1000
1000
0000
1000
0000
1000
1000
0003
,  // measure 58
1001
0100
0010
0101
,  // measure 59
1000
0110
1000
0101
,  // measure 60
1000
0000
0100
0000
0000
1000
0000
0100
,  // measure 61
0000
0010
0100
0010
1000
0100
0000
0000
,  // measure 62
1000
0100
0001
0100
0010
0100
0000
0000
,  // measure 63
1000
0100
0001
0100
1000
0010
0000
0000
,  // measure 64
0100
0000
0010
0001
0010
0000
0010
0100
0010
0000
0100
0010
0100
0000
0010
0000
,  // measure 65
1000
0000
0000
0000
0100
0000
0000
0010
0100
0000
0000
0000
0100
0000
0000
0000
,  // measure 66
0010
0000
0000
0000
0101
0000
0000
0001
0100
0000
0000
0000
0101
0000
0000
0000
,  // measure 67
0100
0000
0010
0000
0100
0000
0010
2000
,  // measure 68
0000
0000
0000
0000
0002
0000
0000
3003
,  // measure 69
0110
0000
1000
0100
0000
0000
0010
0100
,  // measure 70
0000
0001
1000
0100
0000
0010
0100
0001
,  // measure 71
0000
0000
1000
0100
0000
0010
0000
0100
,  // measure 72
0001
0100
0000
0010
0100
0010
0000
0000
,  // measure 73
1000
0000
0100
0010
0100
0010
1000
0001
,  // measure 74
0000
1000
0100
0010
0000
0001
0100
0010
,  // measure 75
0000
0000
1000
0100
0000
0010
0000
0001
,  // measure 76
0100
0010
0100
0010
0100
0001
0000
0000
,  // measure 77
1000
0100
0010
0200
0000
0010
0000
1000
,  // measure 78
0000
0010
0000
0001
0300
0000
1001
0000
,  // measure 79
0100
0010
0100
0020
0000
0100
0000
0001
,  // measure 80
0000
1000
0000
0000
0001
0031
0000
0100
,  // measure 81
0010
0000
0100
0000
1000
0100
0000
0010
,  // measure 82
0100
0001
1000
0100
,  // measure 83
0010
0000
0100
0000
0001
0000
0100
0010
,  // measure 84
0000
0000
1000
0100
0010
0001
0100
0000
,  // measure 85
1000
0100
0020
0100
0000
1000
0000
0100
,  // measure 86
0000
0001
0000
0100
0000
1000
1000
0000
,  // measure 87
0130
1000
0010
0200
0000
1000
0000
0010
,  // measure 88
0000
0001
0000
0000
0010
0010
0000
0300
,  // measure 89
0001
0100
0010
1000
0100
0010
0002
0000
,  // measure 90
0103
1000
0100
0010
0100
0001
2000
0000
,  // measure 91
0010
0000
0001
0000
0010
0000
0001
3000
,  // measure 92
2002
0000
0000
3003
,  // measure 93
1001
0100
0000
0010
0100
0010
0100
0010
,  // measure 94
1000
0100
0010
0001
0000
1000
0100
0010
,  // measure 95
0001
0000
0100
0010
0100
0010
1000
0100
,  // measure 96
0002
1000
0100
0010
,  // measure 97
1003
0000
0020
1000
0000
1030
0010
0000
0001
0000
0200
0001
0000
0301
0100
0000
,  // measure 98
0010
0000
0020
1000
0000
1030
0010
0000
0010
0000
0000
0000
0101
0000
0000
0000
,  // measure 99
1000
0100
0010
0001
0100
0010
0000
1000
,  // measure 100
0100
0010
0001
0100
0010
0100
0101
0000
,  // measure 101
1000
0100
0010
0100
0001
0100
1000
0100
,  // measure 102
0010
0001
0100
0110
0000
1000
0100
0010
,  // measure 103
0002
0000
0103
1000
0100
0010
0100
0010
,  // measure 104
2000
0100
0010
3001
,  // measure 105
0011
0000
0200
0001
0000
0301
0100
0000
0010
0000
0200
1000
0000
1300
0100
0000
,  // measure 106
0001
0000
0020
0001
0000
0031
0010
0000
0100
0000
0000
0000
1000
0000
0100
0000
,  // measure 107
0010
0000
1000
0100
0010
0001
0100
0010
,  // measure 108
0000
0000
0000
1000
0100
0010
0100
0001
,  // measure 109
1002
0000
0000
0100
0100
0000
0000
2003
,  // measure 110
0000
0000
0010
0000
0010
0000
0010
3000
,  // measure 111
0102
0000
0000
0100
0100
0000
0000
0003
,  // measure 112
1000
0100
0010
0001
0000
0100
0110
0000
,  // measure 113
1001
0110
0010
0011
,  // measure 114
0100
0110
1000
1100
,  // measure 115
2000
0000
0000
0000
0000
0000
0000
3001
,  // measure 116
0000
0100
0010
0000
0100
0010
0100
0010
,  // measure 117
1000
0000
0100
0010
1000
0100
0010
0000
,  // measure 118
0100
0001
0100
0010
0100
0010
0000
0000
,  // measure 119
1000
0100
0010
0001
0100
0010
0100
0000
,  // measure 120
1000
0100
0001
0100
0010
0100
0000
0010
,  // measure 121
1000
0100
0010
0001
0100
0010
0100
0000
,  // measure 122
1000
0100
0010
0001
0100
0010
0100
0001
,  // measure 123
0000
0100
1000
0100
0010
0100
0010
0100
,  // measure 124
0001
0001
0001
0001
,  // measure 125
1000
0010
0100
0010
0100
0010
0000
0000
,  // measure 126
1000
0100
0010
0001
0100
0010
0100
0000
,  // measure 127
1000
0100
0010
0100
0001
0100
0010
0000
,  // measure 128
0010
0100
1000
0100
0001
0100
0000
0100
,  // measure 129
0010
1000
0100
0010
0100
0001
0000
0100
,  // measure 130
1000
0100
0010
0100
0001
1000
0010
0100
,  // measure 131
0000
1000
0100
0010
0000
0100
0001
0100
,  // measure 132
0010
1010
1010
1010
,  // measure 133
0110
0110
0110
0110
,  // measure 134
0001
0101
0000
0010
0011
0000
0011
0100
,  // measure 135
0010
0000
0100
0000
0010
0000
1000
0000
0100
0000
0010
0000
2000
3000
0000
0000
,  // measure 136
1001
0000
0100
0010
0100
0010
1000
0100
,  // measure 137
0010
0100
0001
1000
0000
1000
0100
0010
,  // measure 138
0002
0000
1000
1000
0103
0010
1000
0010
,  // measure 139
0200
0000
0000
0000
1000
0000
0000
0000
0010
0000
0000
0310
0001
0000
0000
0100
,  // measure 140
0010
0000
2000
0001
0000
3001
0100
0000
0010
0000
0200
0001
0000
0301
1000
0000
,  // measure 141
0010
0000
2000
0100
0000
3100
1000
0000
0100
0000
0000
0000
0110
0000
0000
0000
,  // measure 142
1000
0100
0010
0001
0100
1000
0100
0010
,  // measure 143
0001
0000
0100
0010
0100
0000
0010
0100
0010
0000
1000
0000
0001
0000
1000
0000
,  // measure 144
1001
0000
0100
0010
0100
0010
1000
0100
,  // measure 145
0010
0100
0001
0101
0000
1000
0100
0010
,  // measure 146
0100
0000
1000
0100
0010
0100
0001
0100
,  // measure 147
0020
1000
0100
0031
,  // measure 148
0010
0000
0200
0010
0000
0310
1000
0000
0001
0000
0200
0001
0000
0301
0010
0000
,  // measure 149
0100
0000
0002
0010
0000
0013
0001
0000
0100
0000
0000
0000
0001
0000
0100
0000
,  // measure 150
0010
0000
1000
0100
0010
0001
0100
0001
,  // measure 151
0100
0000
0010
1000
0100
0010
0100
0010
,  // measure 152
0102
0000
0000
0100
0100
0000
0000
2003
,  // measure 153
0000
0000
0010
0000
0010
0000
0001
3000
,  // measure 154
0210
0000
0000
0001
0001
0000
0000
0300
,  // measure 155
1000
0100
0010
0101
0000
0100
0110
0000
,  // measure 156
1000
0100
0110
0101
,  // measure 157
0100
0010
0110
1010
,  // measure 158
2002
0000
0000
0000
0000
0000
3003
0110
,  // measure 159
0000
1000
0100
0000
0010
0100
0001
0100
,  // measure 160
0010
1000
0100
0010
0100
0001
0000
0100
,  // measure 161
0010
1000
0100
0010
0100
0001
0100
0020
,  // measure 162
0000
0000
0000
0000
1000
0000
0000
0000
0130
0000
0010
0100
0001
0000
0010
1000
,  // measure 163
0010
0000
0000
0000
1010
0000
0000
0100
0010
0000
0000
0010
0100
0000
0000
0000
,  // measure 164
0011
0000
0000
0000
0001
0000
0000
0010
0100
0000
0000
0100
0010
0000
0000
0000
,  // measure 165
1000
0110
0101
0110
,  // measure 166
1010
0000
0100
0000
0010
1000
0100
0010
,  // measure 167
0101
0000
0000
0100
0010
0000
0000
1000
0010
0000
0000
0100
0010
0000
0000
0000
,  // measure 168
0110
0000
0000
0001
0100
0000
0000
0010
0100
0000
0000
1000
0010
0000
0000
0000
,  // measure 169
0110
0000
0000
0001
0100
0000
0000
1000
0010
0000
0000
0001
0010
0000
0000
0000
,  // measure 170
0110
0000
0000
0010
0100
0000
0000
1000
0001
0000
0000
0010
0100
0000
0000
0000
,  // measure 171
0110
0000
0000
1000
0010
0000
0000
0010
0100
0000
0000
0100
0001
0000
0000
0000
,  // measure 172
0110
0000
0000
0100
0010
0000
0000
0010
0100
0000
0000
1000
0010
0000
0000
0000
,  // measure 173
0110
1001
0110
1001
,  // measure 174
0110
0000
1000
0000
0001
1000
1000
0001
;
