#TITLE:Everlasting Resort;
#SUBTITLE:[FULL SONG];
#ARTIST:SUPER STAR -MITSURU-;
#TITLETRANSLIT:;
#SUBTITLETRANSLIT:;
#ARTISTTRANSLIT:;
#CREDIT:;
#BANNER:[Full Song] Everlasting Resort.png;
#BACKGROUND:[Full Song] Everlasting Resort-bg.png;
#LYRICSPATH:;
#CDTITLE:;
#MUSIC:[Full Song] Everlasting Resort.mp3;
#MENUCOLOR:1,0,0,1;
#METERTYPE:DDR X;
#DISPLAYBPM:74:148;
#OFFSET:-0.232;
#SAMPLESTART:100.030;
#SAMPLELENGTH:12.000;
#SELECTABLE:YES;
#BPMS:0.000=148.000,292.000=74.000,322.000=148.000,462.000=296.000,462.500=148.000,494.000=296.000,494.500=148.000;
#STOPS:128.000=1.622
,462.000=0.101
,494.000=0.101
;
#BGCHANGES:;

//---------------dance-single - ----------------
#NOTES:
     dance-single:
     :
     Challenge:
     13:
     0.466,0.601,0.286,0.256,0.173: // measure 1
0000
0000
0000
0000
,  // measure 2
0000
0000
0000
0000
,  // measure 3
0000
0000
0000
0000
,  // measure 4
0000
0000
0000
0000
,  // measure 5
1001
0100
0000
0100
,  // measure 6
0000
0010
0000
0010
,  // measure 7
0000
0001
0000
0001
,  // measure 8
1000
0000
0001
0000
1000
0001
1000
0000
,  // measure 9
0010
0010
0100
0100
,  // measure 10
0002
0000
0000
0000
,  // measure 11
1003
1000
0100
0100
,  // measure 12
0020
0000
0000
0000
,  // measure 13
0130
0100
0010
0010
,  // measure 14
0002
0000
0000
0000
,  // measure 15
1003
0001
1000
1000
,  // measure 16
0200
0000
0000
0000
,  // measure 17
0310
0001
0100
0100
,  // measure 18
1000
0010
0100
0001
,  // measure 19
1000
0100
0010
1000
,  // measure 20
0010
0100
0001
0100
,  // measure 21
1001
0100
0010
0100
,  // measure 22
0001
0100
0010
0100
,  // measure 23
0010
1000
0100
0010
,  // measure 24
1000
0000
0000
0100
0000
0000
0001
0000
0000
0010
0000
0000
0100
0000
0100
0000
,  // measure 25
1001
0100
0010
0100
,  // measure 26
0010
1000
0100
0010
,  // measure 27
1000
0001
0100
0010
,  // measure 28
1000
0100
0010
1000
,  // measure 29
1001
0100
0010
0100
,  // measure 30
1001
0100
0010
0100
,  // measure 31
0101
1000
0110
0100
,  // measure 32
1001
0100
0100
1001
,  // measure 33
0110
0000
0000
0000
,  // measure 34
2000
0000
0000
0000
,  // measure 35
3200
0000
0000
0000
,  // measure 36
0302
0000
0000
0000
0000
0000
0000
2000
,  // measure 37
0003
0000
0000
0000
,  // measure 38
3200
0000
0000
0000
,  // measure 39
0320
0000
0000
0000
,  // measure 40
0230
0000
0000
0000
,  // measure 41
0302
0000
0000
0000
,  // measure 42
2003
0000
0000
0000
,  // measure 43
3200
0000
0000
0000
,  // measure 44
0320
0000
0000
0000
0000
0000
0000
0002
,  // measure 45
0030
0000
0000
0000
,  // measure 46
2003
0000
0000
0000
,  // measure 47
3200
0000
0000
0000
,  // measure 48
0320
0000
0000
0000
,  // measure 49
0032
0000
0000
0000
,  // measure 50
1003
0100
0010
0001
,  // measure 51
0100
0010
1000
0100
,  // measure 52
0001
1000
0100
0001
,  // measure 53
0100
0010
1000
0100
,  // measure 54
0010
1000
0100
0010
,  // measure 55
0001
0100
0010
0100
,  // measure 56
1000
0000
0001
0000
1000
0000
0001
0000
1000
0001
1000
0001
1000
0001
1000
0001
,  // measure 57
1000
0000
0000
0110
0000
1001
0110
0000
,  // measure 58
1010
0000
0000
0000
0100
1000
0000
0100
0000
0000
0100
0000
0010
0000
0100
0000
,  // measure 59
0020
1000
0100
0100
,  // measure 60
0031
0000
0000
0000
1000
0100
0000
0010
0000
0000
0100
0000
0001
0000
0100
0000
,  // measure 61
0010
0000
0100
0000
1000
1000
0001
0001
,  // measure 62
1001
0000
0000
0000
0100
0010
0000
0010
0000
0000
0001
0000
1000
0000
0010
0000
,  // measure 63
0110
1000
0100
0101
,  // measure 64
1000
0000
0000
0000
0100
0010
0000
0010
0000
0000
0010
0000
0100
0000
0001
0000
,  // measure 65
0101
0000
0000
0110
0000
0000
1010
0000
0000
0000
0001
0000
0010
0000
1000
0000
,  // measure 66
0110
0000
0000
0000
1000
0100
0000
0100
0000
0000
0001
0000
0100
0000
0010
0000
,  // measure 67
2000
0100
0010
0001
,  // measure 68
3100
0000
0000
0000
1000
0100
0000
0100
0000
0000
0100
0000
1000
0000
0010
0000
,  // measure 69
0100
0000
0001
0000
1000
1000
0001
0001
,  // measure 70
1001
0000
0000
0000
0100
0010
0000
0001
0000
0000
0001
0000
0100
0000
0010
0000
,  // measure 71
1001
0000
0100
0010
0100
0001
1000
0001
,  // measure 72
1100
0100
0010
0100
0101
0100
0010
0100
,  // measure 73
0101
0110
1010
0101
,  // measure 74
2001
0000
3200
0000
,  // measure 75
2300
0000
3002
2003
,  // measure 76
3020
0000
0032
0000
,  // measure 77
0023
0000
2030
3200
,  // measure 78
0302
0000
2003
0000
,  // measure 79
3200
0000
0320
2030
,  // measure 80
3002
0000
2003
0000
,  // measure 81
3200
0000
0000
0000
0000
0000
0020
0330
1001
0000
0000
0000
0000
0000
0110
0000
,  // measure 82
0000
0000
1001
0000
1001
0000
0000
0000
1001
0000
0100
1000
0000
0001
0010
0000
,  // measure 83
0200
0000
0000
0000
0300
0000
0010
0000
0100
0000
0010
0001
0000
0010
0100
0000
,  // measure 84
0020
0000
0000
0000
0230
0000
0000
0000
1300
0000
0010
0100
0000
0001
0010
0000
,  // measure 85
0100
1000
0100
0010
,  // measure 86
0001
0000
0000
0000
0100
0000
0010
0000
0100
0000
0010
0001
0000
1000
0100
0000
,  // measure 87
0020
0000
0000
0000
0030
0000
0001
0000
0100
0000
0010
0001
0000
1000
0001
0000
,  // measure 88
0020
0000
0000
0000
0230
0000
0000
0000
1300
0000
0000
0100
0000
0000
0010
0000
,  // measure 89
0100
0000
0000
0000
0000
0000
1000
0001
1000
0001
1000
0000
1000
0000
0010
0001
,  // measure 90
0000
0100
0001
0000
0000
0000
1000
0000
0100
0000
0010
0100
0010
0000
0010
0000
,  // measure 91
0020
0000
0000
0000
0030
0000
0100
0000
0001
0000
0100
0010
0100
0000
0100
0000
,  // measure 92
0100
0000
0000
0000
1000
0000
0000
0000
0100
0000
0001
0010
0001
0000
0001
0000
,  // measure 93
0001
0100
0010
0001
,  // measure 94
0010
0000
0100
0000
1000
0001
1000
0001
,  // measure 95
1000
0001
1000
0001
0100
0010
0100
0010
,  // measure 96
0100
0000
0010
0000
0100
0000
0010
0000
1000
0001
1000
0001
1000
0001
1000
0001
,  // measure 97
1000
0001
1000
0001
1000
0001
1000
0100
0002
0000
0000
0000
0000
0000
1000
0000
,  // measure 98
0000
0000
1000
0000
1003
0000
0000
0000
0110
0000
0001
0010
0001
0000
0100
0010
,  // measure 99
0200
0000
0000
0000
1300
0000
0010
0000
0100
0000
0010
0100
0010
0000
0010
0100
,  // measure 100
0020
0000
0000
0000
0032
0000
0000
0000
1003
0000
0100
0010
0100
0000
0001
0010
,  // measure 101
0001
0000
1000
0000
0010
0000
0010
0000
1000
0000
0000
0010
0000
0000
0001
0000
,  // measure 102
0100
0000
0000
0000
0010
0000
0100
0000
0011
0000
0010
0100
0010
0000
0100
0010
,  // measure 103
0200
0000
0000
0000
0300
0000
0001
0000
1000
0000
0001
0010
0001
0000
1000
0100
,  // measure 104
2000
0000
0000
0000
3100
0000
0000
0000
0010
0000
0000
1000
0100
0000
0010
0000
,  // measure 105
0100
0000
0001
0000
0100
0010
0100
0010
0100
0000
0000
0010
0000
0000
0100
0000
,  // measure 106
0101
0000
0000
0000
0110
0000
0000
0000
1001
0000
0010
0100
0010
0000
1000
0100
,  // measure 107
2000
0000
0000
0000
3000
0000
0100
0000
0001
0000
1000
0100
1000
0000
0010
0100
,  // measure 108
0020
0000
0000
0000
0032
0000
0000
0000
1003
0000
0000
0100
0001
0000
0100
0000
,  // measure 109
0010
0000
0000
0000
0100
0000
0010
0000
0100
0000
0000
1000
0000
0000
0100
0000
,  // measure 110
0001
0000
1000
0010
1001
0100
0010
0100
,  // measure 111
0010
1000
0001
0101
0000
0000
0000
0000
,  // measure 112
0110
0000
1010
0000
0110
0000
1000
0100
,  // measure 113
0010
0000
0001
0000
0100
0000
0010
0000
0100
0000
0000
0010
0000
0000
0100
0000
,  // measure 114
0100
0010
0100
0010
2000
0000
0100
0000
,  // measure 115
0000
0010
3002
0100
,  // measure 116
0000
0013
1001
0110
,  // measure 117
0000
0000
1000
0100
,  // measure 118
0010
0001
1001
0100
,  // measure 119
0010
0000
0100
0000
0101
0000
1000
0010
,  // measure 120
0000
0100
0000
0001
0101
0000
0100
0000
,  // measure 121
0110
1000
0110
0101
,  // measure 122
0110
0000
0000
0110
0000
0000
1010
0000
0110
0000
0000
0000
0010
0000
0000
0000
,  // measure 123
0100
0000
0000
0000
0010
0000
1000
0100
0002
0000
0000
0000
0100
0000
0000
0000
,  // measure 124
0010
0000
0103
0010
0110
0000
1001
0000
,  // measure 125
0000
0010
0100
0010
,  // measure 126
1000
0000
0000
0100
0110
0000
1000
0000
,  // measure 127
0010
0000
0100
0001
0101
0000
0100
0000
,  // measure 128
1002
0000
0103
0000
0110
0000
1000
0001
,  // measure 129
1001
0000
0100
0001
0101
0000
0110
0000
,  // measure 130
1010
0000
0000
0010
0000
0000
0100
0000
0110
0000
0000
0010
0000
0000
0001
0000
,  // measure 131
1001
0000
0010
0100
0020
0000
0000
0000
1030
0000
0000
0100
0000
0000
0010
0000
,  // measure 132
0002
0000
0000
0000
1003
0000
0000
0000
0100
0000
0010
0100
0010
0000
0001
0010
,  // measure 133
0002
0000
0000
0000
0103
0000
0100
0000
0010
0000
0000
1000
0000
0000
0010
0000
,  // measure 134
0100
0000
0001
0000
1000
0000
0010
0000
1100
0000
0010
0001
0010
0000
0010
0100
,  // measure 135
0020
0000
0000
0000
0030
0000
1000
0000
0100
0000
0100
0010
0100
0000
0001
0010
,  // measure 136
0001
0000
0010
0000
0100
0000
0000
0000
0001
0000
0000
1000
0010
0000
0100
0000
,  // measure 137
0010
0000
1000
0000
0100
0000
0010
0000
0001
0000
0000
0001
0000
0000
0001
0000
,  // measure 138
0001
0000
1000
0000
0100
0000
0010
0000
1001
0000
0010
0100
0010
0000
1000
0100
,  // measure 139
2000
0000
0000
0000
3000
0000
0100
0000
0010
0000
0001
0010
0001
0000
0100
1000
,  // measure 140
0100
0000
0100
0000
1000
0000
0000
0000
1000
0000
0000
0010
0000
0000
0001
0000
,  // measure 141
0100
0000
0010
0000
1000
0000
0010
0000
0100
0000
0000
1000
0000
0000
0100
0000
,  // measure 142
0010
0000
1000
0100
0110
0000
0100
0010
,  // measure 143
0100
0001
0100
0001
0001
0000
0000
0000
,  // measure 144
0100
0000
0010
0000
1000
0100
0010
0001
,  // measure 145
0100
0100
0010
0010
1000
0100
0010
0001
,  // measure 146
0100
0100
0010
0010
0110
0010
1000
0100
,  // measure 147
0010
0100
0010
0100
0001
0000
0110
0000
0000
0000
0000
0000
0000
0000
0000
0000
,  // measure 148
0100
0000
0110
0000
1000
0100
0010
0001
,  // measure 149
0100
0010
0100
0010
1000
1000
0001
0001
,  // measure 150
0100
0100
0010
0100
2002
0000
0000
0000
,  // measure 151
0000
0000
0000
0000
,  // measure 152
0000
0000
0000
0000
,  // measure 153
3003
0000
0000
0000
;
