#TITLE:End of Daylight;
#SUBTITLE:[FULL SONG];
#ARTIST:Masayoshi Minoshima;
#TITLETRANSLIT:;
#SUBTITLETRANSLIT:;
#ARTISTTRANSLIT:;
#CREDIT:;
#BANNER:[Full Song] End of Daylight.png;
#BACKGROUND:[Full Song] End of Daylight-bg.png;
#LYRICSPATH:;
#CDTITLE:;
#MUSIC:[Full Song] End of Daylight.mp3;
#MENUCOLOR:0,1,0,1;
#METERTYPE:DDR X;
#OFFSET:-0.150;
#SAMPLESTART:100.050;
#SAMPLELENGTH:12.000;
#DISPLAYBPM:135;
#SELECTABLE:YES;
#BPMS:0.000=135.000,700.000=270.000,703.000=135.000;
#STOPS:700.000=0.222
,701.000=0.222
,702.000=0.222
;
#BGCHANGES:;

//---------------dance-single - ----------------
#NOTES:
     dance-single:
     :
     Challenge:
     9:
     0.414,0.525,0.121,0.385,0.000: // measure 1
0000
0000
0000
0000
,  // measure 2
0000
0000
0000
0000
,  // measure 3
0000
0000
0000
0000
,  // measure 4
0000
0000
0000
0000
,  // measure 5
0000
0000
0000
0000
,  // measure 6
0000
0000
0000
0000
,  // measure 7
0000
0000
0000
0000
,  // measure 8
0000
0000
0000
0000
,  // measure 9
1001
0100
0110
0100
,  // measure 10
0101
0010
1010
0100
,  // measure 11
0101
0010
0011
1000
,  // measure 12
1100
0100
0110
0010
,  // measure 13
0011
0110
1010
0110
,  // measure 14
0101
0110
0110
0110
,  // measure 15
1100
0100
0010
0100
0010
0100
0010
0100
,  // measure 16
0011
0110
1010
0110
,  // measure 17
0201
0001
0320
0001
,  // measure 18
2030
0010
3020
0100
,  // measure 19
0230
1000
1000
1000
,  // measure 20
0010
0010
0302
1000
,  // measure 21
0203
0001
0320
1000
,  // measure 22
2030
0001
3200
0010
,  // measure 23
0302
1000
1000
0100
,  // measure 24
0100
1000
1000
0103
,  // measure 25
2001
0010
3002
0100
,  // measure 26
0203
1000
0320
1000
,  // measure 27
2030
0100
0010
0010
,  // measure 28
0001
3100
2000
0010
,  // measure 29
3002
1000
0203
0001
,  // measure 30
0320
0100
2030
0001
,  // measure 31
3200
0010
0010
0010
,  // measure 32
0001
0001
0301
0001
,  // measure 33
1001
0100
0010
0100
0010
0000
1000
0100
,  // measure 34
0010
0100
1000
0000
0001
0100
0010
0100
,  // measure 35
0001
0000
0100
0010
0100
0010
1000
0000
,  // measure 36
1000
0100
0010
0100
0001
0000
0100
0000
,  // measure 37
0001
0010
0100
1000
0010
0000
0100
1000
,  // measure 38
0100
0010
0100
0000
0001
0100
1000
0010
,  // measure 39
0100
0000
1000
0001
0000
1000
0000
0020
,  // measure 40
0000
0000
1000
0130
,  // measure 41
0110
0000
0100
0010
0100
0000
1000
0100
,  // measure 42
0010
0100
0001
0000
0100
0001
0100
0010
,  // measure 43
1000
0000
1000
0100
0010
0100
0010
0000
,  // measure 44
1000
0100
0001
0100
0010
0000
0100
0000
,  // measure 45
0001
0100
0010
0100
0001
0000
0100
1000
,  // measure 46
0100
0010
1000
0000
1000
0100
0001
0100
,  // measure 47
1000
0000
0010
0100
0010
0100
0001
0000
,  // measure 48
0100
0010
0100
0010
1001
0000
0110
0000
,  // measure 49
2100
0000
3200
0000
,  // measure 50
0320
0000
0230
0000
,  // measure 51
0302
0000
0000
0000
,  // measure 52
0000
0000
2003
3200
,  // measure 53
0320
0000
0230
0000
,  // measure 54
0302
0000
2003
0000
,  // measure 55
3020
0000
0000
0000
,  // measure 56
0000
0000
0000
0030
,  // measure 57
0200
1000
1000
1000
,  // measure 58
0010
0010
0001
0001
,  // measure 59
1000
1000
0010
0010
,  // measure 60
0001
0001
0010
0010
,  // measure 61
0310
0100
0010
0100
0001
1000
0001
1000
,  // measure 62
0100
0010
0100
0010
0001
1000
0001
1000
,  // measure 63
0100
0000
0000
0000
,  // measure 64
0000
0000
1001
0110
,  // measure 65
1002
0000
0103
0010
0100
0000
2000
0000
,  // measure 66
3100
0010
0100
0000
0001
0001
0100
0100
,  // measure 67
2000
0000
3010
0100
0010
0000
0002
0000
,  // measure 68
1003
0010
0100
0000
1000
0100
0010
0000
,  // measure 69
0002
0000
0103
0010
0100
0000
2000
0000
,  // measure 70
3010
0100
0010
0000
0100
0001
0100
0010
,  // measure 71
0020
0130
0020
0130
,  // measure 72
0200
0310
0200
0310
,  // measure 73
1002
0000
0103
0010
0100
0000
2000
0000
,  // measure 74
3010
0100
0010
0000
0100
0001
0100
0001
,  // measure 75
0020
0000
0130
0010
0100
0000
0200
0000
,  // measure 76
0310
0100
0010
0000
1000
0100
0010
0001
,  // measure 77
0010
0100
0010
0100
0001
0000
0001
1000
,  // measure 78
0100
0010
0001
0000
1000
0100
0010
0100
,  // measure 79
0010
0000
0001
0100
0010
0100
0010
0000
,  // measure 80
1000
0100
0010
0002
0010
0000
0100
0000
,  // measure 81
0003
0110
0100
0010
,  // measure 82
0100
0001
0100
0010
,  // measure 83
1000
0100
0010
0001
,  // measure 84
0100
0010
1000
0100
,  // measure 85
0001
0001
1000
1000
,  // measure 86
0100
0100
0010
0010
,  // measure 87
0001
0001
1000
1000
,  // measure 88
0100
0100
0010
0010
,  // measure 89
1000
0010
0010
0100
,  // measure 90
0100
0001
0001
1000
,  // measure 91
0100
0100
0010
0010
,  // measure 92
1000
0001
0100
0010
,  // measure 93
1000
1000
0010
0010
,  // measure 94
0100
0001
0100
0010
,  // measure 95
1000
0100
1000
1000
,  // measure 96
0001
0100
0001
0100
,  // measure 97
0200
0010
2300
0001
,  // measure 98
3200
0010
0302
0100
,  // measure 99
0203
1000
0010
0010
,  // measure 100
0001
0001
0320
0100
,  // measure 101
0230
1000
0320
0100
,  // measure 102
0230
0001
0302
0100
,  // measure 103
2003
0010
0010
0010
,  // measure 104
0010
0010
0001
3001
,  // measure 105
0102
0100
1000
1000
,  // measure 106
2003
0010
3020
0100
,  // measure 107
0230
0001
0001
0010
,  // measure 108
0010
0010
2300
0001
,  // measure 109
3200
0010
0302
0010
,  // measure 110
2003
0001
3200
0010
,  // measure 111
0320
1000
1000
0100
,  // measure 112
0100
0001
0001
0130
,  // measure 113
1001
0100
0010
0100
0010
0000
1000
0100
,  // measure 114
0010
0100
0010
0000
0001
0100
0001
0100
,  // measure 115
0010
0000
1000
0010
1000
0100
0001
0000
,  // measure 116
1000
0100
0001
1000
0010
0000
0100
0000
,  // measure 117
1000
0100
0001
0100
0010
0000
1000
0100
,  // measure 118
0001
1000
0010
0000
0001
1000
0010
1000
,  // measure 119
0002
0000
0103
0010
0000
0100
0000
0020
,  // measure 120
0000
0000
0001
0130
,  // measure 121
0110
0001
0100
0010
0100
0000
1000
0100
,  // measure 122
0001
1000
0001
0000
0100
0010
0100
0010
,  // measure 123
0100
0000
0001
0100
0010
1000
0010
0000
,  // measure 124
0100
0001
1000
0100
0010
0000
0000
0000
,  // measure 125
1000
0001
1000
1000
0100
0000
0100
0100
,  // measure 126
0010
0001
0100
0000
0010
0010
0001
0100
,  // measure 127
0010
0000
1000
0100
0001
0010
1000
0000
,  // measure 128
1000
0100
0010
0001
0101
0000
1010
0000
,  // measure 129
0210
0000
0320
0000
,  // measure 130
2030
0000
3200
0000
,  // measure 131
0320
0000
0000
0000
,  // measure 132
0000
0000
0032
2003
,  // measure 133
3200
0000
0320
0000
,  // measure 134
2030
0000
3200
0000
,  // measure 135
0302
0000
0000
0000
,  // measure 136
0000
0000
0000
0003
,  // measure 137
2000
0100
0100
0100
,  // measure 138
3020
0100
0100
0100
,  // measure 139
0230
0010
0010
0010
,  // measure 140
0302
0010
0010
0010
,  // measure 141
1003
0100
1000
0100
0010
0100
0010
0100
,  // measure 142
0010
0001
0010
0001
0010
0100
0010
0100
,  // measure 143
2000
0000
0000
0000
,  // measure 144
0000
3000
1100
0101
,  // measure 145
1020
0000
0130
0010
0100
0000
0002
0000
,  // measure 146
0103
0010
0100
0000
1000
0100
0010
0001
,  // measure 147
0200
0000
0301
0100
0010
0000
2000
0000
,  // measure 148
3010
0100
0010
0000
0001
0100
0010
0000
,  // measure 149
2000
0000
3100
0010
0100
0000
0002
0000
,  // measure 150
0103
0010
0100
0000
1000
0100
0010
0100
,  // measure 151
0020
0000
0130
0010
0100
0000
0100
0010
,  // measure 152
1000
0000
1000
0100
0010
0000
0100
0000
,  // measure 153
0002
0000
0103
0010
0100
0000
0002
0000
,  // measure 154
1003
0010
1000
0000
0100
0010
0001
0100
,  // measure 155
0020
0000
0130
0010
0100
0000
2000
0000
,  // measure 156
3001
0100
0001
0000
1000
0100
0010
0001
,  // measure 157
0100
1000
0010
0100
0010
0000
1000
0100
,  // measure 158
0010
0100
0001
0000
0100
0001
0100
1000
,  // measure 159
0100
0000
1000
0001
1000
0010
0100
0000
,  // measure 160
1000
0100
0010
2000
0010
0000
0100
0000
,  // measure 161
3020
0000
0032
0000
,  // measure 162
0203
0000
0320
0000
,  // measure 163
2030
0000
0000
0000
,  // measure 164
0000
0000
3002
0000
,  // measure 165
0203
0000
0320
0000
,  // measure 166
0230
0000
2300
0000
,  // measure 167
3002
0000
0000
0000
,  // measure 168
0000
0000
0000
0000
,  // measure 169
0203
1000
1000
1000
,  // measure 170
0320
0001
0001
0001
,  // measure 171
0230
0001
0001
0001
,  // measure 172
0320
1000
1000
1030
,  // measure 173
1000
0100
1000
0100
0010
0100
0010
0100
,  // measure 174
0010
0001
0010
0001
0010
0100
0010
0100
,  // measure 175
1000
0001
1000
0001
1000
0001
1000
0001
,  // measure 176
1100
0000
0011
0000
0101
0000
1010
0010
,  // measure 177
0210
0000
0310
0100
0010
0000
2000
0000
,  // measure 178
3100
0001
0100
0000
0010
1000
0100
0010
,  // measure 179
2000
0000
3010
0100
0010
0000
0002
0000
,  // measure 180
0103
0010
0100
0000
1000
0100
0001
0000
,  // measure 181
0020
0000
1030
0100
0001
0000
0200
0000
,  // measure 182
0310
0100
0010
0000
1000
0100
0010
0001
,  // measure 183
0200
0310
2000
3001
,  // measure 184
0200
1300
0002
0013
,  // measure 185
1200
0000
0310
1000
0010
0000
0200
0000
,  // measure 186
0310
0100
0010
0000
1000
0100
0010
0100
,  // measure 187
0002
0000
0103
0010
0100
0000
2000
0000
,  // measure 188
3001
0100
0001
0000
1000
0100
0010
0001
,  // measure 189
0200
0310
0020
1030
,  // measure 190
2000
3001
0002
0103
,  // measure 191
1000
0100
0010
0100
0001
0100
0010
0100
,  // measure 192
0010
1000
0100
0010
0100
0000
0001
1000
,  // measure 193
0101
0000
0100
0010
0100
0000
0100
0010
,  // measure 194
1000
0000
1000
0001
1000
0000
0001
0100
,  // measure 195
0010
0000
0100
0010
0100
0000
1000
0100
,  // measure 196
0001
0000
0001
0100
0010
0000
1000
0100
,  // measure 197
0010
0000
0001
1000
0001
0000
1000
0010
,  // measure 198
0100
0000
0010
0100
0010
0000
1000
0100
,  // measure 199
0010
0000
0100
0010
0100
0000
0001
0100
,  // measure 200
0001
0000
0100
0010
0100
0000
1000
0001
,  // measure 201
1000
0000
0100
0010
0100
0000
0100
0010
,  // measure 202
0100
0000
0001
0100
0001
0000
0100
0010
,  // measure 203
0100
0000
1000
0010
1000
0000
0100
0001
,  // measure 204
0100
0000
0010
1000
0010
0000
1000
0100
,  // measure 205
1000
0000
0001
0010
0001
0000
0100
0010
,  // measure 206
0100
0000
1000
0100
1000
0000
0010
0100
,  // measure 207
0010
0000
1000
0001
1000
0000
0010
0100
,  // measure 208
0010
0000
1000
0001
1000
0000
0001
0100
,  // measure 209
0200
0000
0000
0000
,  // measure 210
2300
0000
3002
0000
,  // measure 211
0203
0000
0000
0000
,  // measure 212
0000
0000
2300
0000
,  // measure 213
3002
0000
0000
0000
,  // measure 214
0023
0000
2030
0000
,  // measure 215
3200
0000
0000
0000
,  // measure 216
0000
0000
0302
0000
,  // measure 217
2003
0000
0000
0000
,  // measure 218
3020
0000
2030
0000
,  // measure 219
3002
0000
0000
0000
,  // measure 220
0000
0000
0023
0000
,  // measure 221
0230
0000
0000
0000
,  // measure 222
2300
0000
3200
0000
,  // measure 223
0320
0000
0000
0000
,  // measure 224
0000
0000
0230
0000
,  // measure 225
1300
0000
0000
0000
;
