#TITLE:Don't Say Lazy (ANIME HOUSE PROJECT MIX);
#SUBTITLE:[FULL SONG][Remix] K-On! ED;
#ARTIST:anporin;
#TITLETRANSLIT:;
#SUBTITLETRANSLIT:;
#ARTISTTRANSLIT:;
#GENRE:;
#CREDIT:;
#BANNER:[Full Song] Don't Say Lazy (ANIME HOUSE PROJECT MIX).png;
#BACKGROUND:[Full Song] Don't Say Lazy (ANIME HOUSE PROJECT MIX)-bg.png;
#LYRICSPATH:;
#CDTITLE:;
#MUSIC:[Full Song] Don't Say Lazy (ANIME HOUSE PROJECT MIX).mp3;
#OFFSET:-0.050;
#SAMPLESTART:100.000;
#SAMPLELENGTH:12.000;
#SELECTABLE:YES;
#BPMS:0.000=135.000,
32.000=140.000,
34.000=145.000,
36.000=150.000,
38.000=155.000,
40.000=160.000,
42.000=165.000,
44.000=170.000;
#STOPS:
;
#BGCHANGES:;
#KEYSOUNDS:;
#ATTACKS:;

//---------------dance-single - ----------------
#NOTES:
     dance-single:
     :
     Challenge:
     15:
     0.632,0.853,0.141,0.191,0.127,1220.000,42.000,57.000,0.000,0.000,0.000,0.632,0.853,0.141,0.191,0.127,1220.000,42.000,57.000,0.000,0.000,0.000: // measure 0
0000
0000
0000
0000
,  // measure 1
0000
0000
0000
0000
,  // measure 2
0000
0000
0000
0000
,  // measure 3
0000
0000
0000
0000
,  // measure 4
1000
0100
0010
0001
,  // measure 5
1000
0010
0100
0010
,  // measure 6
0002
0000
0000
0000
,  // measure 7
2000
0000
0000
3003
,  // measure 8
1001
0100
0010
0100
,  // measure 9
0110
1000
0100
0010
,  // measure 10
1100
0100
0010
0001
,  // measure 11
0101
0010
0100
0010
,  // measure 12
0011
1000
0100
0010
,  // measure 13
0001
0100
0010
0100
,  // measure 14
1000
0100
1000
0100
1000
0100
0010
0001
0010
0001
0010
0001
0010
0100
0010
0100
,  // measure 15
1000
0000
0000
0000
1000
0000
0000
0000
0001
1000
0001
0000
0001
1000
0001
0000
,  // measure 16
2001
0100
0010
0001
,  // measure 17
3002
0100
0010
1003
,  // measure 18
0210
0010
1000
0010
,  // measure 19
0320
0100
0001
0130
,  // measure 20
1001
0100
0010
0001
,  // measure 21
0100
1000
0100
0010
,  // measure 22
1000
0100
0010
0100
0010
0000
1000
0100
,  // measure 23
0001
0100
1000
0010
0100
0010
0100
0000
,  // measure 24
0110
1000
0100
0010
,  // measure 25
1000
0100
0001
0000
0001
0100
1000
0000
,  // measure 26
1000
0010
0001
0010
,  // measure 27
1000
0010
0001
0000
0001
0010
1000
0000
,  // measure 28
0100
0001
0100
0000
0010
1000
0010
0000
,  // measure 29
1000
0100
0010
0001
0100
0000
0010
0000
,  // measure 30
0001
0100
0001
0100
0001
0000
1000
0100
,  // measure 31
1000
0100
1000
0100
1000
0000
0010
0000
,  // measure 32
0100
0010
0100
0010
1000
0100
0010
0000
,  // measure 33
0100
0010
0100
0001
1000
0010
0010
0000
,  // measure 34
1000
0100
0010
0001
0100
0100
0100
0000
,  // measure 35
0010
1000
0100
0001
1000
1000
1000
0000
,  // measure 36
0010
0001
0100
0010
0001
0001
0001
0000
,  // measure 37
1000
0100
0010
0010
1000
1000
1000
0000
,  // measure 38
0010
0100
0010
0100
0001
0001
0001
0000
,  // measure 39
0100
0010
0100
0001
0100
0000
0110
0000
,  // measure 40
0110
1000
0100
0010
,  // measure 41
0001
0100
0020
1030
,  // measure 42
0100
0010
0001
0100
,  // measure 43
1000
0010
0200
1300
,  // measure 44
0100
0000
0010
0000
0100
0000
0010
0000
1000
0001
1000
0000
0001
1000
0001
0000
,  // measure 45
0100
0000
0010
0000
1000
0000
0001
0000
0100
0000
0010
0100
0010
0100
0010
0000
,  // measure 46
0100
0000
0010
0000
0001
0000
0100
0000
0010
0100
0010
0000
0100
0010
0100
0000
,  // measure 47
1000
0100
0010
0001
1000
0100
0010
0000
,  // measure 48
1000
0100
0010
0000
0100
0010
0100
0001
,  // measure 49
1000
0100
0010
0100
0002
0000
1003
0100
,  // measure 50
0010
0100
0010
0000
0000
1000
0100
0010
,  // measure 51
0001
0100
1000
0100
0020
0000
0130
0000
,  // measure 52
1000
0000
0100
0000
0010
0000
0001
0000
0100
0010
0100
0000
0001
1000
0001
0000
,  // measure 53
1000
0000
0100
0000
0010
0000
0001
0000
0100
0000
1000
0001
1000
0001
1000
0000
,  // measure 54
0100
0000
0001
0000
1000
0000
0010
0000
0100
0010
0100
0000
1000
0001
1000
0000
,  // measure 55
0010
0100
0001
0100
0010
0000
1000
0000
,  // measure 56
0100
0000
0010
1000
0000
0010
0000
0100
,  // measure 57
0000
1000
0000
0010
0100
0000
0010
0100
,  // measure 58
0010
0000
1000
0100
0000
0010
0000
0001
,  // measure 59
0000
0020
0000
0000
0130
0000
1000
0000
,  // measure 60
0200
0000
1300
0010
0000
0100
0000
0010
,  // measure 61
0100
0000
0010
0000
1000
0100
0010
0000
,  // measure 62
0001
0000
0100
0010
0100
1000
0010
0110
,  // measure 63
0000
0100
0100
0101
0000
1010
0000
0000
,  // measure 64
0110
0000
1000
0100
0010
0001
0100
0020
,  // measure 65
0000
1030
0000
0100
0000
0000
0010
0100
,  // measure 66
0010
0000
1000
0100
0010
0001
0100
0010
,  // measure 67
0000
0010
0000
0000
1000
0000
0100
0000
,  // measure 68
0010
0000
0100
0001
1000
0000
0100
0010
,  // measure 69
0100
0000
0001
1000
0010
0000
0100
0001
,  // measure 70
0100
0010
1000
0100
0010
0001
0100
0010
,  // measure 71
1000
0000
0001
0000
0100
0010
0100
0000
,  // measure 72
1000
0100
0010
0100
,  // measure 73
0020
0031
0200
0310
,  // measure 74
1000
0000
0100
0010
0001
0000
0100
0000
,  // measure 75
0010
0100
0020
0130
,  // measure 76
1000
0100
0001
0100
,  // measure 77
0010
0100
0010
0000
1000
0000
0100
0000
,  // measure 78
1000
0100
0010
0001
0100
0000
0010
0100
,  // measure 79
0001
0100
1000
0100
0020
0000
0130
0000
,  // measure 80
1000
0100
0010
0000
0001
0100
0100
0000
,  // measure 81
0010
1000
0100
0010
0002
0000
0103
0000
,  // measure 82
1000
0100
0010
0000
0100
0010
0100
0000
,  // measure 83
0001
0010
0100
0000
0020
0000
1030
0000
,  // measure 84
0100
0010
0001
0000
0100
0010
0100
0000
,  // measure 85
1000
0100
0010
0000
0001
0000
0100
0010
,  // measure 86
1000
0100
0010
0001
0100
0000
1000
0100
,  // measure 87
0010
0100
0001
1000
0020
0000
0130
0000
,  // measure 88
1000
0000
0100
0000
0010
0000
0001
0000
1000
0100
1000
0000
0001
0010
0001
0000
,  // measure 89
1000
0000
0100
0000
0010
0000
0001
0000
0100
0000
0010
0100
0010
0100
0010
0000
,  // measure 90
0100
0000
0010
0000
0001
0000
0100
0000
0010
0100
0010
0000
0001
1000
0001
0000
,  // measure 91
0100
0000
0010
0000
0001
0000
0000
0000
0100
0010
0100
0010
0100
0000
0000
0000
,  // measure 92
1000
0000
0100
0000
0010
0000
0000
0000
0001
0100
0001
0000
1000
0010
1000
0000
,  // measure 93
0010
0000
0100
0000
0001
0000
0000
0000
1000
0000
0100
0010
0100
0010
0100
0000
,  // measure 94
0001
0000
0100
0000
1000
0000
0100
0000
0010
0100
0010
0000
1000
0001
1000
0000
,  // measure 95
0010
0100
0001
0100
0010
0000
1001
0000
,  // measure 96
0110
1000
0100
0010
,  // measure 97
0001
1000
0010
0001
,  // measure 98
0100
1000
0100
0010
,  // measure 99
1000
0100
0010
0001
,  // measure 100
1000
0000
0100
0000
0010
0000
0001
0000
1000
0100
1000
0000
0001
0010
0001
0000
,  // measure 101
0100
0000
0000
0000
0010
0000
0000
0000
1000
0000
0100
0010
0100
0010
0100
0000
,  // measure 102
0001
0000
1000
0000
0100
0000
0010
0000
0100
0010
0100
0000
0010
0100
0010
0000
,  // measure 103
1000
0100
0010
0001
0100
0010
0100
0000
,  // measure 104
1000
0100
0010
0001
,  // measure 105
1000
0100
0010
0001
,  // measure 106
1000
0100
0010
0001
,  // measure 107
0100
1000
0100
0010
,  // measure 108
1001
0000
0100
0000
0010
0000
0100
0000
0001
1000
0001
0000
1000
0001
1000
0000
,  // measure 109
0010
0000
0100
0000
0010
0000
1000
0000
0100
0000
0001
1000
0001
1000
0001
0000
,  // measure 110
0010
0000
1000
0000
0100
0000
0010
0000
0001
1000
0001
0000
1000
0001
1000
0000
,  // measure 111
0010
0100
0010
1000
0100
0010
0001
0000
,  // measure 112
1000
0000
0100
0010
0000
0100
0000
0010
,  // measure 113
0000
2000
0000
0000
0100
3000
0001
0000
,  // measure 114
0100
0000
0010
1000
0000
0010
0000
0100
,  // measure 115
0000
0002
0000
0000
0103
0000
1000
0000
,  // measure 116
0100
0000
0010
1000
0000
0100
0000
0010
,  // measure 117
0100
0000
0010
0000
1000
0100
0010
0000
,  // measure 118
0100
0000
0010
0100
0001
0100
0010
1001
,  // measure 119
0000
0001
0001
1001
0000
0110
0000
0000
,  // measure 120
0110
0000
1000
0100
0010
0001
0100
0010
,  // measure 121
1000
0100
0000
0000
0000
0000
0001
0100
,  // measure 122
0010
0000
1000
0100
0000
0010
0100
1000
,  // measure 123
0000
0100
0000
0000
0000
0000
0100
0010
,  // measure 124
0100
0000
0010
0100
0010
0000
1000
0001
,  // measure 125
1000
0000
0001
1000
0001
0000
1000
0100
,  // measure 126
0010
0100
1000
0001
0100
0000
0010
0000
,  // measure 127
0100
0010
1000
0100
0010
0000
0000
0000
,  // measure 128
0101
0000
1000
0000
0100
0010
0100
0000
,  // measure 129
1000
0100
0001
0100
1000
0000
0110
0000
,  // measure 130
0100
0000
0001
0100
0010
0000
0100
1000
,  // measure 131
0010
0001
0010
0000
0110
0000
0101
0000
,  // measure 132
1000
0100
0001
0100
0010
0000
0100
0010
,  // measure 133
1000
0000
0100
0010
0100
0000
1000
0100
,  // measure 134
0010
0001
1000
0001
0100
0000
0100
0001
,  // measure 135
0100
0010
1000
0010
0100
0010
0010
0000
,  // measure 136
1000
0100
0010
0000
0100
0001
0100
0000
,  // measure 137
0010
0100
0001
1000
0100
0000
0010
0000
,  // measure 138
1000
0100
0001
0000
0100
0010
0100
0010
,  // measure 139
1000
0000
0100
0010
1000
0000
0001
0000
,  // measure 140
1000
0100
1000
0000
0010
0000
0001
0000
,  // measure 141
0010
0000
0100
0000
0010
0000
1000
0100
,  // measure 142
0010
0100
0001
0100
0010
0000
0001
0010
,  // measure 143
0100
0010
0001
1000
0010
0000
0100
0000
,  // measure 144
1000
0100
0010
0000
1000
0000
0100
0000
,  // measure 145
0010
2000
0000
3020
0000
0230
0000
0302
,  // measure 146
0000
2003
0000
3200
0000
0320
0000
0230
,  // measure 147
0000
0302
0000
2003
0000
3200
0000
0320
,  // measure 148
0000
0230
0000
2300
0000
3200
0000
0320
,  // measure 149
0000
0032
0000
0203
0000
0320
0000
2030
,  // measure 150
0000
3200
0000
0320
0000
0032
0000
0203
,  // measure 151
0000
0320
0000
2030
0000
3200
0000
0320
,  // measure 152
0000
0030
1000
0000
0100
0010
0100
0000
,  // measure 153
1000
0100
0010
0000
1000
1000
0010
0000
,  // measure 154
1000
1000
0001
0000
0100
0100
0010
0000
,  // measure 155
0001
0001
0100
1000
0010
0100
0020
0000
,  // measure 156
1030
0100
0010
0000
1000
0100
0001
0000
,  // measure 157
0100
1000
0100
0010
1000
1000
0020
0000
,  // measure 158
0130
1000
0010
0000
0001
0100
0010
0000
,  // measure 159
1000
0100
0010
0100
0001
0000
0110
0000
,  // measure 160
1010
0000
0100
0010
0000
0100
0000
0001
,  // measure 161
0000
2000
0000
0000
0000
0000
3010
0000
,  // measure 162
0100
0000
0010
0001
0000
0100
0000
0010
,  // measure 163
0000
0002
0000
0000
0000
0003
0100
0000
,  // measure 164
1000
0000
0010
0100
0000
0000
0010
0100
,  // measure 165
0010
1000
0100
0010
,  // measure 166
0100
0000
0001
1000
0000
0010
0100
0011
,  // measure 167
0000
0100
0100
1100
0000
0000
0000
0000
,  // measure 168
1000
0100
0010
0001
0000
0100
0010
0200
,  // measure 169
0000
0310
0000
0000
1100
0000
0010
0100
,  // measure 170
0010
0000
0100
0001
0000
0010
0100
0010
,  // measure 171
0000
0100
0000
0000
0000
0000
0100
0010
,  // measure 172
0110
0000
0001
0010
0011
0000
1000
0100
,  // measure 173
1100
0000
0010
0100
0110
0000
0001
0010
,  // measure 174
0011
0000
1000
0100
0010
0001
0100
0010
,  // measure 175
1000
0100
0010
0001
0100
0010
1000
0001
,  // measure 176
0000
1001
0100
0010
,  // measure 177
1000
0000
0100
0000
0010
0100
0010
0000
,  // measure 178
1000
0100
0010
0001
,  // measure 179
1000
0000
0010
0000
0001
1000
0001
0000
,  // measure 180
0100
0010
1000
0100
,  // measure 181
0010
0100
0010
0000
0110
0000
1000
0000
,  // measure 182
0100
0010
0001
0100
0010
0000
1000
0100
,  // measure 183
0010
0001
0100
0010
1000
0100
0010
0000
,  // measure 184
0110
1000
0100
0010
,  // measure 185
1000
0001
0100
0000
0010
0100
0010
0000
,  // measure 186
1000
0100
0010
0000
0100
0000
0010
0000
,  // measure 187
1000
0000
0100
0000
0010
0100
0010
0000
,  // measure 188
1001
0000
0100
0010
0100
0000
0001
0000
,  // measure 189
1001
0000
0100
0000
0010
0000
0100
1000
,  // measure 190
0100
0010
0001
0100
0010
0000
0010
0001
,  // measure 191
0010
0100
1000
0100
0010
0001
0100
0000
,  // measure 192
0100
0000
1000
0000
0100
0000
0000
0000
1000
0100
1000
0000
0010
0100
0010
0000
,  // measure 193
0001
0000
1000
0000
0010
0000
0000
0000
0100
0000
0010
0001
0010
0001
0010
0000
,  // measure 194
1000
0000
0100
0000
0001
0000
0000
0000
0010
0100
0010
0000
1000
0001
1000
0000
,  // measure 195
0010
0000
0100
0000
0001
0000
0000
0000
0100
0000
0010
0100
0010
0100
0010
0000
,  // measure 196
0100
0000
0010
0000
1000
0000
0000
0000
0100
0010
0100
0000
0010
0100
0010
0000
,  // measure 197
0010
0000
0100
0000
1000
0000
0000
0000
0100
1000
0100
1000
0100
0000
0000
0000
,  // measure 198
0001
0000
0100
0000
0010
0000
0000
0000
1000
0100
1000
0000
0001
0010
0001
0000
,  // measure 199
1000
0000
0010
0000
0100
0000
0000
0000
0001
0000
1000
0010
1000
0010
1000
0000
,  // measure 200
0100
0000
0001
0000
1000
0000
0000
0000
0010
0100
0010
0000
0100
0010
0100
0000
,  // measure 201
1000
0000
0010
0000
1000
0000
0001
0000
0100
0000
0010
0100
0010
0100
0010
0000
,  // measure 202
1000
0000
0100
0000
0001
0000
0000
0000
0010
0001
0010
0000
0010
0001
0010
0000
,  // measure 203
1000
0000
0100
0000
0001
0000
0000
0000
0001
0000
1000
0001
1000
0001
1000
0000
,  // measure 204
0100
0000
0010
0000
0100
0000
0000
0000
0010
1000
0010
0000
0010
1000
0010
0000
,  // measure 205
0010
0000
0000
0000
1000
0000
0100
0000
0010
0000
0001
0100
0001
0100
0001
0000
,  // measure 206
0010
1000
0001
0100
1000
0100
0010
0001
,  // measure 207
1000
0000
0001
0000
0100
0010
0100
0000
,  // measure 208
2002
0000
0000
0000
,  // measure 209
0000
0000
0000
0000
,  // measure 210
0000
0000
0000
0000
,  // measure 211
0000
0000
0000
0000
,  // measure 212
3003
0000
0000
0000
;
