#TITLE:Coloring;
#SUBTITLE:[FULL SONG] Papa no iu koto wo Kikinasai! ED;
#ARTIST:堀江由衣;
#TITLETRANSLIT:;
#SUBTITLETRANSLIT:;
#ARTISTTRANSLIT:Yui Horie;
#CREDIT:;
#BANNER:[Full Song] Coloring.png;
#BACKGROUND:[Full Song] Coloring-bg.png;
#LYRICSPATH:;
#CDTITLE:;
#MUSIC:[Full Song] Coloring.mp3;
#OFFSET:0.000;
#SAMPLESTART:100.010;
#SAMPLELENGTH:12.000;
#SELECTABLE:YES;
#BPMS:0.000=116.980,218.500=233.960,219.500=116.980,334.500=233.960,335.500=116.980,336.000=58.490,336.500=116.980,412.500=233.960,414.000=116.980;
#STOPS:2.000=1.282
,7.500=0.769
,218.500=0.128
,219.000=0.128
,268.000=2.052
,274.000=1.026
,274.500=0.128
,275.000=0.128
,275.500=1.026
,276.000=0.128
,276.500=0.128
,277.000=1.026
,277.500=0.128
,278.000=0.128
,278.500=0.256
,282.000=1.026
,284.000=1.026
,286.000=1.026
,288.000=1.026
,334.500=0.128
,335.000=0.128
,402.500=0.256
,410.000=0.256
,412.500=0.128
,413.000=0.128
,413.500=0.128
;
#BGCHANGES:;

//---------------dance-single - ----------------
#NOTES:
     dance-single:
     :
     Challenge:
     14:
     0.605,0.635,0.333,0.180,0.412: // measure 1
0000
0000
0000
0000
,  // measure 2
0000
0000
0000
0000
,  // measure 3
0000
0000
0000
0000
,  // measure 4
1010
0000
0100
0010
0100
0010
0100
0000
0021
0000
1030
0000
0110
0000
0000
0000
,  // measure 5
1000
0000
0010
0100
0010
0100
0010
0000
1100
0000
1100
0000
0011
0000
0011
0000
,  // measure 6
1000
0000
0100
0000
0010
0100
0001
0000
2010
0000
3100
0000
0001
0010
0100
1000
,  // measure 7
0100
0000
0010
0001
0000
0100
1000
0000
0100
0000
0100
0000
0010
0000
0010
0000
,  // measure 8
1000
0000
0100
0010
0001
0010
0100
0000
1000
0000
0010
0001
0020
0000
0000
0000
,  // measure 9
0130
0000
1000
0000
0100
0010
0100
0000
0001
0000
0100
0000
0110
0000
0000
0000
,  // measure 10
1000
0000
0001
0010
0100
0000
1000
0000
0200
0000
0000
0310
0000
0000
0000
0000
,  // measure 11
0120
1000
0130
0000
0210
0001
0310
0000
,  // measure 12
0000
0000
1000
0000
1000
0100
0001
0000
0100
0000
1000
0001
2000
0000
0000
0000
,  // measure 13
3100
0000
0010
0000
0001
0010
0100
0000
0010
0000
0000
0100
0000
0000
0100
0000
,  // measure 14
0000
0000
2000
0000
0000
3200
0000
0000
0320
0000
0000
0032
0000
0000
0103
0000
,  // measure 15
0000
0000
1000
0000
0000
0100
0000
0000
0010
0000
0000
0001
0000
0000
0100
0000
,  // measure 16
0000
0000
1000
0100
1000
0100
0010
0000
0001
0000
0010
0200
0000
0000
0310
0000
,  // measure 17
1001
0000
1000
0000
0100
0010
0100
0010
0100
0000
1000
0000
0001
0000
0100
0000
,  // measure 18
0000
0000
1000
0010
0100
0000
0001
0000
0100
0000
1000
0010
0002
0000
0103
0000
,  // measure 19
1001
0110
1000
1001
0000
1001
0100
0110
,  // measure 20
0000
0000
0001
0010
0001
0010
1000
0000
0001
0000
0100
0020
0000
0000
1030
0000
,  // measure 21
0110
0000
2000
0000
3100
0010
0000
0000
1000
0000
0000
0001
0000
0000
1000
0000
,  // measure 22
0000
1000
1001
0110
0000
0010
0110
1001
,  // measure 23
0000
1000
0100
0110
0001
0100
1001
0110
,  // measure 24
0000
1000
1000
1000
1200
0301
0001
0001
,  // measure 25
0021
1030
1000
2001
3001
1001
0001
1001
,  // measure 26
1000
0100
0010
0001
0100
1000
0100
0001
,  // measure 27
0010
1000
1000
1000
0001
1001
0001
1001
,  // measure 28
1001
0000
0100
0000
0110
0000
1000
0000
0010
0000
0100
0010
0000
0001
1000
0010
,  // measure 29
1000
0000
0100
0010
0000
1000
0001
0000
0210
0000
0001
0000
0310
0000
0000
0000
,  // measure 30
0110
0000
1000
0000
0100
0000
0010
0000
0001
0000
0100
0010
0000
0100
1000
0100
,  // measure 31
1000
0000
0010
0001
0000
0100
0010
0000
0100
0000
0100
0010
0000
0100
1000
0100
,  // measure 32
1000
0000
0010
0000
0001
0000
0100
0000
1000
0000
0010
0100
0000
0010
0100
0010
,  // measure 33
0100
0000
0010
0100
0000
0100
0010
0000
0210
0000
1000
0000
0310
0000
0000
0000
,  // measure 34
0100
0000
1001
0000
0100
0000
0001
0000
0100
0000
1001
0000
0010
0001
0010
0100
,  // measure 35
1000
0010
0100
0010
0001
0010
0010
0010
,  // measure 36
1000
0000
0100
0000
0010
0001
0100
0000
0010
0000
0000
0000
0110
0000
0000
0000
,  // measure 37
0000
0000
0100
0010
1000
0001
0100
0000
0010
0000
0100
0000
0100
0000
0010
0000
,  // measure 38
0000
0000
1000
0000
0100
0001
0010
0001
0100
0000
0000
0000
0110
0000
0000
0000
,  // measure 39
0000
0100
1000
0100
0010
0100
0001
0110
,  // measure 40
0000
0000
0010
0100
0010
0100
0000
1000
0000
0000
0100
0010
0000
0000
0000
0000
,  // measure 41
1000
0000
0100
0010
0100
0010
0000
1000
0001
0000
0001
0000
1000
0000
1000
0000
,  // measure 42
0000
0010
0100
0100
1000
0100
0010
0000
,  // measure 43
0100
1000
0110
0010
0100
0001
0110
0010
,  // measure 44
0000
0000
1000
0100
1000
0100
0010
0000
0001
0000
0100
0010
0002
0000
0103
0000
,  // measure 45
1001
0100
0010
0001
0100
0010
1000
0100
,  // measure 46
0000
0001
0010
1000
0001
0100
1000
0001
,  // measure 47
0010
1000
0100
0001
0100
1100
0010
0011
,  // measure 48
1000
0000
1000
0000
0001
0000
0001
0000
1000
0000
0100
1000
0000
0010
1000
0010
,  // measure 49
0100
0000
0001
0010
0000
0100
1000
0000
0021
0000
1000
0000
0130
0000
0000
0000
,  // measure 50
0100
0000
0100
0000
0010
0000
0010
0000
1000
0000
0100
0010
0000
0001
1000
0010
,  // measure 51
1000
0000
0001
0010
0000
0010
0100
0000
0010
0000
0010
0100
1000
0000
0100
0010
,  // measure 52
0100
0000
0010
0000
0100
0000
0001
0000
0010
0000
0010
0100
0000
0010
0001
0010
,  // measure 53
1000
0000
0100
0010
0000
0010
0001
0000
1200
0000
0001
0000
0310
0000
0000
0000
,  // measure 54
0001
0000
0001
0000
1001
0000
1000
0000
0001
0000
1001
0000
1000
0010
1000
0010
,  // measure 55
0100
0100
0010
0010
0001
1001
0110
1001
,  // measure 56
0100
0000
0100
0000
0100
0000
0010
0000
0010
0000
0100
0010
0000
0001
1000
0010
,  // measure 57
0100
0000
0010
0100
0000
0001
0100
0000
0210
0000
1000
0000
0310
0000
0000
0000
,  // measure 58
1000
0000
0100
0000
0010
0000
0001
0000
1000
0000
0010
0100
0000
0010
0100
0010
,  // measure 59
0001
0000
1000
0100
0000
0001
0010
0000
0100
0000
0100
0010
0000
0100
1000
0010
,  // measure 60
0100
0000
0001
0000
0010
0000
0100
0000
1000
0000
0010
0100
0000
0010
0001
0010
,  // measure 61
0001
0000
0100
0010
0000
0010
1000
0000
0120
0000
0001
0000
0130
0000
0000
0000
,  // measure 62
0100
0000
1000
0000
0100
0000
0010
0000
0001
0000
0100
0000
1000
0010
0001
0010
,  // measure 63
0001
1000
0100
0010
0001
0100
0100
0100
,  // measure 64
0020
1000
0130
0000
0020
0100
0031
0000
,  // measure 65
0200
0010
1300
0000
0200
0010
0301
0000
,  // measure 66
0001
0010
0100
0000
0100
0010
0001
0000
,  // measure 67
0010
0100
1000
0000
1000
0100
0010
0100
,  // measure 68
2002
3003
0000
0000
0000
0000
0010
0100
,  // measure 69
1000
0100
0010
0000
0000
0001
0000
0000
0110
0000
0110
0000
0010
0000
0010
0000
,  // measure 70
1001
0100
0010
1000
0100
0010
1000
0100
,  // measure 71
0001
0000
0100
0000
0000
0010
0000
0000
0100
0000
0010
0000
0000
0100
0000
0000
,  // measure 72
0001
0000
1000
0000
0000
0001
0000
0000
0100
0000
0010
0000
0000
1000
0000
0000
,  // measure 73
0001
0000
0100
0000
0010
0000
0100
0000
0010
0000
0000
1000
0000
0000
0100
0000
,  // measure 74
0010
0000
0000
0000
0001
0000
0010
0000
0100
0000
0000
0010
0000
0000
0010
0000
,  // measure 75
0000
0000
1000
0000
0000
0000
0100
0000
0010
0000
0000
0100
0000
0000
0010
0000
,  // measure 76
0000
0000
1000
0000
0100
0000
0010
0000
0001
0000
0100
0000
0001
0010
0100
0010
,  // measure 77
0001
0000
1000
0000
0100
0000
0010
0000
0001
0000
0100
0010
0000
1000
0001
0010
,  // measure 78
0001
0000
0010
0100
0000
0100
0010
0000
0120
0000
1000
0000
0130
0000
0000
0000
,  // measure 79
1000
0000
0100
0000
0010
0000
0001
0000
0010
0000
0100
1000
0000
0010
0001
0010
,  // measure 80
0100
0000
1000
0010
0000
1000
0010
0000
0010
0000
0100
0010
0000
0100
1000
0010
,  // measure 81
0100
0000
0001
0000
0100
0000
0010
0000
0010
0000
0001
0010
0000
1000
0010
0100
,  // measure 82
0001
0000
0010
0100
0000
1000
0010
0000
0210
0000
0001
0000
0310
0000
0000
0000
,  // measure 83
0100
0000
1000
0000
0100
0000
0000
0000
0010
0000
0001
0000
0010
0001
0100
0010
,  // measure 84
1000
0100
0010
0100
0001
1001
0110
1001
,  // measure 85
1000
1000
0001
0000
0001
0000
0100
0000
0100
0010
0000
0100
0010
0001
1000
0000
,  // measure 86
0100
0010
0000
0001
0100
0000
2001
0000
0010
0000
3001
0000
0000
0000
0100
0000
,  // measure 87
1000
0000
0010
0000
0001
0000
1000
0000
0100
0001
0000
0100
0010
0100
0010
0000
,  // measure 88
0010
0001
0000
0100
0010
0000
0100
0000
0100
0010
0000
0010
1000
0010
0100
0000
,  // measure 89
0001
0000
0100
0000
1000
0000
0010
0000
0001
0010
0000
0100
0001
0010
0001
0000
,  // measure 90
1000
0100
0000
0010
0100
0000
1002
0000
0100
0000
1003
0000
0000
0000
0100
0000
,  // measure 91
0001
0000
0100
0000
0000
0000
0010
0000
1000
0000
0010
0100
1000
0100
1000
0000
,  // measure 92
0001
0001
0100
0010
0110
0110
0110
1000
,  // measure 93
0100
0000
0001
0000
0100
0000
0010
0000
0100
0010
0000
0010
0100
0010
0100
0000
,  // measure 94
0010
0001
0000
0100
0010
0000
2100
0000
0001
0000
3100
0000
0000
0000
0010
0000
,  // measure 95
0100
0000
1000
0000
0100
0000
0001
0000
0100
0010
0000
0001
0010
0001
0010
0000
,  // measure 96
1000
0100
0000
0100
0010
0000
0001
0000
0001
0010
0000
0100
0010
0001
0100
0000
,  // measure 97
0100
0000
0010
0000
0010
0000
1000
0000
0100
0010
0000
0001
0100
0010
1000
0000
,  // measure 98
0010
0100
0000
0010
0100
0000
0012
0000
1000
0000
0013
0000
0000
0000
0210
0000
,  // measure 99
0010
0000
0301
0000
0000
0000
0020
0000
0100
0000
1030
0100
1000
0100
1000
0000
,  // measure 100
0001
0001
0100
0010
0010
0010
1000
0100
,  // measure 101
0010
1000
0100
0010
0001
0000
0210
0000
0000
0000
0310
0000
0100
0000
1000
0010
,  // measure 102
0100
0010
0001
0000
0100
0000
0100
0000
0010
0000
0010
0000
1000
0000
0100
0000
,  // measure 103
0010
0100
0001
0000
0210
0000
0000
0000
0310
0000
0100
0000
1000
0100
0000
0010
,  // measure 104
0001
0100
0010
0100
0110
0000
0000
0000
;
