#TITLE:Check my soul;
#SUBTITLE:[FULL SONG] Amagami SS Plus OP;
#ARTIST:azusa;
#TITLETRANSLIT:;
#SUBTITLETRANSLIT:;
#ARTISTTRANSLIT:;
#CREDIT:;
#BANNER:[Full Song] Check my soul.png;
#BACKGROUND:[Full Song] Check my soul-bg.png;
#LYRICSPATH:;
#CDTITLE:;
#MUSIC:[Full Song] Check my soul.mp3;
#OFFSET:0.044;
#SAMPLESTART:100.050;
#SAMPLELENGTH:12.000;
#SELECTABLE:YES;
#BPMS:0.000=153.020;
#STOPS:;
#BGCHANGES:;

//---------------dance-single - ----------------
#NOTES:
     dance-single:
     :
     Challenge:
     8:
     0.274,0.377,0.186,0.237,0.000: // measure 1
0000
0000
0000
0000
,  // measure 2
0000
0000
0000
0000
,  // measure 3
0000
0000
0000
0000
,  // measure 4
0000
0000
0000
0000
,  // measure 5
0000
0000
0000
0000
,  // measure 6
0000
0000
0000
0000
,  // measure 7
0000
0000
0000
0000
,  // measure 8
0000
0000
0000
0000
,  // measure 9
0000
0000
0000
0000
,  // measure 10
0000
0000
0000
0000
,  // measure 11
2000
0000
0010
3010
,  // measure 12
0002
0000
0100
0103
,  // measure 13
2002
0000
0000
0000
,  // measure 14
3003
0000
0000
0000
,  // measure 15
0020
0000
0100
0130
,  // measure 16
0200
0000
0010
0310
,  // measure 17
2002
0000
0000
0000
,  // measure 18
3003
0000
0000
1000
,  // measure 19
2000
0000
0100
0000
0010
0000
0001
3000
,  // measure 20
0002
0010
0100
1003
,  // measure 21
2000
0000
0100
0000
0010
0000
0010
3000
,  // measure 22
0002
0010
0100
0103
,  // measure 23
2000
0010
0010
3010
,  // measure 24
0002
0100
0100
0103
,  // measure 25
0200
0000
0010
0000
0010
0000
0010
0300
,  // measure 26
0020
0100
0100
0130
,  // measure 27
1000
1001
0001
0000
,  // measure 28
0001
1001
1000
0000
,  // measure 29
1000
1000
1000
0000
,  // measure 30
0020
0000
0230
0000
,  // measure 31
0301
0000
0000
1001
0000
0000
0100
0000
,  // measure 32
0100
0000
0000
0110
0000
0000
0010
0000
,  // measure 33
0010
1000
1000
0000
,  // measure 34
1000
0100
0010
0001
,  // measure 35
1000
0000
1000
0000
1001
0000
0000
0001
,  // measure 36
0000
0001
1001
0000
,  // measure 37
0100
0010
0100
0000
,  // measure 38
2000
0000
3020
0000
,  // measure 39
0130
0000
0000
0110
0000
0000
0010
0000
,  // measure 40
0010
0000
0000
1001
0000
0000
0100
0000
,  // measure 41
0010
1000
0000
0010
,  // measure 42
0100
0001
0000
0000
,  // measure 43
2000
0000
0000
0000
,  // measure 44
0010
0000
0000
0010
,  // measure 45
3002
0000
0000
0000
,  // measure 46
0100
0000
0000
0100
,  // measure 47
2003
0000
0000
0000
,  // measure 48
0100
0000
0000
0000
0000
0000
0100
3000
,  // measure 49
0002
0000
0000
0000
,  // measure 50
1003
0000
0010
0100
,  // measure 51
0010
0000
0000
0010
,  // measure 52
1000
0010
0000
0100
,  // measure 53
1001
0000
0000
0000
,  // measure 54
0000
0010
0000
0010
,  // measure 55
0100
0100
0000
0010
,  // measure 56
0100
0010
0000
1000
,  // measure 57
1001
0000
0000
0001
0000
0000
0001
0000
,  // measure 58
0000
1000
0001
1000
,  // measure 59
0010
1000
0100
0010
,  // measure 60
2000
0000
0000
0000
0000
0000
0000
3000
,  // measure 61
0010
0100
1000
0010
,  // measure 62
0100
0010
0001
1000
,  // measure 63
0020
0000
0130
0000
,  // measure 64
0200
0000
0310
0000
,  // measure 65
1001
0000
1001
0000
,  // measure 66
1000
0000
0001
1000
,  // measure 67
0010
0000
0100
0000
0110
0000
0000
0010
,  // measure 68
0000
0100
0110
0000
,  // measure 69
1000
0100
0010
0000
,  // measure 70
0002
0000
2003
0000
,  // measure 71
3001
0000
0000
1001
0000
0000
0100
0000
,  // measure 72
0100
0000
0000
0110
0000
0000
0010
0000
,  // measure 73
0100
0100
0000
1000
,  // measure 74
0100
0010
1000
0000
,  // measure 75
0001
0000
1000
0000
1001
0000
0000
1000
,  // measure 76
0000
0001
1001
0000
,  // measure 77
0100
0100
0010
0000
,  // measure 78
2000
0000
0000
3000
0002
0000
0000
0003
,  // measure 79
1000
0000
0000
1010
0000
0000
0001
0000
,  // measure 80
0000
0000
0000
0101
0000
0000
0010
0000
,  // measure 81
0010
1000
1000
0100
,  // measure 82
0010
0001
1000
0001
,  // measure 83
2000
0000
0000
0000
,  // measure 84
0010
0000
0100
3000
,  // measure 85
0102
0000
0000
0000
,  // measure 86
0010
0000
0100
0003
,  // measure 87
0210
0000
0000
0000
,  // measure 88
0001
0000
0000
0000
0010
0000
0000
0300
,  // measure 89
2020
0000
0000
0000
,  // measure 90
3030
0000
0202
0000
,  // measure 91
0303
0000
1000
0100
,  // measure 92
0010
0000
0001
0010
,  // measure 93
0100
0000
0100
0010
,  // measure 94
0100
0000
0010
0100
,  // measure 95
0010
0000
1000
0001
,  // measure 96
1000
0000
1000
0010
,  // measure 97
0100
0010
1000
0010
,  // measure 98
2000
0010
0000
3001
,  // measure 99
0001
0100
0010
1000
,  // measure 100
0002
0010
0000
1003
,  // measure 101
0100
0010
1000
0100
,  // measure 102
0010
0100
0001
1000
,  // measure 103
2000
0000
0001
3000
0002
0000
1003
0000
,  // measure 104
0100
0000
0010
0000
1000
0100
0010
0001
,  // measure 105
0000
0000
0000
0000
,  // measure 106
1001
0000
1000
0000
1001
0000
0000
1001
,  // measure 107
0000
0001
1001
0000
,  // measure 108
0010
0010
0100
0100
,  // measure 109
0020
0000
0230
0000
,  // measure 110
0310
0000
0000
0110
0000
0000
0010
0000
,  // measure 111
0100
0000
0000
1001
0000
0000
0010
0000
,  // measure 112
0001
1000
0100
0000
,  // measure 113
0100
1000
0010
0001
,  // measure 114
0110
0000
0100
0000
0110
0000
0000
0110
,  // measure 115
0000
0010
0110
0000
,  // measure 116
1000
0100
0010
1000
,  // measure 117
0002
0000
2003
0000
,  // measure 118
3001
0000
0000
1001
0000
0000
0020
0000
,  // measure 119
0130
0000
0000
0110
0000
0000
1000
0000
,  // measure 120
0100
0010
0001
1000
,  // measure 121
0010
0001
0100
1000
,  // measure 122
2002
0000
0000
0000
,  // measure 123
0000
0000
0000
0000
,  // measure 124
3003
0000
0100
0000
,  // measure 125
0010
0000
0100
0000
,  // measure 126
1000
0000
0001
0000
,  // measure 127
0100
0000
0000
0000
,  // measure 128
0010
0000
0010
0000
,  // measure 129
1000
0000
0010
0000
,  // measure 130
0100
0000
0010
0000
,  // measure 131
1000
0000
0000
0000
,  // measure 132
2002
0000
0000
0000
,  // measure 133
0000
0000
0000
0000
,  // measure 134
0000
0000
0000
0000
,  // measure 135
0000
0000
0000
0000
,  // measure 136
3003
0000
0000
0000
;
