#TITLE:Chase the world;
#SUBTITLE:[FULL SONG] Accel World OP;
#ARTIST:May'n;
#TITLETRANSLIT:;
#SUBTITLETRANSLIT:;
#ARTISTTRANSLIT:;
#CREDIT:;
#BANNER:[Full Song] Chase the world.png;
#BACKGROUND:[Full Song] Chase the world-bg.png;
#LYRICSPATH:;
#CDTITLE:;
#MUSIC:[Full Song] Chase the world.mp3;
#MENUCOLOR:0,0,1,1;
#METERTYPE:DDR X;
#DISPLAYBPM:170;
#OFFSET:0.250;
#SAMPLESTART:100.010;
#SAMPLELENGTH:12.000;
#SELECTABLE:YES;
#BPMS:0.000=170.000,612.000=340.000,613.000=170.000;
#STOPS:612.000=0.176
;
#BGCHANGES:;

//---------------dance-single - ----------------
#NOTES:
     dance-single:
     :
     Challenge:
     14:
     0.588,0.777,0.202,0.237,0.189: // measure 1
0000
0000
0000
0000
,  // measure 2
0000
0000
0000
0000
,  // measure 3
0000
0000
0000
0000
,  // measure 4
0000
0000
0000
0000
,  // measure 5
0000
0000
0000
0000
,  // measure 6
2000
0000
0000
0000
,  // measure 7
0002
0000
0000
0000
,  // measure 8
3003
0000
0000
0000
,  // measure 9
1000
0010
0100
0010
,  // measure 10
1100
0010
0000
0001
0100
0000
0100
0000
,  // measure 11
0010
1000
0100
0010
0001
0100
0010
0100
,  // measure 12
0001
0000
0000
0000
0100
0000
0000
0000
0010
0000
0000
0000
0100
0000
0000
0000
0010
0000
0000
0000
1000
0000
0000
0000
0010
0000
0000
0100
0000
0000
0010
0000
0000
0100
0000
0000
0010
0000
0000
0100
0000
0000
0010
0000
0000
0100
0000
0000
,  // measure 13
0010
1001
0110
0101
,  // measure 14
0100
0010
1010
0110
,  // measure 15
0101
0000
1000
0010
0110
0000
0001
0000
,  // measure 16
0110
0000
1000
0001
0110
0000
0010
0000
,  // measure 17
0001
0000
0100
0000
0010
1000
0010
0000
,  // measure 18
0100
0000
0001
0000
0010
0100
0001
0000
,  // measure 19
0010
0000
0100
0000
0010
0100
0001
0000
,  // measure 20
0010
0000
0100
0000
0100
1000
0001
0000
,  // measure 21
0100
0000
0010
0000
0010
0001
1000
0000
,  // measure 22
0010
0000
0100
0000
0100
0001
0100
1000
,  // measure 23
0010
0000
0100
0010
0100
0010
1000
0010
,  // measure 24
2000
0001
0001
3001
,  // measure 25
0100
0010
0100
0000
0010
0100
0001
0000
,  // measure 26
0010
0100
0001
0000
1000
0001
0100
0010
,  // measure 27
0100
0000
0010
0000
0100
0010
1000
0010
,  // measure 28
0002
0100
0010
1003
,  // measure 29
1010
0000
0100
0010
0000
0001
0110
0000
,  // measure 30
0110
0000
1000
0010
0000
1000
0110
0000
,  // measure 31
0110
0000
0001
0000
0100
0000
0010
1000
,  // measure 32
0020
1000
0100
0031
,  // measure 33
0101
0000
0110
0000
1000
0010
0100
0010
,  // measure 34
1000
0000
0100
0000
1000
0000
0100
0010
,  // measure 35
2000
0001
0010
0001
,  // measure 36
3002
0100
1000
0103
,  // measure 37
0110
0000
1000
0010
0000
0100
0101
0000
,  // measure 38
0110
0000
1000
0010
0000
0100
0110
0000
,  // measure 39
0101
0000
1000
0000
0010
0000
1000
0100
,  // measure 40
0010
0000
1000
0100
0010
0100
0001
0100
,  // measure 41
0010
1000
0100
0010
,  // measure 42
1000
0001
0100
0010
,  // measure 43
1000
0100
0010
0100
,  // measure 44
0001
0001
0001
0001
0001
0001
0001
0001
,  // measure 45
1001
0000
0001
0100
0000
0000
0010
0000
0100
0000
0010
0000
1000
0000
0010
0000
,  // measure 46
0100
0000
0001
1000
0000
0000
0100
0000
0010
0000
0001
0000
0100
0000
0010
0000
,  // measure 47
2000
0010
0000
0000
3002
0010
0000
0000
0203
0010
0000
0000
0320
0100
0000
0000
,  // measure 48
1030
0001
0000
0000
0110
0000
0000
0000
0101
0000
1000
0000
0100
0000
0010
0000
,  // measure 49
0100
0010
0100
0000
1010
0100
0010
0100
,  // measure 50
0010
0000
1000
0100
0010
0001
0100
0010
,  // measure 51
0120
0000
0001
0000
0001
0000
0031
0200
0001
0000
0000
0000
0010
0000
0010
0301
,  // measure 52
0010
0000
1010
0000
0110
1000
0100
0010
,  // measure 53
0001
0000
1000
0100
0000
0000
0010
0000
1000
0000
0100
0000
0010
0000
0100
0000
,  // measure 54
0001
0000
1000
0010
0000
0000
1000
0000
0010
0000
0100
0000
0010
0000
0100
0000
,  // measure 55
0002
0100
0000
0000
0023
0001
0000
0000
0230
1000
0000
0000
0302
0010
0000
0000
,  // measure 56
0013
1000
0000
0000
0100
0000
0000
0000
0010
0000
1000
0000
0100
0000
0010
0000
,  // measure 57
0001
0000
0100
1000
0000
0000
0010
0000
0100
0000
0010
0000
0100
0000
0010
0000
,  // measure 58
1000
0100
0010
0001
0100
0010
0100
0001
,  // measure 59
0000
0000
1000
0100
,  // measure 60
0010
1000
0010
0000
0100
0010
0100
0000
,  // measure 61
1000
0000
0000
0000
0100
0000
0000
0000
0010
0000
0000
0000
0100
0000
0000
0000
0010
0000
0000
0000
0001
0000
0000
0000
0100
0000
0000
0010
0000
0000
0100
0000
0000
0010
0000
0000
0100
0000
0000
0010
0000
0000
0100
0000
0000
0010
0000
0000
,  // measure 62
1000
0000
0110
0000
0001
0100
0001
0000
,  // measure 63
1000
0100
0010
0000
0100
0001
0100
0000
,  // measure 64
0010
0000
1000
0100
0010
0000
0001
0000
,  // measure 65
0110
0000
1000
0100
0010
0000
0100
0000
,  // measure 66
0100
0000
1000
0000
0010
0100
0001
0000
,  // measure 67
0100
0000
0010
0000
1000
0100
0010
0000
,  // measure 68
2000
0000
0010
0000
0001
0000
0001
3000
,  // measure 69
0002
0000
0100
0000
1000
0000
0100
0003
,  // measure 70
0110
0000
0100
0000
0010
0100
0010
0000
,  // measure 71
1000
0100
0010
0110
,  // measure 72
0100
0000
0010
0000
0100
1000
0100
0000
,  // measure 73
0010
0000
0001
0000
0100
0010
0100
0010
,  // measure 74
1000
0000
0001
0000
0100
0010
0100
0000
,  // measure 75
0001
0000
0100
0000
1000
0010
1000
0000
,  // measure 76
0100
0000
0010
0000
0100
0001
0100
0000
,  // measure 77
0020
0000
1000
0000
0100
0000
1000
0030
,  // measure 78
0100
0000
0010
0100
0000
0001
0110
0000
,  // measure 79
0110
0000
1000
0010
0000
1000
0110
0000
,  // measure 80
0101
0000
0010
0000
0100
0000
1000
0100
,  // measure 81
0010
0000
0100
0001
0100
0010
0100
0000
,  // measure 82
1000
0000
0100
0000
0010
0100
0001
0000
,  // measure 83
0100
0010
1000
0000
1000
0100
0010
0100
,  // measure 84
0001
0000
0100
0000
0100
0001
1000
0000
,  // measure 85
1000
0100
0010
1000
0001
0100
0010
0000
,  // measure 86
0100
0010
1000
0100
0000
0001
0110
0000
,  // measure 87
1000
0100
0010
0100
0001
0100
1010
0000
,  // measure 88
0100
0010
0100
0000
0010
0100
0010
1000
,  // measure 89
0100
0000
0100
0010
1000
0000
0100
0000
,  // measure 90
0010
1000
0010
0100
0010
1000
0100
0000
,  // measure 91
0001
0100
1000
0100
0010
0001
0100
0010
,  // measure 92
2000
0100
0010
3001
,  // measure 93
1000
1000
1000
1000
1000
1000
1000
0001
,  // measure 94
0101
0000
0010
0100
0000
0000
0001
0000
0100
0000
0010
0000
1000
0000
0010
0000
,  // measure 95
0100
0000
0001
0010
0000
0000
0010
0000
0100
0000
0010
0000
0100
0000
0010
0000
,  // measure 96
2000
0100
0000
0000
3200
0010
0000
0000
0320
0001
0000
0000
0230
0001
0000
0000
,  // measure 97
1300
0010
0000
0000
0100
0000
0000
0000
0010
0000
1000
0000
0100
0000
0010
0000
,  // measure 98
0001
0000
1000
0100
0000
0000
0010
0000
2000
0000
0000
0000
3200
0000
0000
0000
,  // measure 99
0310
0000
0000
0100
1000
0100
0010
0001
,  // measure 100
0200
0000
1000
0000
1000
0000
1300
0020
0100
0000
0000
0000
0100
0000
0100
1030
,  // measure 101
0200
0000
0001
0000
0301
1000
0100
0010
,  // measure 102
0001
0000
0100
0010
0000
0000
1000
0000
0000
0000
1000
0000
0100
0000
0010
0000
,  // measure 103
0001
0000
0010
0001
0000
0000
0100
0000
0000
0000
1000
0000
0100
0000
0010
0000
,  // measure 104
0200
1000
0000
0000
2300
0010
0000
0000
3002
1000
0000
0000
0023
0100
0000
0000
,  // measure 105
1030
0100
0000
0000
0100
0000
0000
0000
0010
0000
1000
0000
0100
0000
0010
0000
,  // measure 106
0001
0000
0100
0000
1010
0010
0100
0010
,  // measure 107
1000
0100
0010
0001
0100
0010
0100
0001
,  // measure 108
0000
0000
1000
0100
,  // measure 109
1000
0010
0001
0100
,  // measure 110
0010
1000
0010
0100
,  // measure 111
1000
0001
0000
0000
0100
0000
0000
0000
0100
0000
0000
0000
0010
0000
0000
0000
,  // measure 112
1000
0100
0000
0000
0100
0000
0000
0000
0010
0000
0000
0000
0100
0000
0000
0000
,  // measure 113
0100
0001
0000
0000
0100
0000
0000
0000
0010
0000
0000
0000
0100
0000
0000
0000
,  // measure 114
0010
0100
0000
0000
1000
0000
0000
0000
0100
0000
0000
0000
0010
0000
0000
0000
,  // measure 115
1000
0010
0000
0000
0100
0000
0000
0000
0010
0000
0000
0000
0100
0000
0000
0000
,  // measure 116
0001
0010
0000
0000
0100
0000
0010
0001
0000
0000
0000
0000
0100
0000
0000
0000
,  // measure 117
1000
0001
0000
0000
0100
0000
0000
0000
0010
0000
0000
0000
0100
0000
0000
0000
,  // measure 118
0100
0010
0000
0000
0001
0000
0000
0000
0100
0000
0000
0000
0010
0000
0000
0000
,  // measure 119
1000
0002
0000
0000
0100
0000
0000
0000
0010
0000
0000
0000
0103
0000
0000
0000
,  // measure 120
2000
0000
0010
0010
,  // measure 121
3010
2000
0000
0000
0100
0000
0000
0000
0010
0000
0000
0000
0100
0000
0000
0000
,  // measure 122
3002
0000
0100
0100
,  // measure 123
0203
0010
0000
0000
0010
0000
0000
0000
0001
0000
0000
0000
1300
0000
0000
0000
,  // measure 124
2000
0000
0010
0010
,  // measure 125
3010
0100
0010
0100
,  // measure 126
0002
0000
0000
0000
,  // measure 127
1003
0000
0000
0100
,  // measure 128
0010
0000
0000
0001
,  // measure 129
1000
0000
1000
0100
,  // measure 130
0001
0000
0000
0010
,  // measure 131
0100
0000
0000
0001
,  // measure 132
1000
0000
0100
0010
,  // measure 133
0100
0000
0001
1000
,  // measure 134
0001
0000
0000
0100
,  // measure 135
0110
0000
0001
1000
0000
0000
0100
0000
0010
0000
0100
0000
0001
0000
1000
0000
,  // measure 136
0010
0000
0001
0100
0000
0000
0010
0000
0000
0000
1000
0000
0100
0000
0000
0000
,  // measure 137
0020
1000
0000
0000
0230
0001
0000
0000
2300
0010
0000
0000
3200
0001
0000
0000
,  // measure 138
0310
1000
0000
0000
1000
0000
0000
0000
0010
0000
1000
0000
0000
0000
0100
0000
,  // measure 139
0010
0001
0100
0000
0010
0110
1000
0100
,  // measure 140
0010
1000
0100
0010
0100
0001
0100
0010
,  // measure 141
2000
0000
0100
0000
0100
0000
3100
0020
0100
0000
0000
0000
0100
0000
0100
1030
,  // measure 142
0020
0000
1000
0000
0130
1000
0010
0100
,  // measure 143
0010
0000
0001
0100
0000
0000
0100
0000
0000
0000
1000
0000
0100
0000
0010
0000
,  // measure 144
0100
0000
1000
0010
0000
0000
0100
0000
0000
0000
1000
0000
0000
0000
0110
0000
,  // measure 145
2000
0010
0000
0000
3200
0001
0000
0000
0320
1000
0000
0000
2030
0001
0000
0000
,  // measure 146
3010
0100
0000
0000
0001
0000
0000
0000
0100
0000
1000
0000
0100
0000
0010
0000
,  // measure 147
0001
0000
0100
0010
0100
0010
1000
0100
,  // measure 148
0010
1000
1000
1000
1000
1000
1000
1000
,  // measure 149
0001
0000
0000
0000
1000
0000
0000
0010
,  // measure 150
0110
0100
0010
0110
,  // measure 151
1000
0100
0010
0000
0100
0001
0100
0000
,  // measure 152
1000
0100
0010
0001
0100
1000
0100
0010
,  // measure 153
0010
0000
0000
0000
0100
0000
0000
0000
0001
0000
0000
0000
1000
0000
0000
0000
0100
0000
0000
0000
0010
0000
0000
0000
0001
0000
0000
1000
0000
0000
0001
0000
0000
1000
0000
0000
0001
0000
0000
1000
0000
0000
0001
0000
0000
1000
0000
0000
,  // measure 154
0002
2003
0000
0000
,  // measure 155
3000
0000
0000
0000
;
