#TITLE:Bad Maniacs;
#SUBTITLE:[FULL SONG];
#ARTIST:kors k;
#TITLETRANSLIT:;
#SUBTITLETRANSLIT:;
#ARTISTTRANSLIT:;
#CREDIT:;
#BANNER:[Full Song] Bad Maniacs.png;
#BACKGROUND:[Full Song] Bad Maniacs-bg.png;
#LYRICSPATH:;
#CDTITLE:;
#MUSIC:[Full Song] Bad Maniacs.mp3;
#MENUCOLOR:1,0,0,1;
#METERTYPE:DDR X;
#DISPLAYBPM:195;
#OFFSET:0.000;
#SAMPLESTART:100.030;
#SAMPLELENGTH:12.000;
#SELECTABLE:YES;
#BPMS:0.000=195.001,427.000=390.002,428.000=195.001,439.000=390.001,440.000=195.001,469.000=390.002,471.000=195.001,694.500=390.001,695.500=195.001,960.000=390.002,968.000=48.750,968.500=97.501;
#STOPS:192.000=2.462
,427.000=0.038
,427.250=0.038
,427.500=0.038
,427.750=0.038
,439.000=0.038
,439.250=0.038
,439.500=0.038
,439.750=0.038
,469.000=0.077
,469.500=0.077
,470.000=0.077
,470.500=0.077
,580.500=0.154
,581.000=0.154
,600.000=0.923
,601.000=19.692
,694.500=0.077
,695.000=0.077
;
#BGCHANGES:;

//---------------dance-single - ----------------
#NOTES:
     dance-single:
     :
     Challenge:
     15:
     0.652,1.000,0.952,0.162,0.160: // measure 1
0000
0000
0000
0000
,  // measure 2
0000
0000
0000
0000
,  // measure 3
0000
0000
0000
0000
,  // measure 4
0000
0000
0000
0000
,  // measure 5
0000
0000
0000
0000
,  // measure 6
0000
0000
0000
0000
,  // measure 7
0000
0000
0000
0000
,  // measure 8
0000
0000
0000
0000
,  // measure 9
2000
0001
0001
3001
,  // measure 10
0002
1000
1000
1003
,  // measure 11
0020
0100
0100
0130
,  // measure 12
0200
0010
0010
0310
,  // measure 13
2000
0010
0010
3010
,  // measure 14
0002
0100
0100
0103
,  // measure 15
2000
0001
0001
3001
,  // measure 16
1000
1001
0100
0110
,  // measure 17
1000
0100
0010
0001
,  // measure 18
0100
0010
0110
0000
,  // measure 19
1000
0000
0100
0000
0010
0010
1000
1000
,  // measure 20
0001
0100
0110
0000
0100
0000
0110
0000
,  // measure 21
1000
0100
0010
0001
,  // measure 22
1000
0100
0010
1000
,  // measure 23
0100
0001
0100
0010
,  // measure 24
1000
0100
0001
0100
1000
0010
0100
0010
,  // measure 25
0101
0110
1010
0110
,  // measure 26
0101
0110
1100
0110
,  // measure 27
0011
0110
0101
0110
,  // measure 28
1000
0100
0110
0000
0100
0001
0101
0000
,  // measure 29
0110
1010
0110
0101
,  // measure 30
0110
1100
0110
0101
,  // measure 31
0011
0110
0110
1001
,  // measure 32
0110
0101
0011
0010
,  // measure 33
0110
0110
0110
0110
,  // measure 34
1010
0110
0110
0110
,  // measure 35
1010
0110
0101
0110
,  // measure 36
1000
0100
0110
0000
1001
0000
0110
0000
,  // measure 37
0110
1000
0110
0110
,  // measure 38
0101
0110
1010
0110
,  // measure 39
1100
0110
0011
0010
,  // measure 40
0100
0010
1000
0100
0010
0001
0100
0000
,  // measure 41
0110
1010
0110
0101
,  // measure 42
0110
1100
0110
0011
,  // measure 43
0110
1100
0101
0110
,  // measure 44
1100
0000
0110
0000
0010
0100
0010
0100
,  // measure 45
0110
1010
0100
0110
,  // measure 46
1100
0110
0011
0110
,  // measure 47
1100
0110
0001
0100
,  // measure 48
1000
0100
0010
0001
1000
0100
0001
0010
,  // measure 49
2000
0000
0000
0000
,  // measure 50
3001
1000
0000
0000
,  // measure 51
0100
0000
0000
0010
0000
0000
0000
0100
,  // measure 52
0000
1000
1000
0000
,  // measure 53
0000
0000
0100
0000
0000
0010
0000
0100
,  // measure 54
0000
0000
1000
0100
0000
0010
0000
0000
,  // measure 55
0000
1000
0000
0100
0000
0010
0100
0010
,  // measure 56
0000
1000
0000
1000
0000
0001
0000
0100
,  // measure 57
0000
1000
0100
0000
0010
0000
0000
0000
,  // measure 58
0000
0000
1000
0100
0000
0010
1000
2000
,  // measure 59
0000
0000
0000
0001
,  // measure 60
3000
0000
0000
0000
,  // measure 61
0100
0000
0000
0000
,  // measure 62
0000
1000
0000
0000
,  // measure 63
1001
0110
0101
0110
,  // measure 64
1100
0000
0110
0000
0101
0000
1000
0100
,  // measure 65
0101
0101
0110
1010
,  // measure 66
0110
0000
0101
0000
0100
0010
0100
0010
,  // measure 67
1100
0110
0110
0011
,  // measure 68
0110
0000
0101
0000
0110
0000
1000
0100
,  // measure 69
0110
0110
0101
0110
,  // measure 70
1000
0100
0010
0001
0100
0010
0100
0000
,  // measure 71
1100
0110
0011
0110
,  // measure 72
1100
0000
0110
0000
0011
0000
0100
0010
,  // measure 73
0101
1100
1100
0110
,  // measure 74
0101
0000
0101
0000
0100
0010
0000
0000
,  // measure 75
1010
0110
0101
0110
,  // measure 76
1100
0110
1010
0101
,  // measure 77
0110
0101
1100
0110
,  // measure 78
0011
0110
1100
0110
,  // measure 79
0110
0000
0110
0000
1000
0100
0010
0001
,  // measure 80
0100
0010
0100
0010
1000
0000
0000
0000
,  // measure 81
0110
0000
0110
0000
1000
0100
0010
0001
,  // measure 82
0100
0010
0100
0010
0100
0001
0000
0000
,  // measure 83
0110
0000
0101
0000
1000
0100
0010
0001
,  // measure 84
0100
0010
0100
0001
1000
0000
0000
0000
,  // measure 85
0110
0000
0110
0000
1000
0100
0010
0001
,  // measure 86
0100
0010
0100
0010
1000
0000
0010
0000
,  // measure 87
2001
0000
0000
0000
,  // measure 88
3001
0000
0000
1001
,  // measure 89
1002
0000
0000
0000
,  // measure 90
2003
3100
0002
0103
,  // measure 91
2010
0000
0000
0000
,  // measure 92
3000
0000
0000
0000
0010
0000
0100
0000
0000
1000
0001
0000
1010
0000
0000
0000
,  // measure 93
0110
0000
0000
0000
,  // measure 94
0000
0001
0000
1000
0000
0000
0000
0000
,  // measure 95
2001
0000
3001
0000
,  // measure 96
0001
0000
0001
0000
,  // measure 97
0001
0000
0001
0000
,  // measure 98
0001
0000
0001
0000
,  // measure 99
0001
0000
0000
0000
,  // measure 100
0000
0000
0000
0000
,  // measure 101
0000
0000
0000
0000
,  // measure 102
0000
0000
0000
0000
,  // measure 103
2002
0000
3003
0000
,  // measure 104
0100
0010
0200
0000
,  // measure 105
1300
0000
0000
0000
0100
0000
0000
0000
0010
0000
0000
0010
0000
0000
0010
0000
,  // measure 106
1000
0100
0020
0000
0130
0000
0100
0010
,  // measure 107
0100
0100
0020
0200
,  // measure 108
0000
0330
0000
0000
0100
0000
0000
0000
0002
0000
0000
0000
0000
0000
0000
0000
,  // measure 109
1003
0100
0020
0000
,  // measure 110
1030
0100
0002
2000
,  // measure 111
3003
0100
0010
0100
,  // measure 112
0001
0000
0100
0000
0220
0000
0000
0330
,  // measure 113
0000
0000
0100
0000
0010
1000
0010
0000
,  // measure 114
0100
0001
0100
0000
0010
0000
1000
0100
,  // measure 115
0000
1000
0100
0000
0010
0000
0001
0000
,  // measure 116
0100
1000
1000
0001
,  // measure 117
1000
0100
0010
0000
1000
0000
0100
0000
,  // measure 118
1000
1000
0001
0001
0001
1000
0002
0000
,  // measure 119
1003
1000
0100
0100
,  // measure 120
0010
0000
0100
0000
2002
0000
0000
3003
,  // measure 121
0000
0010
0100
0000
0010
0000
0100
0000
,  // measure 122
1000
0100
0010
0000
0100
0010
0100
0000
,  // measure 123
1000
1000
0010
0010
,  // measure 124
0100
0100
0010
0010
,  // measure 125
1000
0100
0010
0001
0100
1000
0100
0010
,  // measure 126
2002
0000
0000
3003
,  // measure 127
0110
0110
1001
0110
,  // measure 128
0100
1100
0110
0011
,  // measure 129
0110
1100
0110
0101
,  // measure 130
0110
0000
0110
0000
1000
0100
0010
0000
,  // measure 131
0101
0110
1100
0110
,  // measure 132
0011
0110
1001
0110
,  // measure 133
0000
1001
1001
1001
,  // measure 134
0100
0000
1000
0000
0100
0001
0010
0000
0001
0000
0100
0000
0010
0000
0001
0000
,  // measure 135
1100
0110
0011
0110
,  // measure 136
0101
0110
1010
0110
,  // measure 137
1100
0110
0011
0110
,  // measure 138
0101
0000
1010
0000
0110
0000
0101
1000
,  // measure 139
0010
0110
0110
0110
,  // measure 140
1100
0110
0011
0010
,  // measure 141
0110
0101
0110
1010
,  // measure 142
0110
1001
0110
0101
,  // measure 143
0110
1000
0100
0000
0010
0000
0101
0000
,  // measure 144
1000
1000
1000
1000
1000
1000
1000
1000
,  // measure 145
0001
0000
1000
0001
1000
0000
1000
0001
1000
0000
0100
0010
0100
0000
0100
0000
,  // measure 146
0010
0010
0010
0010
0010
0010
1000
0100
,  // measure 147
0010
0001
0100
0010
1000
0100
0002
0000
,  // measure 148
0013
0000
0010
0000
0020
0000
0000
0000
1030
0000
0100
0000
0010
0001
0010
0001
,  // measure 149
1000
0100
1000
0100
0010
0001
0010
0001
0010
0100
0010
0100
1000
0100
1000
0100
,  // measure 150
1000
0100
0010
0100
0010
0100
0010
0100
0010
0100
0010
0000
2002
0000
0000
0000
,  // measure 151
0000
3003
0000
0000
0000
0000
0000
0000
0000
0000
0000
0000
0000
0000
0000
0000
,  // measure 152
2002
0000
0000
0000
,  // measure 153
3003
0000
0010
0000
0100
0000
0010
0000
0100
0000
0000
0100
0000
0000
0100
0000
,  // measure 154
0010
0000
0100
0000
0010
0000
0100
0000
0010
0000
0000
0010
0000
0000
1000
0000
,  // measure 155
0100
0000
0010
0100
0010
0000
0000
0000
,  // measure 156
2001
0000
0000
0000
,  // measure 157
3001
0000
0100
0000
0010
0000
0100
0000
0010
0000
0000
0010
0000
0000
0010
0000
,  // measure 158
1000
0000
0100
0000
0010
0000
0001
0000
0000
0100
0000
0000
0100
0000
0100
0000
,  // measure 159
0010
0000
1000
0100
0010
0000
0000
0000
,  // measure 160
0110
0110
1010
1100
,  // measure 161
0110
0011
0110
1001
,  // measure 162
0110
0101
0110
1010
,  // measure 163
1100
0110
0011
0101
,  // measure 164
0110
0000
0000
1000
0100
0000
0000
0001
0010
0000
0000
1000
0100
0000
0000
0001
,  // measure 165
0100
0000
0000
0010
0100
0000
0000
1000
0100
0000
0000
1000
0100
0000
0000
0001
,  // measure 166
0010
0000
0100
1000
0100
0000
0010
0100
0010
0000
0001
0010
0001
0000
1000
0100
,  // measure 167
1000
0000
0010
0001
0010
0000
0100
0010
0100
0000
0010
0100
0010
0000
0010
0000
,  // measure 168
1000
0001
1000
0001
1000
0001
1000
0001
1000
0001
1000
0001
1000
0001
1000
0001
,  // measure 169
0100
0010
0100
0010
0100
0010
0100
0010
0100
0010
0100
0010
0100
0010
0100
0010
,  // measure 170
1000
0001
1000
0001
1000
0001
1000
0001
1000
0001
1000
0001
1000
0001
1000
0001
,  // measure 171
1000
0010
0100
0010
0100
0010
0100
0010
0100
0010
0100
0010
0100
0010
0100
0010
,  // measure 172
2000
0000
0000
0000
,  // measure 173
0000
0000
0000
0000
,  // measure 174
0000
0000
0000
0000
0000
0001
0001
3001
,  // measure 175
0000
0000
0000
0000
,  // measure 176
0110
0000
0000
0000
0110
0000
0000
0000
0110
0000
0000
0000
1000
0001
1000
0001
,  // measure 177
1000
0000
0000
0000
0100
0010
0100
0010
0100
0000
0000
0000
0100
0000
0001
0000
,  // measure 178
0100
0000
0000
0000
1010
0000
0000
0000
0101
0000
0000
0000
1000
0010
1000
0010
,  // measure 179
1000
0000
0000
0000
0100
0001
0100
0001
0100
0000
0000
0000
0010
0000
0100
0000
,  // measure 180
0110
0000
0000
0000
1010
0000
0000
0000
0110
0000
0000
0000
0100
0001
0100
0001
,  // measure 181
0100
0000
0000
0000
1000
0010
1000
0010
1000
0000
0000
0000
0100
0000
0010
0000
,  // measure 182
0100
0000
0000
0000
0101
0000
0000
0000
1000
0001
1000
0001
2000
0000
3200
0000
,  // measure 183
0301
0100
0010
1000
0100
0000
0010
0100
,  // measure 184
0110
0000
0000
0000
1010
0000
0000
0000
0110
0000
0000
0000
0100
0001
0100
0001
,  // measure 185
0100
0000
0000
0000
1000
0010
1000
0010
1000
0000
1010
0000
0100
0000
0010
0000
,  // measure 186
0100
0000
0000
0000
0101
0000
0000
0000
0110
0000
0000
0000
1000
0010
1000
0010
,  // measure 187
1000
0000
0000
0000
0100
0001
0100
0001
0100
0000
0000
0000
1000
0000
0010
0000
,  // measure 188
1000
0000
0000
0000
0110
0000
0000
0000
0101
0000
0000
0000
1000
0010
1000
0010
,  // measure 189
1000
0000
0000
0000
0100
0010
0100
0010
0100
0000
0000
0000
1000
0000
0001
0000
,  // measure 190
0100
0000
0100
0000
1000
0100
0010
0001
,  // measure 191
0100
1000
0110
0100
,  // measure 192
1000
0100
0010
0001
0100
0000
0020
0000
,  // measure 193
0000
1030
1000
0000
0002
0000
0000
0000
,  // measure 194
1003
0000
0100
0001
0010
0000
0001
0000
0100
0000
0010
0000
0100
0000
0010
0000
,  // measure 195
2000
0000
3100
0000
0002
0000
0000
0003
,  // measure 196
2000
0000
0000
0000
,  // measure 197
3001
0000
0100
0000
0010
0000
0100
0000
0010
0000
0000
0010
0000
0000
0010
0000
,  // measure 198
1000
0000
0100
0000
0010
0000
0001
0000
1000
0000
0000
0100
0000
0000
0010
0000
,  // measure 199
1000
0000
0100
0010
0001
0000
0000
0000
,  // measure 200
0110
1010
0110
0101
,  // measure 201
1100
0110
1001
0110
,  // measure 202
1001
0110
0011
0110
,  // measure 203
1001
1000
0110
0000
1001
0001
0101
0100
,  // measure 204
1100
0110
0001
0110
,  // measure 205
1001
0110
1001
1010
,  // measure 206
1010
1100
0110
0011
,  // measure 207
0100
0000
0010
0000
0110
0000
0000
0000
1000
0000
0001
0000
0100
0000
0010
0100
,  // measure 208
0010
1100
0110
0011
,  // measure 209
0110
1001
0110
1010
,  // measure 210
1100
0010
0001
1010
,  // measure 211
1010
0000
0101
0000
0100
0010
0100
0010
,  // measure 212
1010
0110
0101
0110
,  // measure 213
1100
0110
0011
0110
,  // measure 214
1001
0110
2000
3001
,  // measure 215
0100
0010
0100
0000
0010
0100
0010
0100
,  // measure 216
1100
0100
0010
0010
,  // measure 217
0001
0001
0010
0010
,  // measure 218
0100
0100
0010
0010
,  // measure 219
1000
0010
0110
0000
1000
0001
0101
1000
,  // measure 220
0110
0100
0100
0100
,  // measure 221
0100
1000
1000
1000
,  // measure 222
0100
0100
0010
0010
,  // measure 223
0100
0001
0101
0000
0100
0010
0100
0010
,  // measure 224
1010
0100
0100
0100
,  // measure 225
1000
1000
0010
0010
,  // measure 226
0100
0100
0001
0001
,  // measure 227
0100
0010
0110
0000
1000
0001
0100
0010
,  // measure 228
0110
0100
0100
0100
,  // measure 229
0100
0100
0100
0100
,  // measure 230
0100
1000
1000
0100
,  // measure 231
0010
0100
0101
0000
1000
0010
0100
0010
,  // measure 232
2000
0000
3001
0000
,  // measure 233
0100
0000
0000
0000
0000
0000
0010
0000
0000
0000
0000
0000
0100
0000
0000
0100
,  // measure 234
0000
0010
0000
0000
0000
0000
0000
0000
,  // measure 235
1000
0000
0100
0000
0010
0001
1000
0000
,  // measure 236
0000
0000
0000
1000
,  // measure 237
0000
0100
0010
0001
0000
0000
0000
0000
,  // measure 238
0000
1000
0100
0010
,  // measure 239
0001
0000
0000
2000
0000
0000
3001
0000
,  // measure 240
0000
0000
0000
0000
0000
0000
0000
0000
0000
0000
0000
0000
0000
0000
0000
0000
0000
0000
0000
0000
0000
0000
0000
0000
0000
0000
0000
0000
0000
0000
0000
0000
0000
0000
0000
0000
0000
0000
0000
0000
0000
0000
0000
0000
0000
0000
0000
0000
0200
0000
0000
0000
0000
0000
0000
0000
0000
0000
0000
0000
0000
0000
0000
0000
0000
0000
0000
0000
0000
0000
0000
0000
0000
0000
0000
0000
0000
0000
0000
0000
0000
0000
0000
0000
0000
0000
0000
0000
0000
0000
0000
0000
0000
0000
0000
0000
0000
0000
0000
0000
0000
0000
0000
0000
0000
0000
0000
0000
0000
0000
0000
0000
0000
0000
0000
0000
0000
0000
0000
0000
0000
0000
0000
0000
0000
0000
0000
0000
0000
0000
0000
0000
0000
0000
0000
0000
0000
0000
0000
0000
0000
0000
0000
0000
0000
0000
0000
0000
0000
0000
0000
0000
0000
0000
0000
0000
0000
0000
0000
0000
0000
0000
0000
0000
0000
0000
0000
0000
0000
0300
0000
0000
0000
0000
0000
0000
0000
0000
0000
0000
0000
0000
0000
0000
0000
0000
0000
0000
0000
0000
0000
0000
,  // measure 241
1000
0001
1000
0001
1000
0001
1000
0001
,  // measure 242
1000
0001
1000
0001
1000
0001
1000
0001
,  // measure 243
2000
3000
0000
0000
0000
0000
0000
0000
;
