#TITLE:Authentic symphony;
#SUBTITLE:[FULL SONG] Mashiro-iro Symphony -Love is Pure White- Opening;
#ARTIST:Choucho;
#TITLETRANSLIT:;
#SUBTITLETRANSLIT:;
#ARTISTTRANSLIT:;
#CREDIT:;
#BANNER:[Full Song] Authentic symphony.png;
#BACKGROUND:[Full Song] Authentic symphony-bg.png;
#LYRICSPATH:;
#CDTITLE:;
#MUSIC:[Full Song] Authentic symphony.mp3;
#OFFSET:-0.128;
#SAMPLESTART:100.050;
#SAMPLELENGTH:12.000;
#SELECTABLE:YES;
#BPMS:0.000=175.000,40.000=87.500,72.000=175.000,204.000=87.500,212.000=175.000,440.000=87.500,448.000=175.000,552.000=43.750,560.000=87.500,576.000=175.000,640.000=87.500,648.000=175.000;
#STOPS:;
#BGCHANGES:;

//---------------dance-single - ----------------
#NOTES:
     dance-single:
     :
     Challenge:
     14:
     0.476,0.755,0.383,0.118,0.042: // measure 1
0000
0000
0000
0000
,  // measure 2
0000
0000
0000
0000
,  // measure 3
0000
0000
0000
0000
,  // measure 4
0000
0000
0000
0000
,  // measure 5
1001
0000
0000
0000
0000
0010
0000
0110
,  // measure 6
0000
0000
0000
1000
,  // measure 7
1001
0000
0000
0000
0000
0100
0000
0110
,  // measure 8
0000
1000
0001
1000
,  // measure 9
1001
0100
1001
0100
,  // measure 10
2002
0000
0000
3003
,  // measure 11
0100
0000
1000
0000
0100
0010
1000
0010
,  // measure 12
0100
0000
0000
0001
1000
0100
0010
0001
,  // measure 13
1000
0000
0000
0000
0001
0100
0010
1000
,  // measure 14
0100
0000
0010
0000
0001
0010
0100
1000
,  // measure 15
0001
0000
0100
0000
0010
0010
0010
0000
,  // measure 16
1000
0000
0001
0000
1000
1000
1000
0000
,  // measure 17
0010
0000
0100
0000
0010
0010
0010
0000
,  // measure 18
1000
0000
0001
0000
0001
1000
0001
0000
,  // measure 19
1001
0000
0100
0000
1000
0000
0100
0010
,  // measure 20
0001
0100
0010
0100
,  // measure 21
0001
0000
1000
0000
0010
0000
1000
0100
,  // measure 22
0000
0010
0100
0000
0010
0100
0010
0100
,  // measure 23
1001
0000
0100
0000
0010
0000
0100
0010
,  // measure 24
0000
1000
0100
0000
0010
0000
0100
0000
,  // measure 25
1001
0000
0100
0000
0010
0000
0100
0001
,  // measure 26
0000
1000
0100
0010
0001
0100
0001
0000
,  // measure 27
1002
0000
0100
0000
,  // measure 28
1003
1000
0010
1000
,  // measure 29
2010
0000
0000
0000
0100
0000
0000
3010
,  // measure 30
0000
0001
0100
0001
,  // measure 31
1001
0000
0110
0000
1000
0100
0010
1000
,  // measure 32
0100
0010
0001
0100
0100
0010
0100
0010
,  // measure 33
1000
0100
0001
0010
0100
1000
0100
0010
,  // measure 34
0001
1000
0100
1000
0100
0010
0001
0100
,  // measure 35
0001
0000
1001
0110
,  // measure 36
2001
0000
0010
0000
3001
0100
0010
0100
,  // measure 37
0001
0100
0010
1000
0100
0010
0100
0001
,  // measure 38
0102
0000
1000
0000
0103
0010
1000
0010
,  // measure 39
1000
0010
0200
0000
2300
0000
3010
0000
,  // measure 40
0110
0000
0010
0000
0100
1000
0100
0010
,  // measure 41
0000
0001
0100
0000
0010
0000
1000
0000
,  // measure 42
2000
0000
3001
0000
0002
0000
1003
1010
,  // measure 43
0000
0000
0100
0000
0010
0000
1000
0000
1000
0010
1000
0000
1000
0010
1000
0000
,  // measure 44
1010
0000
0100
0000
0010
1000
0100
0010
,  // measure 45
0000
1000
0100
0000
0001
0000
0010
0000
,  // measure 46
0100
0000
1000
0100
0000
1000
0100
1001
,  // measure 47
0000
0100
0010
0000
1000
0100
0010
0001
,  // measure 48
1001
0000
0100
0000
0010
1000
0010
1000
,  // measure 49
0000
0010
0100
0000
0010
1000
0100
0010
,  // measure 50
0001
0000
0100
0010
0000
0100
0000
1001
,  // measure 51
0000
0100
0010
0100
0010
0100
0010
0000
,  // measure 52
1002
0000
0000
0000
0100
0000
0000
1000
0000
0000
1000
0000
1000
0000
1000
0003
,  // measure 53
2010
0000
0000
0000
0010
0000
0000
3000
0100
0001
0100
0001
0000
0100
0000
0001
,  // measure 54
1001
0100
0010
0000
,  // measure 55
0100
0000
0100
0000
,  // measure 56
0100
0000
0000
0000
,  // measure 57
0010
0000
0010
0000
,  // measure 58
0010
0000
0000
0000
,  // measure 59
1000
0000
1000
0000
,  // measure 60
1000
0000
0000
0000
,  // measure 61
0001
0000
0001
0000
,  // measure 62
0001
0010
0010
0010
,  // measure 63
0000
1000
0100
0100
,  // measure 64
0100
0000
0010
0001
,  // measure 65
0001
0001
0001
0000
,  // measure 66
1000
0100
0100
0100
,  // measure 67
0100
0010
0010
0010
,  // measure 68
0010
0000
0100
0100
,  // measure 69
0100
0000
1000
0100
,  // measure 70
1001
0100
0001
1000
,  // measure 71
0001
1000
0000
0000
,  // measure 72
0010
0100
0010
0100
,  // measure 73
0010
0000
1000
0001
,  // measure 74
1000
0000
0010
0010
,  // measure 75
0010
0001
0100
0010
,  // measure 76
1000
0100
0010
0001
,  // measure 77
1000
0100
0001
0010
,  // measure 78
1001
0100
0010
1000
,  // measure 79
0100
0010
0001
0100
,  // measure 80
1000
1000
1000
0100
,  // measure 81
0010
0001
0010
0100
,  // measure 82
1001
0100
0100
0010
,  // measure 83
0010
1000
0100
0010
,  // measure 84
1000
0001
0100
0010
,  // measure 85
1000
0001
0100
0001
,  // measure 86
1002
0000
1000
0000
,  // measure 87
1000
0000
1000
0000
1000
0000
1000
0003
,  // measure 88
2001
0000
0000
0000
0001
0000
0000
0001
,  // measure 89
0000
0000
0000
0000
0001
0000
0001
3000
,  // measure 90
1001
0000
0100
0000
0100
0000
1000
0100
,  // measure 91
0010
0000
0100
0000
1000
0100
0001
0000
,  // measure 92
0100
0010
1000
0100
,  // measure 93
0001
0010
0100
1000
0100
0010
0001
0100
,  // measure 94
1001
0000
0101
0101
,  // measure 95
2001
0000
0010
0000
3010
0100
0010
0000
,  // measure 96
0010
0001
0010
0001
,  // measure 97
0102
0000
1000
0000
0103
0010
0100
0000
,  // measure 98
0100
0020
2030
3020
,  // measure 99
2030
0010
0010
3010
,  // measure 100
0102
0100
0100
0103
,  // measure 101
1000
0100
0010
0001
0010
0100
1000
1001
,  // measure 102
0000
0000
0000
0000
0100
0000
0000
0000
0001
1000
0001
0000
0001
1000
0001
0000
,  // measure 103
1001
0000
0100
0000
1000
0100
0010
0001
,  // measure 104
0000
0100
0010
0000
0100
0000
0100
0000
,  // measure 105
0001
0000
0010
0100
0000
1000
0000
0100
,  // measure 106
0000
0010
0100
0000
1000
0100
0010
0001
,  // measure 107
0100
0000
0010
1000
0000
0001
0000
0001
,  // measure 108
0000
0000
1000
0000
1000
0100
0010
0001
,  // measure 109
0100
0000
0010
0100
0000
0001
0000
1001
,  // measure 110
0000
0100
0010
0000
0100
0000
0010
0000
,  // measure 111
1001
0000
0000
0000
0101
0000
0000
1010
0000
0000
0110
0000
0101
0000
0100
0000
,  // measure 112
1010
0000
0000
0000
0110
0000
0000
0000
1000
0001
1000
0001
0000
1001
0000
1002
,  // measure 113
0000
0000
0000
0000
1003
0000
0000
0010
,  // measure 114
0000
0100
0010
0100
,  // measure 115
1001
0000
0000
0000
0110
0000
0010
1010
,  // measure 116
0000
0000
0100
0000
0010
1000
0100
0010
,  // measure 117
1001
0000
0100
0000
0010
1000
0010
1000
,  // measure 118
0010
0000
1000
0000
1000
0100
0010
0100
,  // measure 119
0010
0000
0001
0000
0001
0010
0100
0010
,  // measure 120
0100
0000
0010
0000
1000
0100
0010
0001
,  // measure 121
1001
0000
0100
0000
0010
0100
0010
0000
,  // measure 122
1000
0100
0010
0000
0001
0010
0100
0010
,  // measure 123
1010
0000
0100
0000
0010
0100
0010
0000
,  // measure 124
1000
0100
0010
0000
0100
0001
0010
0100
,  // measure 125
0010
0000
1000
0000
0010
0100
0010
0100
,  // measure 126
0000
1000
0100
0000
0010
0100
0010
0100
,  // measure 127
0001
0000
1000
0000
0010
0100
0010
0110
,  // measure 128
0000
1010
0101
0110
,  // measure 129
1001
0000
0100
0000
0100
1000
0100
0010
,  // measure 130
0000
0100
0001
0000
0100
0010
0100
0001
,  // measure 131
1001
0000
0110
0000
1000
0010
1000
1001
,  // measure 132
0000
0000
0100
0000
0010
1000
0100
0010
,  // measure 133
1002
0000
0103
0200
0000
0310
0010
0020
,  // measure 134
0000
0030
0100
0000
0100
0000
0100
0000
,  // measure 135
2010
0000
0010
0010
0000
0010
0010
0010
,  // measure 136
0000
0000
0010
0000
0010
0010
0010
3000
,  // measure 137
1001
0000
0100
0000
1000
0100
0010
1001
,  // measure 138
0000
0000
0010
0100
,  // measure 139
1001
0010
0100
1000
,  // measure 140
0001
0010
0100
1000
,  // measure 141
0100
0000
0010
0000
,  // measure 142
0001
0000
1000
0000
,  // measure 143
0100
0000
0010
0000
,  // measure 144
0001
0000
0000
0000
1000
0000
0001
1000
,  // measure 145
1001
0000
0110
0000
1000
0100
0110
1000
,  // measure 146
0100
0010
0110
0000
0100
0000
0101
0000
,  // measure 147
1000
0010
1010
0000
0100
0001
0101
0000
,  // measure 148
1100
1010
0110
0110
,  // measure 149
1010
0000
0100
0000
1000
0100
0010
0001
,  // measure 150
0000
0100
0010
0000
0101
0000
1010
0000
,  // measure 151
0101
0000
0100
0010
1000
0010
0100
1001
,  // measure 152
0000
0000
0100
0000
0010
0000
0100
0000
0100
0010
0100
0000
0100
0010
0100
0000
,  // measure 153
1001
0000
0110
0000
1000
0100
0110
1000
,  // measure 154
0000
0001
0100
0000
0010
0000
0100
0000
,  // measure 155
0010
0000
1000
0100
0010
0001
1000
1001
,  // measure 156
0000
0000
0110
0000
1000
0100
0010
0001
,  // measure 157
1001
0000
0110
0000
1000
0100
0010
1010
,  // measure 158
0000
0100
0010
0000
1000
0100
0010
0001
,  // measure 159
1001
0000
0110
0000
0100
0001
0010
0110
,  // measure 160
0000
1000
0010
0100
0010
0100
0010
0000
,  // measure 161
2001
0000
0000
0000
0001
0000
0000
0001
0000
0000
0001
0000
0001
0000
3001
0000
,  // measure 162
1002
0000
0000
0000
0000
0000
0000
0000
1000
0000
0000
0000
1003
0000
0000
0000
1000
0000
0100
0000
0010
0000
0001
0010
0100
0000
0010
0000
0100
0000
1002
0000
,  // measure 163
0003
0002
0000
0000
0000
0000
0000
0000
0000
0000
0000
0000
0000
0000
0000
0000
0000
0000
0000
0000
0000
0000
0000
0000
0000
0000
0000
0000
0000
0000
0000
0000
0000
0000
0000
0000
0000
0000
0000
0000
0000
0000
0000
0000
0000
0000
0000
0000
0103
0000
0000
0000
0000
0000
0000
0000
0000
0000
0000
0000
0000
0000
0000
0000
0000
0000
0000
0000
0000
0000
0000
0000
0000
0000
0000
0000
0000
0000
0000
0000
0000
0000
0000
0000
0000
0000
0000
0000
0000
0000
0000
0000
0000
0000
0000
0000
1000
0000
0000
0000
0000
0000
0000
0000
0000
0000
0000
0000
0000
0000
0000
0000
0000
0000
0000
0000
0000
0000
0000
0000
0100
0000
0000
0000
0000
0000
0000
0000
0000
0000
0000
0000
0000
0000
0000
0000
0000
0000
0000
0000
0000
0000
0000
0000
0010
0000
0000
0000
0000
0000
0000
0000
0000
0000
0000
0000
0000
0000
0000
0000
0000
0000
0000
0000
0000
0000
0000
0000
0001
0000
0000
0000
0000
0000
0000
0000
0000
0000
0000
0000
0000
0000
0000
0000
0000
0000
0000
0000
0000
0000
0000
0000
,  // measure 164
0000
0100
1000
0000
0100
0010
0100
0000
,  // measure 165
1001
0000
0110
0000
1000
0100
0010
1001
,  // measure 166
0000
0100
0010
0000
0100
0001
0010
0100
,  // measure 167
2002
0000
0000
0000
,  // measure 168
0000
0000
0000
0000
,  // measure 169
0000
0000
0000
0000
,  // measure 170
0000
0000
0000
0000
,  // measure 171
0000
0000
0000
0000
,  // measure 172
3003
0000
0000
0000
;
