#TITLE:Amalgamation;
#SUBTITLE:[FULL SONG] Original Score Version;
#ARTIST:Mystic Moon;
#TITLETRANSLIT:;
#SUBTITLETRANSLIT:;
#ARTISTTRANSLIT:;
#CREDIT:;
#BANNER:[Full Song] Amalgamation (Original Score Version).png;
#BACKGROUND:[Full Song] Amalgamation (Original Score Version)-bg.png;
#LYRICSPATH:;
#CDTITLE:;
#MUSIC:[Full Song] Amalgamation (Original Score Version).mp3;
#OFFSET:-0.362;
#SAMPLESTART:100.010;
#SAMPLELENGTH:12.000;
#DISPLAYBPM:166;
#SELECTABLE:YES;
#BPMS:0.000=166.000,251.500=332.000,255.500=166.000;
#STOPS:251.500=0.181
,252.500=0.181
,253.500=0.181
,254.500=0.181
,426.000=1.446
;
#BGCHANGES:;

//---------------dance-single - ----------------
#NOTES:
     dance-single:
     :
     Challenge:
     15:
     0.725,0.863,0.783,0.134,0.201: // measure 1
0000
0000
0000
0000
,  // measure 2
0000
0000
0000
0000
,  // measure 3
0000
0000
0000
0000
,  // measure 4
0000
0000
0000
0000
,  // measure 5
1001
0100
0010
0100
,  // measure 6
0010
0010
1000
1000
,  // measure 7
0001
0001
0100
0100
,  // measure 8
0010
0010
0101
0110
,  // measure 9
1100
0010
0010
0100
,  // measure 10
0010
0100
0011
1100
,  // measure 11
0110
0001
0010
0100
,  // measure 12
1000
0100
0011
1001
,  // measure 13
0110
0000
0000
1000
0001
0000
1000
0001
0100
0000
0001
0000
0010
0000
1000
0000
,  // measure 14
0002
0000
0100
0100
0100
0100
0100
0100
,  // measure 15
1003
0100
0010
0001
0100
0000
0010
0100
,  // measure 16
0010
0000
1000
0100
0010
0001
0100
0010
,  // measure 17
0010
0100
0010
0000
1000
0000
0100
0000
0010
0000
0000
0000
1000
0000
0100
0000
,  // measure 18
0001
0100
0010
1000
,  // measure 19
0110
0010
0100
0010
0100
0010
0010
1000
,  // measure 20
0100
0010
0010
0010
0100
1000
0001
0001
,  // measure 21
0001
1000
0010
0010
0010
0100
0010
0010
,  // measure 22
0010
0000
1000
0000
1100
0010
0100
0010
,  // measure 23
0110
0100
0001
0100
0010
0000
1000
1000
,  // measure 24
0010
0000
0100
0000
0001
0001
0100
0010
,  // measure 25
0100
0001
0100
0000
0010
0000
1000
0000
0100
0000
0000
0000
0010
0000
0100
0000
,  // measure 26
0010
0000
1000
0100
0010
0000
0001
0000
,  // measure 27
0110
1000
0100
0010
0001
0100
0010
0100
,  // measure 28
0010
1000
0100
0010
0001
0100
0010
0100
,  // measure 29
0110
0010
1000
0100
0011
0001
0100
0010
,  // measure 30
0110
1010
0110
0000
,  // measure 31
2001
0010
0010
0010
,  // measure 32
0001
0000
0010
0000
0001
0000
0001
3000
,  // measure 33
0102
0100
1000
1000
,  // measure 34
0100
0000
0100
0000
1000
0003
1010
0000
,  // measure 35
0110
0000
0000
0000
0110
0000
0000
1000
0001
0000
1000
0100
1000
0100
0010
1000
,  // measure 36
0002
2000
0000
0000
0000
0000
0000
3003
,  // measure 37
0110
1000
0100
0010
0001
0000
0100
0010
,  // measure 38
0100
0000
1000
0100
0010
0001
0100
0010
,  // measure 39
0100
1000
0100
0000
0010
0000
1000
0000
0100
0000
0000
0000
0001
0000
0100
0000
,  // measure 40
1000
0010
0100
0010
,  // measure 41
1010
1000
0100
0010
0001
0100
0010
0100
,  // measure 42
0010
1000
0100
0010
0001
0100
1000
0100
,  // measure 43
1010
0001
1000
0010
0110
0001
0100
0010
,  // measure 44
1100
0010
0100
0010
1100
1000
0110
0010
,  // measure 45
0110
1000
0100
0010
0001
0000
1000
0100
,  // measure 46
0010
0000
0001
0100
1000
0100
0010
0001
,  // measure 47
1000
0001
1000
0000
0010
0000
0100
0000
0010
0000
0000
0000
1000
0000
0100
0000
,  // measure 48
0010
0000
0001
0100
1000
0000
0010
0100
,  // measure 49
0110
1000
0100
0010
0001
0100
0010
0100
,  // measure 50
0010
1000
0100
0010
0001
0100
1000
0100
,  // measure 51
0001
0000
0100
0000
1000
0000
0010
0000
1000
0000
0010
0100
0010
0000
0001
0000
,  // measure 52
2000
0010
0001
3010
,  // measure 53
0102
0000
1000
0000
1000
0000
1000
0003
,  // measure 54
2010
0001
0001
3001
,  // measure 55
0100
0010
0100
0000
1000
0100
0010
0001
,  // measure 56
0100
0000
0010
0000
0100
0010
0100
0010
,  // measure 57
2010
0000
0100
0000
0100
0000
0100
3000
,  // measure 58
0102
0010
0010
0013
,  // measure 59
1010
0000
0100
0000
0010
0000
0001
0100
,  // measure 60
0110
0000
1000
0000
0100
0010
0001
0100
,  // measure 61
1000
0001
1000
0001
1000
0000
0001
0000
0101
0000
0000
0110
0000
0000
1010
0000
,  // measure 62
0100
0010
0100
0010
0100
0000
0100
0000
1010
0000
0000
0110
0000
0000
0101
0000
,  // measure 63
0001
1000
0001
1000
0001
0000
1000
0000
0110
0000
0000
0101
0000
0000
0110
0000
,  // measure 64
0000
1010
0000
0110
0000
0101
0000
0110
,  // measure 65
1000
0100
1000
0100
1000
0000
0001
0000
0101
0000
0000
0110
0000
0000
0110
0000
,  // measure 66
0010
1000
0010
1000
0010
0000
0010
0000
0110
0000
0000
0110
0000
0000
0110
0000
,  // measure 67
0010
0100
0010
0100
0010
0000
0001
0000
0110
0000
0000
0110
0000
0000
0101
0000
,  // measure 68
1000
0100
0010
0001
0100
0010
1000
0100
,  // measure 69
0001
0001
1000
0010
2002
0000
0000
3003
,  // measure 70
0110
1000
0010
0100
0010
1000
0100
0010
,  // measure 71
0001
0000
0100
0010
0100
0010
0100
0010
,  // measure 72
1000
0100
1000
0100
0010
0000
0001
0000
0100
0010
0100
0010
0100
0000
0100
0000
,  // measure 73
0010
1000
0010
0000
0100
0000
0001
0000
0100
0000
1000
0000
0100
0000
0010
0000
,  // measure 74
1010
0100
0010
0100
0010
0100
0010
1000
,  // measure 75
0100
0010
0001
0100
1000
0100
0010
1000
,  // measure 76
0010
1000
0100
0010
0001
0100
0010
1000
,  // measure 77
0110
1010
0110
0101
,  // measure 78
1010
0100
0010
0001
0100
0010
0100
1010
,  // measure 79
1010
0100
0010
0001
0100
1000
0100
1100
,  // measure 80
1100
0100
0010
0010
0110
0100
0100
0001
,  // measure 81
0101
0110
0110
0110
,  // measure 82
0110
1000
0100
0010
0001
0100
0010
0100
,  // measure 83
0011
0100
0010
1000
0100
0010
0001
0100
,  // measure 84
0110
1000
0100
0010
0110
1000
0100
0010
,  // measure 85
0010
0100
0010
0100
0010
0100
0010
0100
0010
0100
0010
0100
0010
0100
0010
0100
,  // measure 86
2000
0100
0010
0010
,  // measure 87
0010
0001
0010
0010
,  // measure 88
3002
0100
1000
1000
,  // measure 89
0010
0000
0010
0000
0100
0000
0100
0003
,  // measure 90
0200
1000
1000
0010
,  // measure 91
0010
0001
0010
0010
,  // measure 92
0320
1000
0100
0100
,  // measure 93
1000
0000
0001
0000
0100
0000
0100
0030
,  // measure 94
2010
0100
0010
3100
,  // measure 95
0011
0101
1100
1010
,  // measure 96
0120
1000
0100
0031
,  // measure 97
0011
0011
0110
0110
,  // measure 98
1200
1000
0001
0310
,  // measure 99
1010
1010
0101
0101
,  // measure 100
0120
1000
0031
0102
,  // measure 101
0100
0013
0110
1010
,  // measure 102
0210
1000
0301
0120
,  // measure 103
1000
0031
0110
0110
,  // measure 104
1001
0001
1000
0001
1000
0001
1100
0000
0000
0110
0100
0010
,  // measure 105
0100
0010
0100
0011
0000
0000
1100
0100
0010
0001
0100
0010
,  // measure 106
1001
0000
0001
0100
0000
0100
1000
0000
0110
0000
1000
0010
0000
0010
1000
0000
,  // measure 107
0101
0000
0001
0100
0000
0010
0100
0000
2002
0000
0000
0000
3003
0000
0000
0000
,  // measure 108
0110
0000
0001
1000
0100
0000
0010
0000
,  // measure 109
0100
0000
0010
0000
1000
0100
0010
0001
,  // measure 110
1000
0001
1000
0000
0100
0000
0010
0000
0001
0000
0000
0000
0100
0000
0010
0000
,  // measure 111
0100
0010
0100
0010
,  // measure 112
1010
0000
0100
0010
0100
asure
112
1010
0000
0100
0010
0100
0000
0001
0000
0110
0000
1000
0001
1000
0000
0100
0000
,  // measure 113
0110
0000
0010
0001
0010
0000
0010
0000
0011
0000
0100
1000
0100
0000
0100
0000
,  // measure 114
0110
0000
0010
0100
0010
0000
0010
0000
0110
0000
0001
0010
0001
0000
1000
0000
,  // measure 115
1100
0000
0100
0010
0100
0000
0100
0000
0110
0000
0110
0000
0101
0000
0101
0000
,  // measure 116
0110
1000
0100
0010
0001
0100
0010
0100
,  // measure 117
0010
1000
0100
0010
0001
0100
1000
0100
,  // measure 118
0010
0100
0010
0000
1000
0000
0100
0000
0010
0001
0010
0000
0100
0000
1000
0000
,  // measure 119
0010
0000
0010
0000
1000
0100
0010
0001
,  // measure 120
0110
0000
1000
0100
1000
0000
0010
0000
0110
0000
0001
0010
0001
0000
0010
0000
,  // measure 121
1100
0000
0100
0010
0100
0000
0100
0000
1001
0000
0100
0010
0100
0000
0100
0000
,  // measure 122
0011
0000
0100
0000
0010
0000
0100
0000
0011
0000
1000
0100
1000
0000
0010
0000
,  // measure 123
0110
0000
0101
0000
0110
0010
1010
0010
,  // measure 124
0110
1000
0100
0010
,  // measure 125
0001
0000
0100
0000
1100
0100
0110
0100
,  // measure 126
0110
0101
0110
0100
,  // measure 127
0010
0000
0100
0000
1010
0100
0010
0100
,  // measure 128
0110
0101
0100
0010
,  // measure 129
1000
0000
0010
0000
1100
0100
0010
0100
,  // measure 130
0110
0011
0110
0110
,  // measure 131
1100
0000
0110
0000
0011
0100
0010
0000
,  // measure 132
0110
0000
1010
0000
0110
1000
0100
0010
,  // measure 133
0001
0000
0000
0000
1000
0100
0010
0100
0010
0100
0010
0100
0010
0100
0010
0100
,  // measure 134
2002
0000
0000
0000
,  // measure 135
3003
0000
0000
0000
;
