#TITLE:Acchi de Kocchi de;
#SUBTITLE:Acchi Kocchi OP;
#ARTIST:Acchi<->Kocchi;
#TITLETRANSLIT:;
#SUBTITLETRANSLIT:;
#ARTISTTRANSLIT:;
#CREDIT:;
#BANNER:[Full Song] Acchi de Kocchi de.png;
#BACKGROUND:[Full Song] Acchi de Kocchi de-bg.png;
#LYRICSPATH:;
#CDTITLE:;
#MUSIC:[Full Song] Acchi de Kocchi de.mp3;
#MENUCOLOR:0,0,1,1;
#METERTYPE:DDR X;
#OFFSET:0.953;
#SAMPLESTART:100.010;
#SAMPLELENGTH:12.000;
#SELECTABLE:YES;
#BPMS:0.000=210.001,132.000=52.500,144.000=105.001,156.000=210.001,352.000=52.500,364.000=105.001,376.000=210.001,548.000=105.001,564.000=210.001;
#STOPS:67.500=1.143
,287.500=1.143
,629.000=0.143
,630.500=0.143
;
#BGCHANGES:;

//---------------dance-single - ----------------
#NOTES:
     dance-single:
     :
     Challenge:
     19:
     0.868,1.000,0.512,0.630,0.494: // measure 1
0000
0000
0000
0000
,  // measure 2
0000
0000
0000
0000
,  // measure 3
1010
0000
0110
0000
,  // measure 4
0101
0000
0110
0000
,  // measure 5
1010
0000
0110
0000
,  // measure 6
0101
0000
0110
0000
,  // measure 7
1010
0000
0110
0000
,  // measure 8
0000
0110
0000
0000
,  // measure 9
1000
0100
0000
0010
0000
0001
0000
0100
,  // measure 10
0010
0100
0010
0100
,  // measure 11
0010
1000
0010
0100
0010
1000
0010
0100
0010
1000
0010
0100
0010
1000
0010
0000
,  // measure 12
0001
0100
0001
0000
0001
0100
0001
0000
0001
0100
0001
0000
0001
0100
0001
0000
,  // measure 13
0100
0001
0100
0010
0100
0001
0100
0010
0100
0001
0100
0010
0100
0001
0100
0000
,  // measure 14
0001
0100
0001
0000
0001
0100
0001
0000
0001
0100
0001
0000
0001
0100
0001
0000
,  // measure 15
1000
0001
1000
0100
1000
0001
1000
0100
1000
0001
1000
0100
1000
0001
1000
0000
,  // measure 16
1000
0001
1000
0000
1000
0001
1000
0000
1000
0001
1000
0000
1000
0001
1000
0000
,  // measure 17
0100
0100
0100
0100
0000
0010
0000
1001
,  // measure 18
0110
0000
1000
0000
0100
0000
0020
1000
,  // measure 19
0000
0100
0000
0001
1030
0000
0200
0000
,  // measure 20
0010
0000
2000
0300
3200
0000
0020
0000
,  // measure 21
0000
0030
1000
0001
,  // measure 22
0320
0000
0100
0000
2000
0000
3000
0032
,  // measure 23
0000
0100
0000
0010
0203
0000
0310
0000
,  // measure 24
1000
0100
0010
0001
0100
1000
0100
0010
,  // measure 25
0100
0010
1000
0000
0100
0010
0001
0000
1001
0000
0010
0000
0010
0000
0100
0000
,  // measure 26
0000
0000
1000
0000
0100
0000
0020
0001
,  // measure 27
0000
0100
0000
1000
0230
0000
0010
0000
,  // measure 28
1000
0001
0010
2000
,  // measure 29
0000
0000
0000
3000
0320
0000
0001
0000
,  // measure 30
1000
0000
0100
0000
0001
0000
0100
2030
,  // measure 31
0000
0100
0000
0010
0001
0000
0001
3000
,  // measure 32
0110
0110
0110
0110
0110
0110
0000
1001
,  // measure 33
0000
0000
0000
0000
,  // measure 34
2000
0000
0000
0000
0100
0000
0000
0000
0020
0000
3000
0000
0001
0000
0100
0000
0002
0000
0030
0000
0100
0000
0000
0020
0000
0000
0003
0000
0100
0000
0031
0010
,  // measure 35
2000
0001
0100
0010
3020
0100
1000
0001
0200
0030
0001
0000
0020
0300
1000
0031
,  // measure 36
0200
0001
0010
1000
0001
0310
0110
0110
2000
0001
0010
0010
0100
3010
0110
1001
,  // measure 37
0102
0100
0010
0010
1000
1000
0010
0010
,  // measure 38
2003
0100
0010
0001
0010
0100
0010
3001
,  // measure 39
1010
0000
0000
0000
1000
0000
0010
0000
1010
0000
0000
0000
0100
0000
0001
0000
0101
0000
0000
0000
0010
0000
0100
0000
1000
0100
1000
0100
0010
0100
0010
0001
,  // measure 40
1000
0010
0001
0100
0010
1000
0100
0000
1000
0100
1000
0000
1000
0100
1000
0000
,  // measure 41
0001
0000
1000
0000
0100
0000
0100
0000
0100
0010
0100
0000
0100
0010
0100
0000
,  // measure 42
1000
0010
1000
0100
0001
1000
0010
0000
0100
1000
0010
0000
0001
0100
0010
0000
,  // measure 43
1000
1000
0100
0010
0001
0000
0200
1000
,  // measure 44
0000
0010
1000
0001
,  // measure 45
0010
1300
0100
0020
0000
1000
0130
2000
,  // measure 46
0000
0001
3100
0000
0010
0000
0001
0000
,  // measure 47
1100
0100
0010
0011
0000
1001
0110
0000
,  // measure 48
0010
0100
0010
0100
0001
1000
0001
0000
0200
1000
0310
0000
2000
0001
3100
0000
,  // measure 49
0001
1000
0001
1000
0010
0100
0010
0000
0200
0001
0310
0000
0002
0100
0013
0000
,  // measure 50
1000
0001
1000
0001
0100
0010
0100
0000
0002
1000
0013
0000
0200
0010
1300
0000
,  // measure 51
1000
1000
1000
0000
1000
0010
0100
0002
,  // measure 52
0000
0100
0010
0000
0100
0000
0010
0000
,  // measure 53
2003
0000
0100
0100
3200
0000
0010
0010
,  // measure 54
0320
0000
0001
0001
0032
0000
0010
0010
,  // measure 55
0023
0000
0100
0100
0230
0000
1000
1000
,  // measure 56
2300
0000
0200
0300
,  // measure 57
0020
0030
0002
3003
,  // measure 58
0202
0300
0010
0013
,  // measure 59
2020
3000
0001
0031
,  // measure 60
0120
0000
0100
0000
0100
0000
0130
0010
,  // measure 61
1000
0010
0100
0001
0100
0010
1000
0010
0100
0010
1000
0010
0001
0010
0100
0000
,  // measure 62
0220
0000
0000
0030
,  // measure 63
1000
1000
0001
0301
,  // measure 64
1001
1001
1001
0000
0110
0110
0110
0000
,  // measure 65
0110
0110
0110
0110
0000
1001
1001
0000
,  // measure 66
2000
0100
3010
0002
0100
0013
0200
1000
,  // measure 67
0320
0100
1030
0020
0100
0031
1000
0100
,  // measure 68
0010
0002
1000
0103
2000
0010
3001
0200
,  // measure 69
0010
0000
1300
0000
0200
0000
0010
0000
0301
0010
0100
0010
0001
0010
1000
0000
,  // measure 70
0002
0100
0013
0200
0010
0301
1000
0010
,  // measure 71
0001
1000
0100
0010
0001
0100
0010
0010
,  // measure 72
1100
1100
1100
1100
0000
1100
0000
0011
,  // measure 73
1001
0000
0010
0000
1000
0000
0002
0010
,  // measure 74
0000
1000
0000
0100
0013
0000
2000
0000
,  // measure 75
0001
0000
0020
3000
2030
0000
0002
0000
,  // measure 76
0000
0003
0010
0100
,  // measure 77
3002
0000
1000
0000
0020
0000
0030
0203
,  // measure 78
0000
1000
0000
0001
2300
0000
3001
0000
,  // measure 79
0010
1000
0100
0010
0001
0100
0010
0000
,  // measure 80
0100
0010
1000
0000
0100
0001
0010
0000
0110
0000
0001
0000
0001
0000
1000
0000
,  // measure 81
1010
0000
0100
0000
0010
0000
0001
0010
,  // measure 82
0000
1000
0000
0100
0010
0000
0001
0000
,  // measure 83
1000
0100
0010
0001
,  // measure 84
0000
0000
1010
1010
,  // measure 85
0110
0000
0000
0100
0010
0000
1000
0000
,  // measure 86
0100
0010
0000
1000
0100
0000
0010
0000
,  // measure 87
1100
1100
1100
1100
1100
1100
0000
0011
,  // measure 88
0000
0000
0000
0000
,  // measure 89
0200
0000
0000
0000
0001
0000
0000
2000
0000
0000
0300
0000
0010
0000
0001
0000
0020
0000
3000
0000
0001
0000
0000
2000
0000
0000
0030
0000
0001
0000
3010
1000
,  // measure 90
0200
0000
0010
0000
0001
0000
1000
0000
2300
0000
0001
0000
0100
0000
3010
0100
0002
0000
0000
0000
0010
0000
0000
0000
2000
0000
0003
0000
0100
0000
3010
0100
,  // measure 91
0002
0010
1000
0100
0010
1003
1001
1001
0200
0010
1000
1000
0001
1300
1001
0110
,  // measure 92
0021
0001
1000
1000
0100
0100
1000
1000
,  // measure 93
0230
0001
1000
0010
1000
0001
1000
0310
,  // measure 94
1100
0000
0000
0000
0100
0000
1000
0000
1100
0000
0000
0000
0001
0000
0010
0000
0011
0000
0000
0000
1000
0000
0001
0000
0010
0001
0010
0001
0100
0010
0100
0010
,  // measure 95
1000
0010
0100
0010
1000
0100
1000
0000
0010
0100
0010
0000
0010
0100
0010
0000
,  // measure 96
0001
0100
0010
0100
0001
0010
0001
0000
0100
0010
0100
0000
0100
0010
0100
0000
,  // measure 97
1000
0010
0100
0001
0100
0010
1000
0000
0001
0100
0001
0000
0001
0100
0001
0000
,  // measure 98
0001
0000
0001
0000
0001
0000
0001
0000
0100
0000
1000
0000
1000
0010
0002
0000
,  // measure 99
0000
0100
0100
0010
,  // measure 100
1000
0000
0100
0020
0000
0003
0130
2000
,  // measure 101
0000
0001
0010
0100
,  // measure 102
3001
0100
0010
0001
0000
1100
1100
0000
,  // measure 103
0001
0010
0001
0010
0100
1000
0100
0000
2000
0100
3001
0000
0020
0100
1030
0000
,  // measure 104
1000
0100
1000
0100
0010
0001
0010
0000
0020
0100
0031
0000
0200
0010
1300
0000
,  // measure 105
1000
0010
1000
0010
0100
0001
0100
0000
0200
0001
1300
0000
0020
1000
0031
0000
,  // measure 106
1000
0000
1000
0000
1000
0000
1000
0000
0010
0000
0001
0100
1000
0000
2000
0000
,  // measure 107
0000
0010
0010
0010
0001
3001
0001
0000
,  // measure 108
2000
0000
0100
0100
3200
0000
0010
0010
,  // measure 109
0320
0000
1000
1000
2030
0000
0001
0001
,  // measure 110
3002
0000
0100
0100
0203
0000
0010
0010
,  // measure 111
0320
0000
2000
3000
,  // measure 112
0200
0000
0300
0000
0002
0000
0000
0033
,  // measure 113
2002
3000
0010
1003
,  // measure 114
2002
0003
0100
3001
,  // measure 115
0001
0000
1000
0000
0001
0001
1000
1000
,  // measure 116
0010
0100
0010
0001
0010
0100
0001
0100
0010
0100
0001
0100
0010
1000
0100
0000
,  // measure 117
0202
0000
0000
0000
,  // measure 118
0000
0000
0000
0303
,  // measure 119
1001
0000
1000
0000
0001
0000
0001
0000
0001
1000
0001
0000
0001
1000
0001
0000
,  // measure 120
1001
0000
0001
0000
1000
0000
1000
0000
1000
0001
1000
0000
1000
0001
1000
0000
,  // measure 121
0110
0000
0010
0000
0100
0000
0100
0000
0010
0100
0010
0000
0010
0100
0010
0000
,  // measure 122
1010
0110
0102
0000
,  // measure 123
1003
0000
1000
0000
0100
0000
0100
0000
0010
0001
0010
0000
0010
0001
0010
0000
,  // measure 124
0001
0000
0001
0000
0010
0000
0010
0000
0100
1000
0100
0000
0100
1000
0100
0000
,  // measure 125
0100
0010
1000
0010
0100
0001
0100
0010
,  // measure 126
0001
0000
0010
0000
0100
0000
1000
0000
0000
0010
0000
0000
0100
0000
0010
0000
,  // measure 127
0100
0010
0100
0000
1001
0000
0000
0000
0001
1000
0001
0000
1001
0000
0000
0000
,  // measure 128
1000
0100
1000
0000
1100
0000
0000
0000
0001
0010
0001
0000
0011
0000
0000
0000
,  // measure 129
1000
0010
1000
0000
1010
0000
0000
0000
0001
0100
0001
0000
0101
0000
0000
0000
,  // measure 130
0110
0110
1001
0000
,  // measure 131
1000
1000
1000
1000
0100
0100
0100
0100
,  // measure 132
0010
0010
0010
0010
0001
0001
0001
0001
,  // measure 133
0010
0010
0010
0010
0100
0100
0100
0100
,  // measure 134
1000
1000
1000
1000
0100
0100
0100
0000
,  // measure 135
0110
0110
1001
0101
,  // measure 136
1000
0020
0000
1000
0000
0001
0000
0100
,  // measure 137
2030
0000
0100
3010
,  // measure 138
2000
0000
0000
0010
0010
0000
0010
0000
0002
3000
0100
0100
0100
0000
0100
0000
,  // measure 139
0200
0000
0003
0001
0001
0000
0301
0000
1000
0200
0010
0000
0010
0000
0000
0320
,  // measure 140
0000
0000
0100
0000
0001
0000
0100
0000
1000
0000
0130
0010
0000
0001
1000
0001
,  // measure 141
0000
0000
0100
0000
0010
0000
0100
0000
1000
0100
0010
0001
0000
1100
1100
0000
,  // measure 142
1000
0100
1000
0010
1000
0100
1000
0000
0010
0100
0010
0000
0010
0100
0010
0000
,  // measure 143
0001
0010
0001
0100
0001
0010
0001
0000
0100
0010
0100
0000
0100
0010
0100
0000
,  // measure 144
0001
0100
0001
1000
0001
0100
0001
0000
0001
1000
0001
0000
0001
1000
0001
0000
,  // measure 145
2000
0010
3200
0310
0110
0000
0020
1000
,  // measure 146
0000
0100
0001
0130
,  // measure 147
2000
0000
0001
0001
3200
0000
1000
1000
,  // measure 148
0320
0000
0100
0100
0032
0000
1000
1000
,  // measure 149
0023
0000
0001
0001
0200
0030
1000
1000
,  // measure 150
2300
0000
0200
0300
,  // measure 151
0020
0030
0002
3003
,  // measure 152
0202
0300
0010
1003
,  // measure 153
2020
0030
0100
3001
,  // measure 154
0210
0010
0010
0310
,  // measure 155
1000
0001
1000
0001
1000
0001
1000
0001
1000
0001
1000
0001
1000
0001
1000
0000
,  // measure 156
0220
0000
0000
0030
,  // measure 157
0001
0001
1000
1300
,  // measure 158
1001
1001
1001
0110
0110
0110
1000
0100
,  // measure 159
0010
0001
0000
0100
0100
0000
0000
0000
;
