#TITLE:絶対特権主張しますっ!;
#SUBTITLE:;
#ARTIST:十時愛梨, 日野茜, 高森藍子, 星輝子, 堀裕子;
#TITLETRANSLIT:Zettai Tokken Shuchou Shimasuu!;
#SUBTITLETRANSLIT:;
#ARTISTTRANSLIT:Airi Totoki, Akane Hino, Aiko Takamori, Syoko Hoshi, and Yuko Hori;
#GENRE:PASSION JEWELRIES 002 BEAT#3;
#CREDIT:;
#BANNER:Zettai Tokken Shuchou Shimasuu!.png;
#BACKGROUND:Zettai Tokken Shuchou Shimasuu!-bg.png;
#LYRICSPATH:;
#CDTITLE:cdititle.png;
#MUSIC:Zettai Tokken Shuchou Shimasuu!.mp3;
#MENUCOLOR:1,0,0,1;
#METERTYPE:DDR X;
#OFFSET:-0.848;
#SAMPLESTART:45.199;
#SAMPLELENGTH:12.000;
#SELECTABLE:YES;
#BPMS:0.000=200.000;
#STOPS:;
#BGCHANGES:;

//---------------dance-single - ----------------
#NOTES:
     dance-single:
     :
     Challenge:
     17:
     1.000,1.000,1.000,0.569,0.626:
0000
0000
0000
0000
,
0000
0000
0000
0000
,
0000
0000
0000
0000
,
0000
0000
0000
0000
,
0000
0000
0000
0000
,
0102
0000
1003
0200
0000
0010
0000
0320
,
1000
0000
0100
0100
0000
2030
0000
3010
,
0012
0000
1003
0020
0000
0001
0000
0032
,
0010
0000
0010
1003
0000
0001
0000
0100
,
0120
0000
0000
0000
1030
0001
0000
0000
0120
0000
0000
0000
0130
0010
0000
0000
,
1002
0000
0000
0000
0103
0010
0000
0000
2001
0000
0000
0000
3001
1000
0000
0000
,
2100
0000
0000
0000
3100
0010
0000
0000
0012
0000
0000
0000
0013
0100
0000
0000
,
1001
1000
0011
0100
1010
0000
1001
0000
,
0110
0000
0001
0000
1000
0100
0001
0000
0100
0000
1000
0000
0001
0100
1000
0000
,
0101
0000
1000
0000
0001
0100
1000
0000
0100
0000
0001
0000
0001
0010
1000
0000
,
0011
0000
1000
0000
1000
0010
0001
0000
0010
0000
1000
0000
0001
0010
1000
0000
,
0010
0001
0000
0000
0100
0010
0000
0000
1000
0100
0000
0000
0000
0000
0000
0000
,
0110
0000
1000
0000
0100
0010
1000
0000
0010
0000
0100
0000
1000
0010
0100
0000
,
1010
0000
0010
0000
1000
0100
0010
0000
0001
0000
0010
0000
0100
0001
0010
0000
,
0001
0000
0100
0000
0001
0010
0100
0000
0010
0000
0001
0000
0100
0010
0001
0000
,
0010
0100
0010
0100
0010
0100
0010
0000
1000
0001
0000
0000
0010
0000
0010
0000
,
0120
0000
1000
0000
0100
0000
0031
1000
,
0100
0000
0000
0000
0102
0000
0000
0000
2003
0100
0000
0000
3100
0000
0000
0000
,
0120
0000
0130
0002
0100
0003
1100
0000
,
0001
0000
0110
0000
1000
0000
0110
0001
,
0120
0000
0100
0000
0031
0000
1010
0001
,
2100
0100
3001
0120
,
1000
0000
0130
0001
1001
0000
0010
0000
,
0100
0010
0000
0000
1000
0000
0001
1000
0100
0000
0010
0000
0100
0000
0000
0000
,
0022
0000
0003
0000
0100
0000
0230
0001
0000
0000
0302
0100
0000
0000
0203
0000
,
0010
0000
0010
0000
0010
0000
0310
0000
0011
0000
0000
0000
1000
0100
0000
0000
,
2020
0000
3000
0000
0100
0000
0230
1000
0000
0000
2300
0100
0000
0000
3200
0000
,
0010
0000
0010
0000
0010
0000
0310
0000
1010
0000
0000
0000
0100
0001
0000
0000
,
0120
0000
0000
0000
1000
0000
0230
0001
0000
0000
0320
1000
0000
0000
0130
0000
,
0110
0000
0010
0000
0010
0000
0010
0000
1001
0000
0000
0000
0001
1000
0000
0000
,
1100
1100
1100
0000
0110
0110
0110
0000
,
0110
0000
0001
0010
0001
0000
0001
0000
0110
0000
0010
0000
1001
0000
0000
0000
,
1100
0000
0010
0000
0100
0000
0001
0000
0100
0000
0010
1000
0010
1000
0010
0000
,
0100
0010
0100
0000
0001
0100
0000
0000
0001
0010
0001
0000
0010
0001
0000
0000
,
1000
0100
1000
0000
0100
1000
0000
0000
0001
0100
0001
0000
0100
0001
0000
0000
,
0002
0100
0000
0000
0023
1000
0000
0000
0130
0010
0100
0000
0110
0000
0000
0000
,
0101
0000
0010
0000
0100
0000
0001
0000
1000
0000
0100
0010
0100
0010
0100
0000
,
0010
0100
0010
0000
0100
0010
0000
0000
0001
1000
0001
0000
1000
0001
0000
0000
,
0010
0100
0010
0000
0100
0010
0000
0000
0100
0010
0100
0000
0010
0100
0000
0000
,
1000
0100
1000
0000
0020
0000
2030
0001
0000
0000
0001
0000
0001
0000
3001
0000
,
1001
0000
0000
0000
0101
0000
0000
0000
0010
1000
0100
1000
0001
0000
0100
0000
,
1010
0000
1000
0000
0001
1000
0100
0000
0110
0000
0010
0000
0010
0001
0100
0000
,
0010
1000
0100
0000
0100
1000
0001
0000
1000
0001
0100
0000
0001
0010
0000
0000
,
0001
0010
0001
1000
0100
0000
0100
0000
1001
0000
0010
0000
1001
0000
0000
0000
,
0102
0000
1003
0200
0000
0010
0000
0320
,
0100
0000
1000
0100
0000
2030
0000
3010
,
2001
0000
0001
3020
0000
0100
0000
0032
,
0010
0000
0013
1000
0000
0100
0000
1000
,
0120
0000
0000
0000
1030
0010
0000
0000
0210
0000
0000
0000
0310
1000
0000
0000
,
1002
0000
0000
0000
0103
0010
0000
0000
2001
0000
0000
0000
3010
0100
0000
0000
,
0120
0000
0000
0000
0130
0001
0000
0000
0210
0000
0000
0000
0310
1000
0000
0000
,
1100
1000
0110
0100
0011
0001
0110
0000
,
1001
0000
0100
0000
0001
0100
1000
0000
0010
0000
0100
0000
0001
1000
0100
0000
,
0010
0000
1000
0000
0001
0100
1000
0000
0010
0000
0100
0000
0001
0100
1000
0000
,
0100
0000
0001
0000
1000
0010
0001
0000
0010
0000
1000
0000
0010
1000
0100
0000
,
0100
0010
0000
0000
0001
1000
0000
0000
0100
0010
0001
0000
1001
0000
0000
0000
,
0010
0000
1000
0000
0001
0010
1000
0000
0010
0000
0100
0000
0001
0100
0010
0000
,
0100
0000
1000
0000
0010
1000
0100
0000
0010
0000
1000
0000
0001
0100
1000
0000
,
0010
0000
1000
0000
0001
0100
1000
0000
0100
0000
0001
0000
0010
0001
1000
0000
,
1000
0010
0100
0001
0100
0010
1000
0000
0110
0000
0010
0000
1001
0000
0000
0000
,
1001
0000
0110
0000
,
1001
0000
0001
1000
0001
0000
1001
0000
0010
0000
0100
0000
1001
0000
0000
0000
,
0210
0000
0001
0000
0001
0001
0001
0001
,
0301
0010
0001
0010
0100
0010
0100
1000
0100
1000
0100
0010
0100
0010
0001
0010
,
0100
1000
0100
0000
1000
0100
0000
0000
0010
0001
0010
0000
0001
0010
0000
0000
,
0020
0100
0000
0000
0230
0010
0000
0000
0301
0100
1000
0000
0101
0000
0000
0000
,
2100
0000
0010
0000
0100
0000
0001
0000
3100
0000
0010
0100
0001
0100
1000
0000
,
0100
0001
0100
0000
0001
0100
0000
0000
0010
1000
0010
0000
1000
0010
0000
0000
,
1000
0100
1000
0000
0100
1000
0000
0000
0001
0010
0001
0000
0010
0001
0000
0000
,
1000
0010
0100
0000
0200
0000
0320
1000
0000
0000
0001
0000
0100
0000
1030
0000
,
0011
0000
0000
0000
1001
0000
0000
0000
0001
0010
0100
1000
0001
0000
0100
0000
,
1010
0000
1000
0000
0001
0010
1000
0000
0110
0000
0010
0000
0010
0100
0010
0000
,
0010
1000
0010
0000
0001
1000
0010
0000
0010
1000
0100
0000
0100
0010
1000
0000
,
1000
0010
0001
0100
0010
0000
0100
0000
1001
0000
0010
0000
1001
0000
0000
0000
,
1020
0000
1000
2030
0000
0100
0000
3200
,
0010
0000
0001
0001
0000
2300
0000
3010
,
0012
0000
0023
1000
0000
0001
0000
0230
,
0010
0000
0010
1000
0000
0301
0000
1000
,
1200
0000
0000
0000
1300
0100
0000
0000
0120
0000
0000
0000
0130
0010
0000
0000
,
0012
0000
0000
0000
0013
0001
0000
0000
2001
0000
0000
0000
3001
1000
0000
0000
,
0120
0000
0000
0000
0130
0010
0000
0000
2002
0000
3003
0000
1001
0000
0000
0000
,
1001
1000
1010
0010
0110
0000
0101
0000
,
0101
0000
0001
0000
0101
0000
0100
0000
0010
0100
1000
0100
0010
0000
0000
0000
,
1010
0000
0010
0000
0110
0000
1000
0000
1000
0100
0010
0100
1000
0000
0000
0000
,
0011
0000
1000
0000
0001
0000
0100
0000
0001
0010
0100
0010
0001
0000
0000
0000
,
0001
0010
0001
0100
0001
1000
0100
0010
0001
0000
1000
0000
1000
0000
1000
0000
,
0110
0000
0100
0000
0101
0000
0001
0000
1000
0100
0001
0100
1000
0000
0010
0000
,
0110
0000
0010
0000
0101
0000
0010
0000
0001
0100
0010
0100
0001
0000
0000
0000
,
1010
1010
1010
1000
0101
0101
0101
0001
,
1100
1100
1100
0100
0011
0011
0011
0010
,
1001
0000
1100
0000
0101
0000
0001
0000
0100
0001
0100
0001
0100
0000
0001
0000
,
1100
1010
0110
0101
0011
0000
1001
0000
;

//---------------dance-single - ----------------
#NOTES:
     dance-single:
     :
     Hard:
     12:
     0.717,0.737,0.602,0.481,0.180:
0000
0000
0000
0000
,
0000
0000
0000
0000
,
0000
0000
0000
0000
,
0000
0000
0000
0000
,
0000
0000
0000
0000
,
1001
0000
1000
0010
0000
0010
0000
1000
,
0001
0000
0001
0100
0000
0100
0000
0001
,
1000
0000
1000
0100
0000
0010
0000
0010
,
0001
0000
0001
0100
0000
0001
0000
1000
,
2010
3010
0201
0301
,
0021
0031
0012
0013
,
1020
0130
2010
3100
,
1000
0100
0010
0001
0100
0000
0110
0000
,
0102
0000
0023
0000
0130
0100
0010
0010
,
2000
3010
0001
0011
,
0200
0310
0100
1001
,
0100
0010
0000
0000
0001
0100
0000
0000
0010
1000
0000
0000
0000
0000
0000
0000
,
2000
0000
3020
0000
0130
0100
0001
0001
,
0200
1300
0100
0011
,
2000
3000
0101
0000
0100
0000
0011
1000
,
2000
0000
0000
0000
3001
0000
0000
0000
1001
0000
0000
0000
1000
0000
0010
0001
,
0020
0100
0100
1030
,
0100
0020
0031
0100
,
0001
0000
0100
0001
0200
0000
0000
0000
,
0010
0000
0010
0000
0010
0000
0301
0100
,
2000
0000
0100
0000
0100
0000
3100
0010
,
1000
0010
0100
0001
,
1000
0000
0100
0010
0100
0000
0010
0000
,
0200
1000
0000
0000
0001
0000
0000
0000
0302
0000
0000
0000
0103
0000
0000
0000
,
1002
0000
1003
0100
0000
0110
0000
0010
,
0001
0001
1000
1000
0100
0000
0011
0000
,
2001
0000
3001
0100
0000
0101
0000
0001
,
0010
0010
0100
0100
1000
0000
0100
0000
,
0021
0000
1030
0010
0000
0011
0000
0100
,
0010
0000
0100
0010
1000
0000
0001
0000
,
0011
0001
0001
0000
1100
1000
1000
0000
,
0110
0000
0100
0001
0100
0000
0010
0000
0110
0000
0000
0000
1001
0000
0000
0000
,
0021
0000
0130
0000
1000
0100
0010
0001
,
0100
0000
0000
0000
0001
1000
0000
0000
0001
0000
0000
0000
0100
0010
0000
0000
,
0100
0000
0000
0000
0010
1000
0000
0000
0010
0000
0000
0000
0100
0010
0000
0000
,
1100
1100
1100
0000
,
0200
0010
0000
0000
0301
0000
0000
0000
0100
0000
1000
0000
0100
0000
0010
0000
,
0001
0000
0000
0000
0001
0100
0000
0000
0010
0000
0000
0000
0010
0100
0000
0000
,
0001
0000
0000
0000
0100
0001
0000
0000
0100
0000
0000
0000
0100
0010
0000
0000
,
1000
0100
0010
0101
0000
0101
0001
0001
,
1010
0000
1001
0000
1000
0100
0010
0001
,
0100
0010
0000
0000
0110
0000
0000
0000
1000
0001
0000
0000
1001
0000
0000
0000
,
0100
0010
0000
0000
0110
0000
0000
0000
0010
0001
0000
0000
0011
0000
0000
0000
,
0100
0001
0000
0000
0010
0100
0000
0000
1000
0100
0000
0000
0100
0000
0000
0000
,
2010
0000
0010
0010
0000
0001
0000
3002
,
0100
0000
0100
0100
0000
0010
0000
0023
,
0001
0000
0001
0001
0000
0001
0000
0001
,
0230
0000
0010
0010
0000
0010
0000
0310
,
0012
0103
0120
0130
,
0210
0310
2001
3001
,
0102
0103
2010
3010
,
1000
0100
0010
0001
0100
0000
0110
0000
,
1002
0000
0103
0000
0010
0010
1000
0100
,
0002
0103
0010
1001
,
2000
3001
0100
0100
,
0001
1000
0000
0000
0010
0100
0000
0000
0001
0010
0000
0000
0000
0000
0000
0000
,
2000
0000
3001
0000
0100
0100
0010
0001
,
2000
3010
0100
1001
,
0002
0013
0100
0011
,
1002
1000
1003
0000
0110
0000
0010
0000
,
1001
0000
0110
0000
,
1001
0000
0001
1000
0001
0000
1000
0000
1001
0000
0000
0000
0010
0000
0000
0000
,
0210
0000
0000
0000
,
0301
1000
0001
0000
0001
0000
0100
0000
0010
0001
0010
0000
1000
0000
0001
0000
,
0100
0000
0000
0000
0010
0100
0000
0000
0010
0000
0000
0000
0010
0100
0000
0000
,
0001
0010
0000
0000
0010
0100
0000
0000
0100
0010
0000
0000
0000
0000
0000
0000
,
1200
0000
1300
0000
1000
0010
0100
0010
,
0100
0000
0000
0000
0010
0100
0000
0000
0001
0000
0000
0000
0001
1000
0000
0000
,
0100
0000
0000
0000
0010
0100
0000
0000
1000
0000
0000
0000
0100
0010
0000
0000
,
0001
0000
1000
0001
0000
1001
1000
1000
,
0011
0000
0110
0000
1000
0100
0010
0001
,
0100
0001
0000
0000
0101
0000
0000
0000
0001
0010
0000
0000
0011
0000
0000
0000
,
0100
0010
0000
0000
0110
0000
0000
0000
1000
0100
0000
0000
1100
0000
0000
0000
,
0010
1000
0000
0000
0100
0001
0000
0000
0100
1000
0000
0000
0000
0000
0000
0000
,
0002
0000
0100
0100
0000
0010
0000
0010
,
2003
0000
0010
0010
0000
0001
0000
0001
,
3020
0000
0100
0100
0000
0001
0000
0001
,
0230
0000
0010
0010
0000
0001
0000
0301
,
0201
0301
1020
1030
,
0210
0310
0120
0130
,
0102
1003
0120
1030
,
1000
0100
0010
0001
0100
0000
0110
0000
,
1002
0000
0103
0000
0100
0010
1000
0010
,
0200
0000
0310
0000
0010
0100
0001
0100
,
0020
0000
1030
0000
1000
0001
0100
0010
,
1000
0001
0100
1000
0100
0001
0010
1000
,
0020
0000
0031
0000
0100
0010
0100
0001
,
0020
0000
0130
0000
1000
0010
0100
0001
,
1000
1000
1000
0000
0010
0010
0010
0000
,
0001
0001
0001
0000
0100
0100
0100
0000
,
0010
0000
0010
0000
1000
0000
1000
0000
0100
0010
0100
0000
0010
0000
0000
0000
,
0001
0001
0100
0100
0001
0000
1010
0000
;

//---------------dance-single - ----------------
#NOTES:
     dance-single:
     :
     Beginner:
     3:
     0.212,0.349,0.249,0.032,0.000:
0000
0000
0000
0000
,
0000
0000
0000
0000
,
0000
0000
0000
0000
,
0000
0000
0000
0000
,
0000
0000
0000
0000
,
1001
0000
0000
0000
,
1000
0000
0000
0000
,
0001
0000
0000
0000
,
0010
0000
0000
0000
,
0110
0000
0000
0000
,
1001
0000
0000
0000
,
0110
0000
0000
0000
,
0100
0100
0000
0000
,
0001
0000
0001
0000
,
0001
0000
0000
0000
,
1000
0000
0000
0000
,
0010
0000
0000
0000
,
0100
0000
0100
0000
,
0100
0000
0000
0000
,
0001
0000
0000
0000
,
2000
0000
3001
0000
,
1001
0000
0000
0000
,
0010
0000
0010
0000
,
0020
0000
0000
0000
,
0030
0000
0000
0000
,
0001
0000
0001
0000
,
0001
0000
0000
0000
,
0100
0000
0100
0000
,
0110
0000
0000
0000
,
1001
0000
0001
0000
,
0001
0000
0000
0000
,
1001
0000
1000
0000
,
1000
0000
0000
0000
,
0110
0000
0010
0000
,
0010
0000
0000
0000
,
0110
0000
0100
0000
,
0100
0000
0000
0000
,
1000
1000
1000
0000
,
0010
0000
0010
0000
,
0010
0000
0010
0000
,
0010
0000
0000
0000
,
0100
0100
0100
0000
,
0001
0000
0001
0000
,
0001
0000
0001
0000
,
0002
0000
0000
0000
,
1003
0000
1000
0000
,
1000
0000
0000
0000
,
0010
0000
0010
0000
,
0010
0000
0000
0000
,
1001
0000
0000
0000
,
0010
0000
0000
0000
,
0100
0000
0000
0000
,
0001
0000
0000
0000
,
1001
0000
0000
0000
,
1001
0000
0000
0000
,
0110
0000
0000
0000
,
0110
0000
0000
0000
,
0010
0000
0010
0000
,
0001
0000
0000
0000
,
0001
0000
0001
0000
,
1000
0000
0000
0000
,
1000
0000
1000
0000
,
0100
0000
0000
0000
,
0100
0000
0100
0000
,
0020
0000
0030
0000
,
1001
0000
0000
0000
,
0010
0000
0010
0000
,
0110
0000
0000
0000
,
0001
0000
0001
0000
,
0001
0000
0000
0000
,
1000
1000
1000
0000
,
0010
0000
0100
0000
,
0100
0000
0010
0000
,
0010
0000
0100
0000
,
1001
0000
0000
0000
,
0001
0001
0001
0000
,
0010
0010
0010
0000
,
0100
0100
0100
0000
,
1000
1000
1000
0000
,
1001
0000
0000
0000
,
0110
0000
0000
0000
,
1001
0000
0000
0000
,
0110
0000
0000
0000
,
1001
0000
1000
0000
,
1001
0000
0001
0000
,
0110
0000
0010
0000
,
0110
0000
0100
0000
,
1000
0000
1000
0000
,
0001
0000
0001
0000
,
0100
0000
0100
0000
,
0010
0010
0010
0000
,
0100
0000
0100
0000
,
0001
0000
0001
0000
,
1001
0000
1001
0000
,
0110
0000
0110
0000
,
1000
1000
1000
1000
,
0001
0001
0001
1001
;

//---------------dance-single - ----------------
#NOTES:
     dance-single:
     :
     Medium:
     8:
     0.552,0.660,0.650,0.658,0.000: // measure 1
0000
0000
0000
0000
,  // measure 2
0000
0000
0000
0000
,  // measure 3
0000
0000
0000
0000
,  // measure 4
0000
0000
0000
0000
,  // measure 5
0000
0000
0000
0000
,  // measure 6
2001
0000
0000
0001
0000
3001
0000
0000
,  // measure 7
0120
0000
0000
0100
0000
0100
0030
0000
,  // measure 8
0210
0000
0000
0010
0000
0310
0000
0000
,  // measure 9
2001
0000
0000
0001
0000
3001
0000
0000
,  // measure 10
2002
3003
0220
0330
,  // measure 11
2002
3003
0022
0033
,  // measure 12
2200
3300
0220
0330
,  // measure 13
0001
0010
0100
1000
0001
0000
0000
0000
,  // measure 14
1000
1010
0010
0110
,  // measure 15
0001
0011
0100
0110
,  // measure 16
1000
1001
0100
0110
,  // measure 17
1100
0110
0011
0000
,  // measure 18
0001
0011
0100
0110
,  // measure 19
1000
1100
0010
0110
,  // measure 20
0001
0011
0100
0110
,  // measure 21
2000
0000
0000
3000
1001
0000
0000
0000
,  // measure 22
0110
0000
0000
0100
,  // measure 23
0100
0010
0010
0100
,  // measure 24
0002
0000
2003
0000
,  // measure 25
3001
0000
0000
0100
,  // measure 26
0200
0000
0000
0310
,  // measure 27
0010
1000
0100
0010
,  // measure 28
0002
0000
0203
0000
,  // measure 29
0320
0000
2030
3000
,  // measure 30
2002
0000
3003
0010
0000
0010
0000
0000
,  // measure 31
0100
0010
0110
0000
,  // measure 32
0220
0000
0330
0001
0000
0001
0000
0000
,  // measure 33
0001
0010
0110
0000
,  // measure 34
2200
0000
3300
0001
0000
0001
0000
0000
,  // measure 35
0100
0010
0110
0000
,  // measure 36
0100
1000
0100
0000
0010
0100
0010
0000
,  // measure 37
0011
0101
1001
0000
,  // measure 38
2000
0000
3002
0000
0103
0010
0100
0000
,  // measure 39
0020
1030
0200
0310
,  // measure 40
0020
0031
0002
0013
,  // measure 41
0200
1300
0011
0000
,  // measure 42
2000
0000
3100
0000
0010
0100
0010
0000
,  // measure 43
0200
0301
0200
1300
,  // measure 44
0020
0130
0002
0013
,  // measure 45
2000
0000
0000
3001
0000
0001
0000
0000
,  // measure 46
2000
0000
3001
0000
0001
0010
0100
0000
,  // measure 47
0020
1030
0020
0031
,  // measure 48
2000
3100
0020
0031
,  // measure 49
0100
0100
0110
0000
,  // measure 50
2100
0000
0000
0001
0000
0001
0000
0000
,  // measure 51
3002
0000
0000
0010
0000
0010
0000
0000
,  // measure 52
0203
0000
0000
0010
0000
0010
0000
0000
,  // measure 53
0320
0000
0000
1000
0000
1000
0000
0000
,  // measure 54
2030
0000
3200
0000
,  // measure 55
0320
0000
0032
0000
,  // measure 56
0023
0000
0230
0000
,  // measure 57
1300
1000
1000
0000
,  // measure 58
1000
1001
0010
0110
,  // measure 59
0010
0011
0100
0110
,  // measure 60
1000
1001
0010
0110
,  // measure 61
1100
0110
0011
0000
,  // measure 62
0001
0011
0100
0110
,  // measure 63
1000
1001
0100
0110
,  // measure 64
0010
0011
0100
0110
,  // measure 65
2002
3003
0110
0000
,  // measure 66
1001
0000
1001
0000
,  // measure 67
0011
0011
0011
0000
,  // measure 68
2010
0000
0000
0000
,  // measure 69
3001
0010
0100
0010
,  // measure 70
2001
3001
0200
0310
,  // measure 71
1010
0110
0110
0000
,  // measure 72
2000
0000
3100
0000
0010
0100
0010
0000
,  // measure 73
0200
0310
2000
3010
,  // measure 74
0020
0031
0200
0310
,  // measure 75
2000
3100
1100
0000
,  // measure 76
0110
0000
0010
0000
1000
0010
1000
0000
,  // measure 77
0200
0310
0020
0031
,  // measure 78
0002
0013
0200
0310
,  // measure 79
2000
3100
0011
0000
,  // measure 80
2001
0000
0000
0010
0000
0010
0000
0000
,  // measure 81
3020
0000
0000
0100
0000
0100
0000
0000
,  // measure 82
0230
0000
0000
0001
0000
0001
0000
0000
,  // measure 83
0302
0000
0000
0010
0000
0010
0000
0000
,  // measure 84
0013
0000
0110
0000
,  // measure 85
0011
0000
1100
0000
,  // measure 86
0110
0000
0011
0000
,  // measure 87
1000
0100
0010
0001
1000
0000
0110
0000
,  // measure 88
0100
0000
0010
0000
1000
0010
1000
0000
,  // measure 89
0001
0000
0001
0000
0100
0010
0100
0000
,  // measure 90
0001
0000
0001
0000
0100
0010
0100
0000
,  // measure 91
1010
0110
0110
0000
,  // measure 92
0002
0000
0013
0000
1000
0001
1000
0000
,  // measure 93
0020
0000
0130
0000
0001
0100
0001
0000
,  // measure 94
1000
0010
1000
0000
0100
0010
0100
0000
,  // measure 95
0010
0001
0010
0000
0001
1000
0001
0000
,  // measure 96
0002
0013
0200
1300
,  // measure 97
0100
0010
0100
0000
0110
0000
1001
0000
;

//---------------dance-single - ----------------
#NOTES:
     dance-single:
     :
     Easy:
     6:
     0.376,0.504,0.545,0.305,0.000:
0000
0000
0000
0000
,
0000
0000
0000
0000
,
0000
0000
0000
0000
,
0000
0000
0000
0000
,
0000
0000
0000
0000
,
1002
0000
0000
0000
,
2003
0000
0000
0000
,
3020
0000
0000
0000
,
0230
0000
0000
0000
,
0301
0000
0011
0000
,
0110
0000
1100
0000
,
0110
0000
0011
0000
,
1001
0000
0001
0000
,
0000
1010
0000
0110
,
0000
0011
0000
1001
,
0000
0101
0000
1010
,
1000
1000
1010
0000
,
0000
0011
0000
0101
,
0000
0011
0000
0110
,
0000
0011
0000
1001
,
2000
3000
1001
0000
,
0110
0000
0000
0010
,
0010
0100
0100
0000
,
0002
0000
0023
0000
,
0130
0000
0000
1000
,
2000
0000
0000
0000
,
3010
0100
0010
0100
,
0020
0000
0230
0000
,
0302
0000
0013
0000
,
1100
0000
0100
0100
,
0010
0000
0010
0000
,
0011
0000
0001
0001
,
0001
0000
0110
0000
,
1010
0000
1000
1000
,
1000
0000
0101
0000
,
0110
0000
1001
0000
,
1000
1000
1001
0000
,
0002
0013
0200
1300
,
1000
1000
0010
0010
,
0100
0100
0001
0001
,
0010
0100
0110
0000
,
0020
0031
2000
3010
,
0100
0100
0010
0010
,
1000
1000
0100
0100
,
0010
0010
0110
0000
,
0020
0031
2000
3010
,
0200
0310
2000
3010
,
0200
0310
0002
0013
,
0200
0310
1000
0000
,
0120
0000
0000
0000
,
0230
0000
0000
0000
,
0302
0000
0000
0000
,
0023
0000
0000
0000
,
1030
0000
0010
0000
,
0001
0000
0100
0000
,
1000
0000
0100
0000
,
0001
0001
0001
0000
,
0000
0110
0000
1010
,
0000
0110
0000
0011
,
0000
1001
0000
0110
,
0010
0010
1010
0000
,
0000
1100
0000
0011
,
0000
0101
0000
0011
,
0000
0110
0000
1001
,
2000
0000
3001
0000
,
1001
0000
1001
0000
,
0010
0010
0011
0000
,
2002
0000
0000
3003
,
0220
0000
0000
0330
,
1001
0000
0001
0000
,
0010
0010
0110
0000
,
0200
0000
0320
0000
,
0031
0001
0001
0000
,
0100
0100
0100
0000
,
1010
0000
1001
0000
,
0001
0001
0010
0010
,
0100
0100
1000
1000
,
0100
0100
0010
0010
,
0001
0001
1001
0000
,
0002
0000
0000
0000
,
0203
0000
0000
0000
,
0320
0000
0000
0000
,
2030
0000
0000
0000
,
3010
0000
0110
0000
,
0011
0000
1100
0000
,
0110
0000
0011
0000
,
1000
0100
0110
0000
,
0000
0001
0001
0001
,
0000
0100
0100
0100
,
0000
0010
0010
0010
,
1000
1000
1000
0000
,
0000
1000
1000
1000
,
0000
0100
0100
0100
,
0011
0000
0110
0000
,
1100
0000
0110
0000
,
1000
1000
0002
1003
,
1000
1000
1010
0110
;
