#TITLE:VERTeX;
#SUBTITLE:;
#ARTIST:Hiro「maimai」より;
#TITLETRANSLIT:VERTeX;
#SUBTITLETRANSLIT:;
#ARTISTTRANSLIT:Hiro [from maimai];
#GENRE:PROGRESSIVE ELECTRONICA;
#CREDIT:;
#BANNER:VERTeX.png;
#BACKGROUND:VERTeX-bg.png;
#LYRICSPATH:;
#CDTITLE:cdtitle.png;
#MUSIC:VERTeX.mp3;
#MENUCOLOR:1,0,0,1;
#METERTYPE:DDR X;
#OFFSET:-0.535;
#SAMPLESTART:97.203;
#SAMPLELENGTH:12.000;
#DISPLAYBPM:237;
#SELECTABLE:YES;
#BPMS:0.000=237.000,320.000=158.000,328.000=237.000,400.000=237.000;
#STOPS:55.000=0.253
,151.000=0.253
;
#BGCHANGES:;

//---------------dance-single - ----------------
#NOTES:
     dance-single:
     :
     Hard:
     15:
     0.858,0.894,0.610,0.434,0.084:
0000
0000
0000
0000
,
0000
0000
0000
0000
,
0000
0000
0000
0000
,
0000
0000
0000
0000
,
0000
0000
0000
0000
,
0000
0000
0000
0000
,
0000
0000
0000
0000
,
1000
0100
1000
0100
0010
0001
0010
0000
,
0001
0000
0110
0000
0001
0010
0001
0010
,
0100
1000
0100
0000
1000
0000
1001
0000
,
1000
0010
1000
0010
0100
0001
0100
0000
,
0001
0000
1001
0000
0001
0100
0001
0100
,
0010
1000
0010
1000
0001
0010
0100
1000
,
0002
0000
0000
1003
,
0000
0000
0000
0000
1001
0000
0000
0000
1000
0001
0000
0000
0001
1000
0000
0000
,
1000
0100
0010
0100
1000
0100
0010
0000
,
0001
1000
0000
0000
1000
0001
0000
0000
0001
0000
0100
0000
0010
0000
0100
0000
,
0001
0000
0100
0000
0010
0000
0000
0000
0100
0010
0000
0000
0010
0100
0000
0000
,
0010
0100
0010
1000
0001
1000
0110
0000
,
0100
0010
0100
0001
0011
1000
0001
0101
,
0010
0000
0001
0000
1100
0000
0000
0000
0010
1000
0000
0000
0100
0010
0000
0000
,
0001
1000
0100
1000
0001
0100
0010
0000
,
0100
0001
0000
0000
0010
0100
0000
0000
1000
0000
0001
0000
0010
0000
0001
0000
,
1000
0000
0010
0000
0100
0000
0000
0000
0010
1000
0000
0000
0001
0100
0000
0000
,
0001
1000
0100
0010
0001
1000
0010
1001
,
0000
0001
0000
0100
1001
0000
0000
0001
,
0000
0000
1000
0100
0010
0001
0100
0010
,
1000
0010
0100
0001
0010
0100
2000
0000
,
0001
0000
0000
0000
0000
0000
3001
0100
0001
0000
0000
0000
0100
0000
0001
0000
,
0100
0000
0001
0010
0100
1000
0010
0100
,
0001
0100
0010
1000
0100
0010
0002
0000
,
1000
0000
0000
0000
0000
0000
1003
0010
2000
0000
0000
0000
0010
0000
3000
0000
,
0110
0000
0100
0010
1000
0001
0100
0010
,
0001
1000
0010
0100
1000
0100
0020
0000
,
0100
0000
0000
0000
0000
0000
1030
0010
2000
0000
0000
0000
0000
0000
3001
0010
,
0001
0100
0010
0001
1000
0001
0100
0001
,
1000
0000
0001
0100
0001
0000
1000
0000
0100
0000
1000
0000
0001
0000
1000
0000
,
0100
0000
0010
0000
0001
0000
0000
0000
1100
0000
0000
0000
0022
0033
0000
0000
,
0110
0000
1000
0010
0100
0000
0010
0000
,
1000
0000
0100
0000
1100
0000
0100
0010
,
0100
0010
0100
0000
1000
0000
0001
0000
,
0011
0000
0100
0010
1000
0000
1100
0000
,
0100
0000
0110
0000
0011
0000
0100
0010
,
0100
0001
0100
0000
0001
0010
0100
0000
,
0110
0000
1000
0001
1000
0001
1000
0000
,
0110
0000
0011
0000
1010
0000
1000
0100
,
0010
0001
0100
0000
0100
0010
0001
0100
,
1000
0000
0100
0001
0100
0001
0100
0000
,
1010
0000
0101
0000
0010
0100
0010
0100
,
0000
0010
0001
0010
0000
0101
0000
0001
,
0010
1000
0010
0002
0000
1003
0100
0001
,
0100
2000
0000
3001
0100
0001
0010
0200
,
0000
1300
0100
1000
0000
0020
0000
1030
,
0001
0010
0001
0200
0000
0301
1000
0100
,
0000
0100
0000
0110
0000
1100
0000
0011
,
0000
0011
0000
0101
0000
1010
0000
1000
,
0002
0000
0000
1003
0000
0000
1010
0000
,
0010
0000
0110
0000
0101
0000
0001
0010
,
0001
0000
1100
0000
0002
0000
0020
0033
,
0011
0000
2000
0000
0200
3300
1100
0000
,
0200
0000
0020
0330
0110
0000
1000
0100
,
0010
0001
0100
0001
0100
0001
0100
0010
,
1000
0001
0000
0000
0000
0000
1000
0000
0000
0000
1000
0000
0100
0000
0000
0000
,
0010
0000
0000
0000
0100
0000
0000
0000
0010
0100
0000
0000
0000
0000
0010
0000
,
0000
0010
0002
0000
0203
0000
0302
0000
,
0103
0010
0000
0000
0000
0000
0100
0000
0000
0000
0100
0000
0020
0000
0000
0000
,
0100
0100
2030
0000
,
0000
0000
3001
1000
0100
0001
0100
1000
,
1001
0000
1000
0100
1000
0100
1100
0000
,
0100
0010
0100
0010
0110
0000
0010
0001
,
0010
0001
0011
0010
0000
0110
0000
0100
,
0120
0000
0031
0100
0001
0100
0101
0000
,
0100
0010
0100
0010
0110
0000
0010
1000
,
0010
1000
1010
0000
0101
0000
1001
0000
,
0102
0000
1003
0010
1000
0010
1010
0000
,
0010
0100
0010
0100
0110
0000
0100
0001
,
0100
0001
0101
0100
0000
1001
0000
0100
,
0201
0000
0301
0010
0001
0010
0011
0000
,
0010
0100
0010
0100
0110
0000
0010
0100
,
0010
0100
1000
0100
1000
0010
0100
0001
,
2000
0000
0000
0000
,
0000
0000
3002
0000
0000
0000
0000
0000
0000
0000
0000
0000
,
1003
0100
0010
0001
0000
0100
0010
0100
,
0000
0100
0000
0100
0001
0010
0100
1000
,
0000
0001
0100
0001
0000
0010
0000
0010
,
0100
1000
0001
0100
0000
0001
1000
0100
,
0000
0100
0000
0001
0000
0001
0000
0100
,
0000
0001
0000
0011
0000
1001
0000
1010
,
2000
0000
0000
3001
0000
0000
1100
0000
,
0100
0000
0010
0000
0011
0000
0010
0100
,
0000
0100
0010
0000
0200
0000
1300
0000
,
0110
2000
3100
0011
,
0200
0000
0301
0000
1000
0000
1000
0100
,
1000
0010
1000
0000
0001
0010
0001
1000
,
2100
0100
0010
0002
3000
0103
0010
0100
,
0000
0120
0000
1030
0001
0100
0010
0002
,
0000
1003
0100
1000
0100
2000
0000
3001
,
0002
0010
0100
2000
0003
3010
0100
0010
,
0000
0100
0000
0010
0000
1100
0000
0110
,
0000
0011
0000
0110
0000
0101
0000
0001
,
0100
0010
0010
1000
1000
0001
0010
0001
,
1000
0100
1000
0010
0100
0100
0001
0001
,
0010
0010
0001
0100
0010
0100
0001
1000
,
0010
0010
0100
0100
0010
0010
1000
1000
,
0100
0100
0010
0010
0100
1000
0001
0100
,
0001
1000
0010
1000
0001
0010
0100
1000
,
0021
0001
0031
0200
0000
0310
1000
0001
,
0000
0200
0000
0301
2000
0010
3010
0200
,
0000
0310
0100
0001
0100
0002
0000
1003
,
0200
1000
1300
0020
0000
1030
0100
0010
,
0002
2003
3002
0023
0230
1000
0300
1100
,
0000
0110
1001
0000
0000
0000
0000
0000
;

//---------------dance-single - ----------------
#NOTES:
     dance-single:
     :
     Medium:
     11:
     0.644,0.715,0.257,0.490,0.000:
0000
0000
0000
0000
,
0000
0000
0000
0000
,
0000
0000
0000
0000
,
0000
0000
0000
0000
,
0000
0000
0000
0000
,
0000
0000
0000
0000
,
0000
0000
0000
0000
,
1000
0100
0000
0100
0010
0000
0001
0100
,
0001
0010
0100
0000
0100
1000
0000
0001
,
0010
0000
0100
0010
0100
1000
0100
0000
,
0010
0001
0000
0010
0100
0000
0001
0100
,
0010
0001
0100
0000
0100
0001
0000
1000
,
0010
0000
1000
0001
0010
0001
1000
0100
,
2000
0000
0000
3001
,
0000
1000
0001
1001
,
1000
0100
1000
0001
0000
0001
0010
0000
,
0100
0000
0110
0000
0100
1000
0100
0010
,
0000
0001
1000
0000
0100
0000
1100
0000
,
1000
0010
0100
0000
0010
1000
0100
0000
,
0010
0100
0010
0001
0100
0000
0010
1000
,
0001
1000
0100
0000
0010
0000
0110
0000
,
1000
0001
1000
0010
0000
0010
1000
0000
,
0001
0000
1001
0000
0100
0010
0000
0010
,
1000
0100
0010
0000
0001
0000
0011
0000
,
1000
0001
0100
0000
0010
0000
1000
0100
,
0000
0000
0000
0010
0001
0000
0000
0000
,
0000
0000
1000
0001
1000
0000
0100
0000
,
0010
0000
0100
1000
0001
1000
0002
0000
,
0000
0000
0000
0010
0013
0000
0000
0000
,
0000
0000
0001
1000
0001
0000
0010
0000
,
0100
0001
0010
0001
1000
0001
0200
0000
,
0000
0000
0000
0301
1000
0000
0001
0000
,
1001
0000
1000
0100
1000
0000
0100
0000
,
0010
0000
0001
0010
0001
0010
0200
0000
,
0000
0000
0000
1300
0001
0000
0000
0001
,
1000
0100
0010
0000
0100
0001
0100
0000
,
1000
0010
0000
0010
0100
0000
0010
0001
,
0010
0100
0001
1001
,
0110
0000
0100
0010
0100
0000
0001
0000
,
1000
0010
0110
1000
,
0001
1000
0001
0000
0100
0000
0001
0000
,
1000
0000
0010
0100
0001
0000
1000
0000
,
0100
0010
0011
1000
,
0010
0100
0001
0000
0001
0010
0100
0000
,
1001
0000
1000
0001
0010
0000
0001
0000
,
0100
0000
1000
0000
0100
0000
0001
0010
,
0100
1000
0001
0000
0000
0001
0000
0100
,
0010
0000
1000
0100
0010
0000
0001
0000
,
0100
0000
0001
0000
1000
0100
0010
0001
,
0000
0001
0010
0100
0000
1000
0000
0000
,
1000
0001
0100
0020
0000
1030
0001
0100
,
0000
0002
0000
0013
0001
1000
0000
0200
,
0000
1300
0100
1000
0000
0200
0000
0310
,
0001
0010
0000
0002
0000
0103
1000
0100
,
0000
0020
0000
1030
0000
1100
0000
0100
,
0000
0110
0000
0010
0000
0011
0000
0100
,
0020
1000
1000
1030
,
0100
0010
0002
0010
,
0010
0013
0200
0320
,
0032
2003
3002
0203
,
2300
0000
3200
0000
0302
0000
1003
0010
,
1000
0000
0001
0000
0100
0001
0100
0000
,
0020
0000
0000
0130
0000
0010
0100
0000
,
0010
0000
0100
0000
0002
0000
0000
1003
,
0000
0001
2000
0000
3002
0000
2003
0000
,
3020
0000
0000
1030
0000
0010
0100
0000
,
0001
0100
0002
0000
,
0000
1003
0000
0000
,
1100
0000
0000
0010
0000
0000
1001
0000
,
0000
0010
0000
0000
0011
0000
0000
0100
,
0000
0000
0100
0010
0000
0010
0000
0100
,
0020
0000
0000
1000
0000
0000
0031
0000
,
0000
0010
0000
0000
1001
0000
0000
0100
,
0000
0100
0001
1000
,
2001
0000
0000
0100
0000
0000
3001
0000
,
0000
0100
0000
0000
0011
0000
0000
0100
,
0000
0000
1000
0001
0000
0010
0000
0100
,
2000
0000
0000
3001
,
0000
0010
0000
0000
0110
0000
0000
0100
,
0000
0000
1000
0100
0000
0010
0000
0010
,
0002
0000
0000
0000
,
0000
0000
0000
0000
,
1003
0000
0000
0020
0000
0000
0130
0000
,
0000
0002
0000
0000
1003
0000
0000
0020
,
0000
0000
1030
0000
0000
2000
0000
0000
,
3001
0000
0000
0200
0000
0000
0310
0000
,
0000
2000
0000
0000
3010
0100
0000
0001
,
0000
0010
0000
0001
0000
1001
0000
0001
,
0200
0000
0000
0010
0000
0000
1300
0000
,
0100
0000
0001
0000
0020
0000
0000
0001
,
0000
1030
0010
0001
,
2000
0000
0000
0100
0000
0000
3002
0000
,
0203
0310
1000
1100
,
0011
0100
0001
0110
,
0001
0010
0000
0020
0000
0130
0010
0001
,
0000
0002
0000
0103
1000
0100
0000
0020
,
0000
1030
0100
0010
0000
0200
0000
1300
,
0001
0100
0000
0002
0000
0103
0001
1000
,
0000
0100
0000
1000
0000
1100
0000
0011
,
0000
1010
0000
0101
0000
1001
0000
0001
,
1000
0000
1000
0100
1000
0100
1000
0000
,
0020
0000
0230
0000
0302
0000
0013
0001
,
0010
0001
0010
0000
0002
0000
0013
0000
,
0200
0310
0100
2000
,
3002
0000
0013
0000
0001
0000
0010
0001
,
0010
0100
0010
0000
0100
0010
0100
1000
,
0100
0010
0001
2000
0000
3001
1000
0100
,
0001
0200
0000
1300
0010
0001
0010
2000
,
0000
3001
1000
0001
0100
0020
0000
1030
,
0001
0010
0001
0200
0000
0301
1000
0100
,
1000
0020
0000
1030
0001
1000
0000
0110
,
0000
0001
1000
0000
0000
0000
0000
0000
;

//---------------dance-single - ----------------
#NOTES:
     dance-single:
     :
     Easy:
     7:
     0.384,0.447,0.120,0.289,0.000:
0000
0000
0000
0000
,
0000
0000
0000
0000
,
0000
0000
0000
0000
,
0000
0000
0000
0000
,
0000
0000
0000
0000
,
0000
0000
0000
0000
,
0000
0000
0000
0000
,
0001
0010
0100
1000
,
0100
0100
0000
1000
,
0100
0010
0001
0001
,
0000
1000
0100
0001
,
0100
1000
0000
0010
,
0001
0010
1000
0001
,
0002
0000
0000
1003
,
0000
1000
1000
1000
,
0100
0010
0010
0100
,
0001
0001
0100
1000
,
0001
1000
0100
0100
,
0100
0010
0100
0010
,
0001
1000
0010
0100
,
0001
0010
0001
0001
,
1000
0010
0100
0001
,
0010
0010
0100
0010
,
0100
1000
0010
0010
,
0100
0010
1000
0001
,
0000
0000
1001
0000
,
0000
1000
0100
0010
,
0001
1000
1000
0002
,
0000
0000
1003
0000
,
0000
0001
0010
0100
,
1000
0001
0001
2000
,
0000
0000
3001
0000
,
0000
0100
0010
1000
,
0001
0010
0100
2000
,
0000
0000
3001
0000
,
0000
0100
0100
1000
,
0100
0010
0010
0001
,
0010
0100
0001
1001
,
0000
1000
0100
0010
,
0100
0010
0200
0000
,
0000
0320
0000
0000
,
0031
1000
0001
1000
,
0001
0100
0002
0000
,
0000
0203
0000
0000
,
0310
1000
0100
1000
,
0100
0100
0020
0000
,
0000
0230
0000
0000
,
0310
0001
0010
0001
,
1000
0100
1000
0000
,
0000
1001
0000
0000
,
1000
0000
0000
0100
0000
0000
0010
0000
,
0000
0100
0000
0000
0010
0000
0000
0100
,
0000
0000
0001
0000
0000
0100
0000
0000
,
1000
0000
0000
0001
0000
0000
0100
0000
,
0000
0010
0000
0010
0000
0100
0000
0100
,
0000
0001
0000
0001
0000
1000
0000
0000
,
2000
0000
0000
3100
,
0010
0100
0002
0000
,
0000
0103
1000
0010
,
1000
0001
0100
1000
,
0100
0010
2000
0000
,
0000
3002
0000
0000
,
0103
0000
0000
0100
,
0000
0000
0100
0000
,
0000
0010
0100
0010
,
2000
0000
0000
3200
,
0000
0000
0320
0000
,
0000
0031
0000
0000
,
0011
0000
0000
1001
,
0000
0000
1001
0000
,
0000
1000
1000
1000
,
0120
0000
0000
0130
,
0000
0000
0110
0000
,
0000
0010
0010
0010
,
0201
0000
0000
0301
,
0000
0000
1001
0000
,
0000
0001
0001
0001
,
0012
0000
0000
0013
,
0000
0000
0011
0000
,
0000
0100
0100
0100
,
0200
0000
0000
0000
,
0000
0000
0000
0000
,
0300
0000
0000
0100
,
0000
0000
0100
0000
,
0000
0010
0000
0000
,
0010
0000
0000
0001
,
0000
0000
0000
0000
0000
1000
0000
1000
,
0000
0000
0000
0000
,
0001
0000
0000
0001
,
0001
0001
0002
0000
,
0000
0000
1003
1000
,
2000
0000
0000
3010
,
0010
0010
0020
0000
,
0000
0230
0000
0000
,
0310
0000
0000
0200
0000
0000
0301
0000
,
0000
2000
0000
0000
3100
0000
0000
0020
,
0000
0000
0130
0000
0000
0020
0000
0000
,
0031
0000
0000
0200
0000
0000
0310
0000
,
0000
0200
0000
0000
0000
1300
0000
0100
,
0000
0001
0000
1000
0000
0100
0000
0000
,
2000
0100
0100
3100
,
1000
1000
0100
0010
,
0001
0100
0010
0010
,
0200
0010
0010
0310
,
0100
0001
0100
0001
,
0010
0100
0010
0001
,
0002
0010
0010
0013
,
0001
0100
0200
0010
,
0010
0310
1000
0100
,
0200
1000
1000
1300
,
0100
0000
0010
0000
0011
0000
0000
0011
,
0000
0011
0000
0000
;

//---------------dance-single - ----------------
#NOTES:
     dance-single:
     :
     Beginner:
     3:
     0.139,0.313,0.080,0.112,0.000:
0000
0000
0000
0000
,
0000
0000
0000
0000
,
0000
0000
0000
0000
,
0000
0000
0000
0000
,
0000
0000
0000
0000
,
0000
0000
0000
0000
,
0000
0000
0000
0000
,
1001
0000
0000
0000
,
0000
0000
0001
0000
,
0000
0000
0000
0000
,
0001
0000
0000
0000
,
0000
0000
0010
0000
,
0000
0000
0000
0000
,
0200
0000
0000
0300
,
0000
0000
0000
0000
,
1000
0000
0000
1000
,
0000
0000
0000
0000
,
0000
0001
0000
0000
,
0001
0000
0000
0001
,
0000
0000
0000
0000
,
0000
0100
0000
0000
,
0100
0000
0000
0100
,
0000
0000
0010
0000
,
0000
0010
0000
0000
,
0100
0000
0000
0001
,
0000
0000
0000
0000
,
0000
1000
0000
0000
,
1000
0000
0000
0001
,
0000
0000
0000
0000
,
0000
0010
0000
0000
,
0010
0000
0000
0100
,
0000
0000
0100
0000
,
0000
1000
0000
0000
,
1000
0000
0000
0001
,
0000
0000
0000
0000
,
0000
0001
0000
0000
,
0001
0000
0000
1000
,
0000
0000
1001
0000
,
0000
0000
0000
0000
,
0000
0000
0001
0000
,
0000
0001
0000
0000
,
0001
0000
0000
0000
,
0000
0000
0100
0000
,
0000
0100
0000
0000
,
0100
0000
0000
0000
,
0000
0000
0010
0000
,
0000
0010
0000
0000
,
0010
0000
0000
0000
,
0000
0000
1000
0000
,
0000
0000
0000
0000
,
1000
0000
0000
1000
,
0000
0000
0100
0000
,
0000
0100
0000
0000
,
0010
0000
0000
0010
,
0000
0000
0001
0000
,
0000
0000
0000
0000
,
0002
0000
0000
0000
,
0000
0000
0203
0000
,
0000
0000
0000
0000
,
0320
0000
0000
0000
,
0000
0000
2030
0000
,
0000
0000
0000
0000
,
3001
0000
0000
0000
,
0000
0000
0001
0000
,
0000
0000
0000
0000
,
0002
0000
0000
0000
,
0000
0000
2000
0000
,
0000
3003
0000
0000
,
1001
0000
0000
0000
,
0000
0000
1001
0000
,
0000
0000
0000
0000
,
0110
0000
0000
0000
,
0000
0000
0110
0000
,
0000
0000
0000
0000
,
1001
0000
0000
0000
,
0000
0000
1001
0000
,
0000
0000
0000
0000
,
0110
0000
0000
0000
,
0000
0000
0110
0000
,
0000
0000
0000
0000
,
0002
0000
0000
0000
,
0000
0000
0000
0000
,
0003
0000
0000
0000
,
0000
0000
0000
0000
,
0000
0000
0000
0000
,
0000
0000
0000
0000
,
0000
0000
0000
0000
,
0000
0000
0000
0000
,
2000
0000
0000
0000
,
3000
0000
0100
0000
,
0000
0000
0000
0000
,
0020
0000
0000
0000
,
0030
0000
0001
0000
,
0000
0000
0000
0000
,
0001
0000
0000
1000
,
0000
0000
1000
0000
,
0000
0100
0000
0000
,
0010
0000
0000
0001
,
0000
0000
0000
1000
,
0000
0000
0000
0000
,
1000
1000
1000
1000
,
0000
0000
0001
0001
,
0001
0001
0000
0000
,
0100
0100
0100
0100
,
0000
0000
0010
0010
,
0010
0010
0000
0000
,
2000
0000
0000
0000
,
3000
0000
0200
0000
,
0000
0000
0300
0000
,
0020
0000
0000
0030
,
0000
0000
0002
0000
,
0000
1003
0000
0000
;

//---------------dance-single - [LEGGENDARIA]----------------
#NOTES:
     dance-single:
     [LEGGENDARIA]:
     Challenge:
     18:
     1.000,1.000,1.000,0.763,0.153: // measure 1
0000
0000
0000
0000
,  // measure 2
0000
0000
0000
0000
,  // measure 3
0000
0000
0000
0000
,  // measure 4
0000
0000
0000
0000
,  // measure 5
0000
0000
0000
0000
,  // measure 6
0000
0000
0000
0000
,  // measure 7
0000
0000
0000
0000
,  // measure 8
1100
0001
0100
0110
0010
1000
0011
1000
,  // measure 9
0100
0010
0001
1000
0101
0010
0001
0110
,  // measure 10
0100
0001
1010
0001
1000
0001
0100
0010
,  // measure 11
1010
0001
0100
0110
0100
0001
1010
0100
,  // measure 12
0001
0010
1000
0010
0011
0100
0001
0100
,  // measure 13
1000
0100
0001
0010
1000
0010
0001
1000
,  // measure 14
0002
0000
0000
0000
0000
0000
0000
0000
0000
0000
0103
0010
0100
0000
0000
0000
,  // measure 15
0000
0000
0000
0000
1001
0000
0000
0000
1000
0001
1000
0000
0001
1000
0001
0000
,  // measure 16
1100
0100
0010
0100
1000
0100
0011
0000
,  // measure 17
0010
0100
0010
0000
0100
0010
0100
0000
0011
0000
0100
0000
0010
0000
0100
0000
,  // measure 18
0001
0000
0100
0000
1010
0000
0000
0000
0100
0010
0100
0000
0010
0100
0010
0000
,  // measure 19
1010
0100
0010
1000
0001
1000
0110
0000
,  // measure 20
0110
0010
0100
0001
0011
1000
0001
0101
,  // measure 21
0010
0000
0001
0000
1100
0000
0000
0000
0010
1000
0010
0000
0100
0001
0100
0000
,  // measure 22
1001
1000
0100
1000
0001
0100
0011
0000
,  // measure 23
1000
0100
1000
0000
0001
0010
0001
0000
1100
0000
0001
0000
0010
0000
0001
0000
,  // measure 24
1000
0000
0010
0000
1010
0000
0000
0000
1000
0010
1000
0000
0001
0100
0001
0000
,  // measure 25
1001
1000
0100
0010
0001
1000
0010
1001
,  // measure 26
0000
0000
0001
1000
0001
1000
0100
0000
1001
0000
0000
0000
0011
0000
0001
0000
,  // measure 27
0010
0000
1001
0100
0010
0001
0100
0010
,  // measure 28
1100
0100
0110
0010
0011
0100
2000
0000
,  // measure 29
0001
0000
0001
0000
0000
0000
3001
0100
0001
0000
0000
0000
0100
0000
0001
0000
,  // measure 30
0100
0000
1001
0010
0100
1000
0010
0100
,  // measure 31
0011
0000
0010
0001
0010
0000
0100
0000
1100
0000
0010
0000
0002
0000
0000
0000
,  // measure 32
1000
0000
1000
0000
0000
0000
1003
0010
2000
0000
3000
0000
1010
0000
0000
0000
,  // measure 33
0110
0010
0110
0010
1000
0001
0100
0010
,  // measure 34
1001
1000
0011
0001
0101
0100
1020
0000
,  // measure 35
0100
0000
0100
0000
0000
0000
1030
0010
2000
0000
0000
0000
0000
0000
3001
0010
,  // measure 36
0001
0010
0001
0000
0100
0000
0010
0000
1000
0000
0010
0000
0100
0000
0001
0000
,  // measure 37
0010
0000
0001
0100
0001
0000
0010
0000
0001
0000
0001
0000
1001
0000
1000
0000
,  // measure 38
1000
0000
0001
0000
0001
0000
0000
0000
1100
0000
0000
0000
0022
0033
0000
0000
,  // measure 39
0120
0000
0031
0010
0100
0000
0011
0000
,  // measure 40
2200
3300
0220
0330
2200
0300
0100
0001
,  // measure 41
0010
0000
3010
1000
0200
0000
0000
0000
1300
0000
0010
0000
1000
0000
0000
0000
,  // measure 42
0012
0000
0100
1000
0013
0000
1100
0000
,  // measure 43
0022
0033
0220
0330
0022
0030
0010
1000
,  // measure 44
0100
0000
0103
0001
0020
0000
0030
0000
0101
0000
0010
0000
0110
0000
0010
0000
,  // measure 45
0120
0000
1030
0001
1000
0001
1000
0000
,  // measure 46
0220
0330
0202
0303
2020
3000
1000
0100
,  // measure 47
0001
0000
0130
0010
0200
0000
0000
0000
0301
0000
0010
0000
0001
0000
0100
0000
,  // measure 48
2001
0000
3001
0100
0001
0100
0001
0000
,  // measure 49
2020
3030
0202
0303
0120
0100
1000
0100
,  // measure 50
0000
0130
0001
0010
0000
0201
0000
0301
,  // measure 51
0011
1000
0010
0002
0000
1003
0100
0001
,  // measure 52
0100
2000
0000
3001
0100
0001
0010
0200
,  // measure 53
0000
1300
0100
1000
0000
0020
0000
1030
,  // measure 54
0001
0010
0001
0200
0000
0301
1000
0100
,  // measure 55
0000
0100
0000
0110
0000
1100
0000
0011
,  // measure 56
0000
0011
0000
0101
0000
1010
0000
1000
,  // measure 57
0001
1000
0001
1000
0001
0000
1010
0000
,  // measure 58
0020
0000
0000
0000
0230
0001
0000
0000
0301
0000
0000
0000
0001
0000
0010
0000
,  // measure 59
0001
0000
1100
0000
0002
0000
0020
0033
,  // measure 60
0011
0000
2000
0000
0200
3300
1100
0000
,  // measure 61
0200
0010
0020
0330
0110
0000
1000
0100
,  // measure 62
0010
0001
0110
0010
0110
0100
0110
0010
,  // measure 63
0002
1000
0000
0000
0000
0000
0010
0000
0000
0000
0010
0000
0103
0000
0000
0000
,  // measure 64
0010
0000
0000
0000
0100
0000
0000
0000
0020
0100
0000
0000
0000
0000
0100
0000
,  // measure 65
0000
0100
0032
0000
0203
0000
0302
0000
,  // measure 66
0203
0010
0000
0000
0000
0000
0001
0000
0000
0000
0001
0000
0320
0000
0000
0000
,  // measure 67
0100
0100
2030
0000
,  // measure 68
0000
3000
1001
1000
0110
0001
0110
1000
,  // measure 69
1001
0001
1000
0100
1000
0100
1100
0001
,  // measure 70
0100
0010
0100
0010
0110
1000
0010
0001
,  // measure 71
0010
0001
0011
0010
0000
0110
0000
0100
,  // measure 72
0120
0000
1030
0100
0001
0100
0101
1000
,  // measure 73
0100
0010
0100
0010
0110
0001
0010
1000
,  // measure 74
0010
1000
1010
0000
0011
0000
1001
0000
,  // measure 75
0102
0000
1003
0010
1000
0010
1010
0001
,  // measure 76
0010
0100
0010
0100
0110
1000
0100
0001
,  // measure 77
0100
0001
0101
0001
0000
1100
0000
0100
,  // measure 78
0201
0000
0301
0010
0001
0010
0011
1000
,  // measure 79
0010
0100
0010
0100
0110
0001
0010
0100
,  // measure 80
0010
0100
0100
0100
0100
0100
0100
0100
,  // measure 81
2000
0000
0000
0000
,  // measure 82
0000
0000
3002
0000
0000
0000
0000
0000
0000
0000
0000
0000
,  // measure 83
1003
0100
0010
0002
0000
0103
0010
0100
,  // measure 84
0000
0200
0300
0100
0001
0010
0100
2000
,  // measure 85
0000
3001
0100
0001
0000
0020
0030
0010
,  // measure 86
0100
1000
0001
0200
0000
0301
1000
0100
,  // measure 87
0000
0200
0000
0301
0000
0001
0000
0100
,  // measure 88
0000
1000
0000
0011
0000
1001
0000
1010
,  // measure 89
2000
0000
3001
1001
0000
0100
1100
0000
,  // measure 90
0200
0000
0310
0000
0012
0000
0013
0120
,  // measure 91
0000
0130
0110
0000
0200
0000
1300
0000
,  // measure 92
0110
2000
3100
0011
,  // measure 93
0200
0001
0301
0000
0002
0000
1003
0100
,  // measure 94
1000
0010
1000
0010
0001
0010
1000
0001
,  // measure 95
0012
0010
0100
2000
0003
3010
0100
0010
,  // measure 96
0000
0210
0000
0301
1000
0010
1000
2000
,  // measure 97
0000
3001
0010
0001
0010
0002
0000
1003
,  // measure 98
2000
0100
0010
0002
3000
0103
0010
0100
,  // measure 99
0000
0010
0000
0100
0000
0011
0000
0110
,  // measure 100
0000
1100
0000
0110
0000
1010
0000
1000
,  // measure 101
0110
0010
0110
1000
1001
0001
1010
0001
,  // measure 102
1010
0000
0100
0000
1001
0000
0010
1000
0010
0000
0100
0000
0011
0000
0001
0000
,  // measure 103
0110
0000
0010
0000
1001
0000
0100
0000
0011
0000
0100
0000
0011
0000
1000
0001
,  // measure 104
1000
0010
1100
0100
0011
0010
1100
1001
,  // measure 105
1000
0000
0100
0000
1010
0000
0001
0000
0011
0000
0010
0001
0010
0001
0010
0000
,  // measure 106
0011
1000
0011
1000
0101
0010
0101
1000
,  // measure 107
0021
0001
0031
0200
0010
0310
1000
0001
,  // measure 108
0010
0200
0001
0301
0200
0010
0310
0200
,  // measure 109
1000
0310
0001
0001
0020
0001
0001
0031
,  // measure 110
0200
1000
1000
0320
0001
1030
0100
0010
,  // measure 111
0001
0010
0001
0010
0100
0010
0100
1000
0200
0000
1000
0000
0300
0000
1100
0000
,  // measure 112
0000
0110
1001
0000
0000
0000
0000
0000
;
