#TITLE:Scars of FAUNA;
#SUBTITLE:;
#ARTIST:猫叉Master;
#TITLETRANSLIT:Scars of FAUNA;
#SUBTITLETRANSLIT:;
#ARTISTTRANSLIT:Nekomata Master;
#GENRE:WORLD/ELECTRONICA;
#CREDIT:;
#BANNER:Scars of FAUNA.png;
#BACKGROUND:Scars of FAUNA-bg.png;
#LYRICSPATH:;
#CDTITLE:cdtitle.png;
#MUSIC:Scars of FAUNA.mp3;
#MENUCOLOR:1,0,0,1;
#METERTYPE:DDR X;
#OFFSET:-1.712;
#SAMPLESTART:81.318;
#SAMPLELENGTH:12.000;
#SELECTABLE:YES;
#BPMS:0.000=165.000;
#STOPS:119.000=1.091
;
#BGCHANGES:;

//---------------dance-single - ----------------
#NOTES:
     dance-single:
     :
     Beginner:
     3:
     0.152,0.252,0.056,0.087,0.000:
0000
0000
0000
0000
,
0000
0000
0000
0000
,
0000
0000
0000
0000
,
0000
0000
0000
0000
,
0000
0000
0000
0000
,
0000
0000
0000
0000
,
1000
0000
0000
0000
,
0000
0000
0010
0000
,
0000
0000
0000
0000
,
0100
0000
0000
0000
,
0000
0000
0001
0000
,
0000
0000
0000
0000
,
0020
0000
0000
0000
,
0030
0000
0200
0000
,
0000
0000
0300
0000
,
2000
0000
0000
0000
,
3000
0000
0002
0000
,
0000
0003
0000
0000
,
0220
0000
0000
0330
,
0000
0000
2002
0000
,
0000
3003
0000
0000
,
1001
0000
0000
0000
,
0000
0000
1001
0000
,
0000
0000
0000
0000
,
0010
0010
0010
0000
,
0000
0000
0100
0100
,
0100
0000
0000
0000
,
0001
0001
0001
0000
,
0000
0000
1000
1000
,
1000
0000
0000
0000
,
0010
0010
0000
0000
,
0000
0000
0100
0100
,
0000
0000
0000
0000
,
0001
0001
0000
0000
,
0000
0000
0010
0010
,
0000
0000
0000
0000
,
0001
0001
0001
1000
,
1000
0000
0000
0000
,
0000
1000
1000
0000
,
0000
0000
1000
1000
,
0001
0000
0000
0000
,
0000
0000
0010
0000
,
0000
0100
0100
0100
,
0000
0000
1001
0000
,
0000
0000
0010
0010
,
0010
0000
0000
0000
,
0100
0100
1000
0000
,
0000
0000
0000
0000
,
0000
0100
0100
0100
,
0010
0010
0000
1000
,
1000
1000
0001
0001
,
0000
0001
0001
0001
,
0100
0100
0100
0000
,
0000
0001
0000
0000
,
1000
1000
1000
0000
,
0100
0100
0000
0010
,
0010
0010
0000
0000
,
0001
0001
0001
0001
,
0000
0000
1000
0000
,
0000
0001
0000
0000
,
0100
0100
0100
0000
,
0010
0010
0010
0000
,
0000
0000
0000
0000
,
0100
0100
0100
0100
,
0000
0000
0001
0000
,
0000
0001
0001
0001
,
2000
0000
0000
0000
,
3000
0000
0200
0000
,
0000
0300
0000
0000
,
0010
0000
0000
0010
,
0000
0000
0001
0000
,
0000
0001
0001
0001
,
0002
0000
0000
0000
,
0003
0000
0010
0000
,
0000
0010
0000
0000
,
0100
0000
0000
0100
,
0000
0000
1000
0000
,
0000
1000
0000
0000
,
1000
0000
0000
1001
,
0000
1001
0000
0000
;

//---------------dance-single - ----------------
#NOTES:
     dance-single:
     :
     Easy:
     6:
     0.264,0.346,0.040,0.350,0.000: // measure 1
0000
0000
0000
0000
,  // measure 2
0000
0000
0000
0000
,  // measure 3
0000
0000
0000
0000
,  // measure 4
0000
0000
0000
0000
,  // measure 5
0000
0000
0000
0000
,  // measure 6
0000
0000
0000
0000
,  // measure 7
1000
0000
0000
1000
,  // measure 8
0000
0000
0010
0000
,  // measure 9
0000
0010
0000
0000
,  // measure 10
0100
0000
0000
0100
,  // measure 11
0000
0000
0001
0000
,  // measure 12
0000
0001
0000
0000
,  // measure 13
0020
0000
0000
0000
,  // measure 14
0000
0000
0230
0000
,  // measure 15
0000
0000
0000
0000
,  // measure 16
0320
0000
0000
0032
,  // measure 17
0000
0000
2003
0000
,  // measure 18
0000
3002
0000
0000
,  // measure 19
2003
0000
0000
0000
,  // measure 20
0000
0000
3020
0000
,  // measure 21
0000
0230
0000
0000
,  // measure 22
0301
0000
0000
0001
,  // measure 23
0000
0000
0010
0000
,  // measure 24
0000
0010
0100
0100
,  // measure 25
1000
0000
0000
0001
,  // measure 26
0000
0000
0001
0000
,  // measure 27
0000
0100
0000
0000
,  // measure 28
0010
0000
0000
0010
,  // measure 29
0000
0000
0100
0000
,  // measure 30
0000
0100
0100
0001
,  // measure 31
2000
3001
0001
0010
,  // measure 32
0010
0100
0200
1300
,  // measure 33
1000
0001
1000
0001
,  // measure 34
0020
0031
0100
0001
,  // measure 35
0100
0010
2000
3010
,  // measure 36
0100
0100
0001
0010
,  // measure 37
0002
0000
0000
1000
,  // measure 38
1000
1003
1000
0100
,  // measure 39
0010
0100
0010
0100
,  // measure 40
0010
0002
0000
1000
,  // measure 41
1000
1003
1000
0100
,  // measure 42
0010
0100
0010
0001
,  // measure 43
1001
0000
1000
0200
,  // measure 44
0010
0010
0310
0000
,  // measure 45
0001
0002
0010
0010
,  // measure 46
0013
0000
0010
0100
,  // measure 47
1000
1000
2000
0000
,  // measure 48
0000
3010
0100
0010
,  // measure 49
1000
0001
1000
0200
,  // measure 50
0010
0000
0010
0300
0010
0000
0100
0000
,  // measure 51
0100
0020
0001
0001
,  // measure 52
0031
0100
0002
0000
,  // measure 53
0103
0010
2000
0000
,  // measure 54
0000
3010
0100
0100
,  // measure 55
0010
0100
0100
0010
,  // measure 56
0100
0001
0010
0001
,  // measure 57
1000
0000
0002
0000
0000
2003
0000
0000
,  // measure 58
3100
0010
0001
0200
,  // measure 59
0000
0320
0000
0000
2030
0000
0000
0000
,  // measure 60
0000
3200
0000
0000
,  // measure 61
0310
0001
0010
0100
,  // measure 62
1000
0100
0010
0001
,  // measure 63
1000
0002
0000
0000
,  // measure 64
1003
0100
0010
0002
,  // measure 65
0003
2000
0000
0000
3200
0000
0000
0000
,  // measure 66
0000
0320
0032
2003
,  // measure 67
3020
0000
0000
0000
,  // measure 68
0000
0130
0002
0000
,  // measure 69
0000
0023
0000
0000
,  // measure 70
0130
0000
0000
0110
,  // measure 71
0000
0000
0110
0000
,  // measure 72
0000
0002
2003
3100
,  // measure 73
0020
0001
0001
0001
,  // measure 74
0000
0000
0032
1000
,  // measure 75
1000
1000
0000
0000
,  // measure 76
2003
0010
0010
0010
,  // measure 77
0000
0000
3020
0100
,  // measure 78
0100
0100
0000
0000
,  // measure 79
0130
0000
0000
1001
,  // measure 80
0000
1001
0000
0000
;

//---------------dance-single - ----------------
#NOTES:
     dance-single:
     [LEGGENDARIA]:
     Challenge:
     16:
     0.800,0.850,0.612,0.540,0.616: // measure 1
0000
0000
0000
0000
,  // measure 2
0000
0000
0000
0000
,  // measure 3
0000
0000
0000
0000
,  // measure 4
0000
0000
0000
0000
,  // measure 5
0000
0000
0000
0000
,  // measure 6
0000
0000
0000
0000
0000
0000
0000
0000
0000
0000
0000
0000
0000
0000
0000
0000
0000
0000
0000
0000
0000
0000
0000
0010
,  // measure 7
1000
0000
0000
0000
0000
0000
0000
0000
0000
1000
0000
0000
0000
0000
0000
0000
0000
0000
1000
0000
0000
0000
0000
0000
1000
0000
0000
0000
0000
0000
0000
0000
0000
0000
0100
0000
0010
0000
0000
0000
0000
0000
0000
0000
0000
0010
0000
0000
,  // measure 8
0000
0000
0000
0000
0000
0000
0100
0000
0010
0000
0100
0000
0010
0000
0000
0000
0000
0000
0000
0000
0000
0000
0010
0000
0001
0000
0000
0000
0000
0000
0000
0000
0000
0001
0000
0000
0000
0000
0000
0000
0000
0000
0001
0000
0000
0000
0000
0000
,  // measure 9
0001
0000
0000
0000
0000
0000
0000
0000
0000
0000
0001
0000
0100
0000
0000
0000
0000
0000
0000
0000
0000
0100
0000
0000
0000
0000
0000
0000
0000
0000
0100
0000
0010
0000
0100
0000
0010
0000
0000
0000
0000
0000
0000
0000
0000
0000
0100
0000
,  // measure 10
0010
0000
0000
0000
0000
0000
0000
0000
0000
0010
0000
0000
0000
0000
0000
0000
0000
0000
0010
0000
0000
0000
0000
0000
0100
0000
0000
0000
0000
0000
0000
0000
0000
0000
0001
0000
1000
0000
0000
0000
0000
0000
0000
0000
0000
1000
0000
0000
,  // measure 11
0000
0000
0000
0000
0000
0000
1000
0000
0001
0000
1000
0000
0001
0000
0000
0000
0000
0000
0000
0000
0000
0000
0010
0000
0001
0000
0000
0000
0000
0000
0000
0000
0000
0001
0000
0000
0000
0000
0000
0000
0000
0000
0001
0000
0000
0010
0000
0000
,  // measure 12
0100
0000
0000
0000
0000
0000
0000
0000
0000
0000
0010
0000
0100
0000
0000
0000
0000
0000
0000
0000
0000
1001
0000
0000
0000
0000
0000
0000
0000
0000
1000
0000
0001
0000
1000
0000
0001
0000
0000
0000
0000
0000
0000
0000
0000
0000
0000
0000
,  // measure 13
2010
0000
0000
0000
,  // measure 14
0000
0000
3001
0100
0002
0000
0000
0000
,  // measure 15
0000
0023
0000
0030
,  // measure 16
0210
0000
0000
0000
1300
0100
0020
0000
,  // measure 17
0000
2030
0000
0000
3020
0000
0000
0000
,  // measure 18
0000
0000
0000
0000
0032
0000
0000
0000
1000
0000
0000
0000
0013
0100
1000
0010
,  // measure 19
0200
0000
1000
1000
1000
0010
1000
0010
,  // measure 20
0310
0010
0010
0100
0120
0100
0001
0001
,  // measure 21
0001
0100
0230
0001
0010
0010
0310
0010
,  // measure 22
1100
0000
0000
1001
0000
0000
0011
0000
0001
0000
0000
0000
0110
0000
0000
0011
,  // measure 23
0000
0000
1100
0000
0100
0000
0000
0000
0101
0000
0000
1001
0000
0000
1001
0000
,  // measure 24
0010
0000
0000
0000
0100
0000
0010
0100
0010
0000
0100
0010
0100
0000
0000
0000
,  // measure 25
1001
0000
0000
0000
0000
0000
0010
0000
0000
0000
0000
0000
0100
0000
0000
1000
0000
0000
0001
0000
0000
0000
0000
0000
0100
0000
0000
0000
0000
0000
0000
0000
0000
0000
0001
0000
0100
0000
0000
0000
0000
0000
0010
0000
0000
0000
0000
0000
,  // measure 26
1000
0000
0000
0000
0000
0000
0001
0000
0010
0000
0001
0000
0010
0000
0000
0000
0000
0000
0000
0000
0000
0000
0100
0000
1000
0000
0000
0000
0000
0000
0100
0000
0000
0000
0000
0000
1000
0000
0000
0001
0000
0000
0100
0000
0000
0000
0000
0000
,  // measure 27
0010
0000
0000
0000
0000
1000
0010
0000
0000
1000
0000
0000
0001
0000
0000
1000
0100
1000
0100
0000
0000
0000
0000
0100
,  // measure 28
0010
0000
0000
0000
0000
0000
0010
0000
0000
0001
0000
0000
0100
0000
0000
0000
0000
0000
0100
0000
0000
0001
0000
0000
0010
0000
0000
0000
0000
0000
0000
0000
0000
0000
0001
0000
1000
0000
0000
0000
0000
0000
0001
0000
0000
0000
0000
0000
,  // measure 29
0100
0000
0000
0000
0000
0000
0010
0000
1000
0000
0010
0000
1000
0000
0000
0000
0000
0000
0000
0000
0000
0000
0100
0000
0010
0000
0000
0000
0000
0000
0010
0000
0000
0001
0000
0000
0100
0000
0000
0000
0000
0000
0001
0000
0100
0000
0001
0000
,  // measure 30
0100
0000
0000
0000
0000
0000
0000
0000
0000
0000
0010
0000
1000
0000
0000
0000
0000
0000
0000
0000
0000
0110
0000
0000
0000
0000
0000
0000
0000
0000
0001
0000
1000
0000
0001
0000
2000
0000
0000
3000
0000
0000
0000
0000
0000
0000
0000
0000
,  // measure 31
2100
0000
0001
0000
3001
0000
0000
0000
0110
0000
0001
0100
1000
0000
0100
0000
,  // measure 32
0001
0010
0001
0010
0000
0000
0001
0000
0000
1000
0000
0000
0012
0000
0000
1000
0000
0000
1003
0000
0000
0000
0000
0000
,  // measure 33
0110
0000
0000
0000
0000
0000
1000
0000
0000
0100
0000
0000
0001
0000
0000
0000
0000
0000
0100
0000
0000
0000
0000
0000
1000
0000
0000
0000
0000
0000
0001
0000
0000
0000
0000
0000
1000
0000
0010
0000
1000
0000
0010
0000
0000
0100
0000
0000
,  // measure 34
0020
0000
1000
0000
0130
0000
0000
0000
1001
0000
1000
0001
0100
0000
0001
0000
,  // measure 35
0100
0001
0100
0001
0000
0000
1000
0000
0000
0010
0000
0000
1200
0000
0000
1000
0000
0000
0310
0000
0000
0000
0000
0000
,  // measure 36
1001
0000
0000
0000
0000
0000
0001
0000
0000
1000
0000
0000
0100
0000
0000
0000
0000
0000
1000
0000
0000
0000
0000
0000
0100
0000
1000
0000
0100
0000
2000
0000
0000
0000
0000
0000
0000
0000
0000
0000
0000
0000
3001
0000
0000
0000
0000
0000
,  // measure 37
0120
0000
0000
0000
0000
0000
1000
0000
0000
0000
0000
0000
0100
0000
0000
0000
0000
0000
0130
0010
0100
0010
0000
0000
,  // measure 38
0010
0100
0010
0100
0000
0000
1001
0000
0000
0100
0000
0000
1002
0000
0000
0000
0000
0000
0100
0000
0000
0000
0000
0000
,  // measure 39
0010
0000
0000
0000
0000
0000
1003
0000
0000
0001
0000
0000
0010
0000
0000
0000
0000
0000
0100
0000
1000
0000
0100
0000
1000
0000
0000
0000
0000
0000
0020
0000
0000
0000
0000
0000
0000
0000
0000
0000
0000
0000
1030
0000
0000
0000
0000
0000
,  // measure 40
0210
0000
0000
0000
0000
0000
0001
0000
0000
0000
0000
0000
0010
0000
0000
0000
0000
0000
0310
0100
0010
0100
0000
0000
,  // measure 41
0100
0010
0100
0010
0000
0000
1001
0000
0000
0010
0000
0000
1002
0000
0000
0000
0000
0000
0100
0000
0000
1000
0000
0000
,  // measure 42
0010
0000
0000
0000
0000
0000
1003
0000
0000
0001
0000
0000
0100
0000
0000
0000
0000
0000
0001
0000
0010
0000
0001
0000
0010
0000
0000
0000
0000
0000
0002
0000
0000
0000
0000
0000
0000
0000
0000
0000
0000
0000
1003
0000
0000
0000
0000
0000
,  // measure 43
0101
0000
1000
2010
0002
3003
0120
0000
,  // measure 44
1030
1000
0110
0001
1001
0000
0001
0012
,  // measure 45
2000
3003
0210
0000
1300
0001
2002
3003
,  // measure 46
1100
0000
0001
0012
0200
0303
2001
0000
,  // measure 47
3010
0210
0002
0303
1001
0000
0010
0001
,  // measure 48
0100
0000
0000
0000
0000
0000
0001
0000
0000
0010
0000
0000
0001
0000
0000
0000
0000
0000
1000
0000
0100
0000
1000
0000
0100
0000
0000
0000
0000
0000
0200
0000
0000
0000
0000
0000
0000
0000
0000
0000
0000
0000
1300
0000
0000
0000
0000
0000
,  // measure 49
1001
0000
0000
0000
0000
0010
0001
0000
0000
1000
0000
0000
0020
0000
0000
0000
0130
0001
0200
0000
0000
0000
0000
0000
,  // measure 50
0310
0000
0000
1000
0000
0000
0010
0100
0010
0100
0000
0000
0001
0000
0000
0000
0000
0010
0002
0000
0000
0000
0000
0000
,  // measure 51
0203
0000
0000
0000
0000
0000
0320
0000
0000
0000
0000
0000
1030
0000
0000
0100
0010
0100
0020
0000
0000
0030
0000
0000
,  // measure 52
1001
0000
0000
0000
0000
1000
0100
0000
0000
0001
0000
0000
0200
0000
0000
0000
0000
0000
1000
0000
0000
0000
0000
0000
,  // measure 53
1300
0000
0100
0000
0010
0000
0100
0010
0002
0000
0000
0000
0000
0000
0000
0000
,  // measure 54
0003
0000
0000
0001
1000
0001
2000
0000
0000
0000
0000
3001
0200
0000
0000
0000
0000
0301
0020
0000
0000
0030
0000
0000
,  // measure 55
0011
0000
0000
0001
0000
0010
0100
0000
0000
0100
0000
0000
0110
0000
0000
0001
0000
0000
0100
0000
0000
0010
0000
1000
,  // measure 56
0100
0000
0000
0100
0000
0000
1001
0000
0000
0100
0000
0000
0100
0000
0000
0010
1000
0010
1000
0000
0000
0100
0000
0000
,  // measure 57
0011
1000
0002
0000
1000
2003
0000
3100
,  // measure 58
0110
0000
0000
1000
0000
0010
0100
0000
0000
0001
0000
0000
0110
0000
0000
0010
0000
0001
2000
0000
0000
0000
0000
0000
,  // measure 59
3100
0000
0001
0020
0000
0000
0000
0000
0000
0130
0000
0000
0100
0002
0100
0000
0000
0000
0000
0000
0000
0000
0000
0000
,  // measure 60
0103
0000
0000
0000
0000
0000
0010
0000
0000
0000
0000
0000
0001
0000
0200
0000
0001
0000
0000
0000
0000
0010
0000
0000
0000
0000
0000
0000
0000
0000
0010
0000
0000
0000
0000
0000
0310
0000
0000
0000
0000
0000
0000
0000
0000
0000
0000
0000
,  // measure 61
1100
0000
0000
1000
0000
0100
0010
0000
0000
0010
0000
0000
0110
0000
0000
1000
0000
0000
0010
0000
0000
0100
0000
0001
,  // measure 62
0010
0000
0000
0010
0000
0000
1001
0000
0000
0010
0000
0000
0011
0000
0000
0100
0001
0100
0001
0000
0000
0011
0000
0000
,  // measure 63
1001
1000
2000
0000
0001
3002
0000
0013
,  // measure 64
0110
0000
0000
0001
0000
0100
0010
0000
0000
1000
0000
0000
0110
0000
0000
0100
0000
1000
0002
0000
0000
0000
0000
0000
,  // measure 65
0013
0000
1000
0200
0000
0000
0000
0000
0000
0310
0000
0000
0010
2000
0010
0000
0000
0000
0000
0000
0000
0000
0000
0000
,  // measure 66
3020
0000
0000
0000
0000
0000
0032
0100
0000
0000
0000
0000
2003
0010
0000
0000
0000
0000
3002
0100
0000
0000
0000
0000
,  // measure 67
0103
0000
0001
0000
0100
0010
0100
0000
0012
0000
0000
0000
1003
0000
0010
0000
,  // measure 68
0100
0001
1001
0010
2000
0000
0100
0000
,  // measure 69
0001
0000
3001
0200
0001
0000
0301
0010
,  // measure 70
1001
0000
0000
1100
0000
0000
0110
0000
0100
0000
0000
0000
1001
0000
0000
0110
,  // measure 71
0000
0000
0110
0000
0010
0000
0000
0000
0011
0000
0000
1001
0000
0000
1001
0000
,  // measure 72
0001
0000
0002
0000
0203
0000
0310
1000
,  // measure 73
0001
0000
0000
0000
0000
0000
1000
0000
0000
0000
0000
0000
0100
0000
0000
0010
0000
0000
0100
0000
0000
0000
0000
0000
0010
0000
0000
0000
0000
0000
0000
0000
0000
0000
0001
0000
0010
0000
0000
0000
0000
0000
0001
0000
0000
0000
0000
0000
,  // measure 74
0100
0000
0000
0000
0000
0000
0100
0000
0010
0000
0100
0000
0010
0000
0000
0000
0000
0000
0000
0000
0000
0000
1000
0000
0100
0000
0000
0000
0000
0000
0010
0000
0000
0000
0000
0000
0001
0000
0000
0100
0000
0000
0001
0000
0000
0000
0000
0000
,  // measure 75
0010
0000
0000
0000
0000
0001
0010
0000
0000
0100
0000
0000
0010
0000
0000
0001
0010
0001
0010
0000
0000
0000
0000
0100
,  // measure 76
1000
0000
0000
0000
0000
0000
0000
0000
0000
0100
0000
0000
0000
0000
0000
0000
0000
0000
0001
0000
0000
0000
0000
0000
0100
0000
0000
0000
0000
0000
0000
0000
0000
0000
1000
0000
0001
0000
0000
0000
0000
0000
0000
0000
0000
1001
0000
0000
,  // measure 77
0000
0000
0000
0000
0000
0000
0100
0000
0001
0000
0100
0000
0001
0000
0000
0000
0000
0000
0000
0000
0000
0000
0001
0000
1000
0000
0000
0000
0000
0000
0000
0000
0000
1001
0000
0000
0000
0000
0000
0000
0000
0000
0100
0000
0000
0001
0000
0000
,  // measure 78
1000
0000
0000
0000
0000
0000
0000
0000
0000
1000
0000
0000
0001
0000
0000
0000
0000
0000
0000
0000
0000
0100
0000
0000
0000
0000
0000
0000
0000
0000
0100
0000
0010
0000
0100
0000
0010
0000
0100
0000
0010
0000
0100
0000
0010
0000
0100
0000
,  // measure 79
0010
0000
0000
1100
0000
0000
1100
0000
1100
0000
0000
0000
0011
0000
0000
0011
,  // measure 80
0000
0011
0011
0000
0000
0000
0000
0000
;

//---------------dance-single - ----------------
#NOTES:
     dance-single:
     :
     Hard:
     12:
     0.585,0.724,0.175,0.524,0.346: // measure 1
0000
0000
0000
0000
,  // measure 2
0000
0000
0000
0000
,  // measure 3
0000
0000
0000
0000
,  // measure 4
0000
0000
0000
0000
,  // measure 5
0000
0000
0000
0000
,  // measure 6
0000
0000
0000
0000
,  // measure 7
0001
0000
0000
0001
0000
0000
0001
0000
0001
0000
0000
0000
0010
0000
0000
0010
,  // measure 8
0000
0000
0100
0010
0100
0000
0000
0000
0100
0000
0000
0100
0000
0000
0100
0000
,  // measure 9
0100
0000
0000
0000
1000
0000
0000
1000
0000
0000
0001
0100
0001
0000
0000
0000
,  // measure 10
0100
0000
0000
0100
0000
0000
0100
0000
0100
0000
0000
0000
0010
0000
0000
0010
,  // measure 11
0000
0000
1000
0010
1000
0000
0000
0000
1000
0000
0000
1000
0000
0000
0100
1000
,  // measure 12
0001
0000
0000
0000
0100
0000
0000
0100
0000
0000
0100
0001
1000
0000
0000
0000
,  // measure 13
2001
0000
0000
0000
,  // measure 14
0000
0000
3001
0010
0002
0000
0000
0000
,  // measure 15
0000
0000
0203
0000
0000
0000
0000
0300
,  // measure 16
0102
0000
0000
0000
1003
0010
0200
0000
,  // measure 17
0000
0302
0000
0000
2003
0000
0000
0000
,  // measure 18
0000
0000
3200
0000
0000
0000
0000
0300
,  // measure 19
1002
0000
0000
0000
,  // measure 20
0000
0003
1000
0100
2000
0000
0000
0000
,  // measure 21
0000
3020
0000
0000
,  // measure 22
2030
0000
0000
0001
0000
0000
0001
0000
3001
0000
0100
0000
0020
0000
0000
0100
,  // measure 23
0000
0000
0230
0000
0010
0000
0000
0000
0320
0000
0000
1000
0000
0000
1000
0000
,  // measure 24
1000
2030
3100
0020
,  // measure 25
0031
0000
0000
0010
0100
0000
0001
0000
0100
0000
0000
0000
1000
0000
0000
0010
,  // measure 26
1000
0000
0010
0100
0001
0000
0000
0100
0010
0000
0000
0010
1000
0000
0100
0000
,  // measure 27
0001
0000
0000
0001
0100
0000
0000
1000
0010
0000
0001
0010
1000
0000
0000
0000
,  // measure 28
0001
0000
0000
1000
0100
0000
1000
0000
0100
0000
0000
0010
0001
0000
0000
0001
,  // measure 29
0010
0000
0100
0010
0100
0000
0000
0100
0010
0000
0000
0010
0001
0000
0001
0100
,  // measure 30
0010
0000
0000
0000
0010
0000
0000
0010
1000
0000
0001
1000
0002
0003
0000
0000
,  // measure 31
2000
0000
0000
0000
3100
0000
0000
0000
0100
0000
0010
0001
0010
0000
0001
0000
,  // measure 32
1000
0100
1000
0000
0001
0000
0010
0000
0002
0000
0000
0000
0013
0000
0000
0000
,  // measure 33
0010
0000
0100
1000
0100
0000
1000
0000
0001
0010
0001
0000
0001
1000
0001
0010
,  // measure 34
0200
0000
0000
0000
0310
0000
0000
0000
0001
0000
0100
0010
0100
0000
0001
0000
,  // measure 35
0010
0100
0010
0000
0001
0000
0100
0000
0020
0000
0000
0000
1030
0000
0000
0000
,  // measure 36
1000
0000
0010
0100
0010
0000
1000
0000
0100
0010
0100
0000
1000
0000
0010
0000
,  // measure 37
2000
0000
0000
0000
0000
0000
0010
0000
0000
0000
0000
0000
3010
0000
0000
0000
0000
0000
0100
0001
0000
0000
0000
0000
,  // measure 38
0100
0001
0000
0000
0000
0000
1000
0000
0000
0001
0000
0000
0100
0000
0000
0000
0000
0000
0001
0000
0000
0000
0000
0000
,  // measure 39
0010
0000
0001
0000
1000
0000
0010
0100
0010
0000
0100
0000
0000
0000
0100
0000
,  // measure 40
0002
0000
0000
0000
0000
0000
0100
0000
0000
0000
0000
0000
0103
0000
0000
0000
0000
0000
0010
1000
0000
0000
0000
0000
,  // measure 41
0010
1000
0000
0000
0000
0000
0001
0000
0000
1000
0000
0000
0010
0000
0000
0000
0000
0000
1000
0000
0000
0000
0000
0000
,  // measure 42
0100
0000
1000
0000
0001
0000
0100
0010
0100
0000
1000
0000
0000
0000
0000
0000
,  // measure 43
0110
0020
2030
3200
,  // measure 44
1300
0100
0010
0000
0110
0000
0002
0000
,  // measure 45
0023
0000
0230
0000
0310
1000
0010
0000
,  // measure 46
0110
0200
0320
0230
,  // measure 47
1300
0100
0010
0001
0002
0000
0100
0000
,  // measure 48
0000
0000
1000
0000
1003
0000
0100
0001
0010
0000
0002
0000
0000
0000
0000
0000
,  // measure 49
0103
0200
0302
0023
,  // measure 50
0031
0010
0100
0000
0110
0000
2000
0000
,  // measure 51
3200
0000
0320
0000
0130
0001
0100
0000
,  // measure 52
0110
0020
0230
0000
,  // measure 53
1300
0100
0010
0001
2000
0000
0000
0000
,  // measure 54
3000
0000
0000
0000
0000
0000
0001
0000
0000
0100
0000
0000
0001
0000
0000
0000
0000
0000
0000
0000
0000
0000
0000
0000
1000
0000
0100
0000
0000
0000
0000
0000
0000
0000
0000
0000
0010
0000
0001
0000
0000
0000
0000
0000
0000
0000
0000
0000
,  // measure 55
0100
0000
0001
0100
0001
0000
0010
0000
0100
0000
0010
0000
0100
0000
1000
0100
,  // measure 56
1000
0000
0001
0000
0100
0000
0010
0000
0010
0000
1000
0001
1000
0000
0010
0000
,  // measure 57
0100
1000
0002
0000
0000
0203
0000
0001
,  // measure 58
0301
0000
0001
1000
0001
0000
0100
0000
0100
0000
0010
0000
0200
0000
0000
0000
,  // measure 59
0301
2000
0000
3001
0020
0000
0000
0000
,  // measure 60
0130
0000
1000
0000
2010
0000
0000
0010
0000
0000
0010
0000
0010
0000
0000
0000
,  // measure 61
3010
0000
1000
0010
1000
0000
0100
0000
0010
0000
0100
0000
0010
0000
0001
0010
,  // measure 62
0001
0000
1000
0000
0010
0000
0100
0000
0110
0000
0001
1000
0001
0000
0101
0000
,  // measure 63
1010
0001
2000
0000
0000
3020
0000
1000
,  // measure 64
1030
0000
1000
0001
1000
0000
0010
0000
0010
0000
0100
0000
0020
0000
0000
0000
,  // measure 65
1030
0002
0000
1003
0200
0000
0000
0000
,  // measure 66
0310
0002
2003
3002
,  // measure 67
0023
0100
0100
0100
,  // measure 68
1000
0000
0031
0100
0020
0000
0001
0000
,  // measure 69
0001
0230
1000
1300
,  // measure 70
0100
0000
0000
1001
0000
0000
0010
0000
0110
0000
0000
0000
0010
0000
0000
1001
,  // measure 71
0000
0000
0100
0000
0110
0000
0000
0000
2000
0000
0000
0100
0000
0000
0100
0000
,  // measure 72
3100
0020
0032
2003
,  // measure 73
3001
0000
0000
0000
0000
0000
0000
0000
0000
0001
0000
0000
0000
0000
0000
0000
0000
0000
0001
0000
0000
0000
0000
0000
0001
0000
0000
0000
0000
0000
0000
0000
0000
0000
0001
0000
0100
0000
0000
0000
0000
0000
0000
0000
0000
0100
0000
0000
,  // measure 74
0000
0000
0000
0000
0000
0000
0100
0000
0000
0001
0000
0000
0100
0000
0000
0000
0000
0000
0000
0000
0000
0000
0010
0000
1000
0000
0000
0000
0000
0000
0000
0000
0000
1000
0000
0000
0000
0000
0000
0000
0000
0000
1000
0000
0000
0000
0000
0000
,  // measure 75
1000
0000
0000
0000
0000
0000
0000
0000
0000
0000
1000
0000
0100
0000
0000
0000
0000
0000
0000
0000
0000
0100
0000
0000
0000
0000
0000
0000
0000
0000
0100
0000
0000
0010
0000
0000
0100
0000
0000
0000
0000
0000
0000
0000
0000
0000
0010
0000
,  // measure 76
0001
0000
0000
0000
0000
0000
0000
0000
0000
0001
0000
0000
0000
0000
0000
0000
0000
0000
0001
0000
0000
0000
0000
0000
0001
0000
0000
0000
0000
0000
0000
0000
0000
0000
0001
0000
0010
0000
0000
0000
0000
0000
0000
0000
0000
0010
0000
0000
,  // measure 77
0000
0000
0000
0000
0000
0000
0010
0000
0000
0001
0000
0000
0010
0000
0000
0000
0000
0000
0000
0000
0000
0000
0001
0000
1000
0000
0000
0000
0000
0000
0000
0000
0000
0001
0000
0000
0000
0000
0000
0000
0000
0000
1000
0000
0000
0001
0000
0000
,  // measure 78
1000
0000
0000
0000
0000
0000
0000
0000
0000
0000
1000
0000
0001
0000
0000
0000
0000
0000
0000
0000
0000
1000
0000
0000
0000
0000
0000
0000
0000
0000
0001
0000
0000
0010
0000
0000
0002
0000
0000
0000
0000
0000
0000
0000
0000
0000
0000
0000
,  // measure 79
1003
0000
0000
1100
0000
0000
0011
0000
0010
0000
0000
0000
1001
0000
0000
0110
,  // measure 80
0000
0110
0101
0000
0000
0000
0000
0000
;

//---------------dance-single - ----------------
#NOTES:
     dance-single:
     :
     Medium:
     9:
     0.452,0.567,0.111,0.524,0.107: // measure 1
0000
0000
0000
0000
,  // measure 2
0000
0000
0000
0000
,  // measure 3
0000
0000
0000
0000
,  // measure 4
0000
0000
0000
0000
,  // measure 5
0000
0000
0000
0000
,  // measure 6
0000
0000
0000
0000
,  // measure 7
0001
0000
0000
0001
0000
0000
0001
0000
0001
0000
0000
0000
0010
0000
0000
0010
,  // measure 8
0000
0000
0100
0000
0100
0000
0000
0000
0100
0000
0000
0100
0000
0000
0100
0000
,  // measure 9
0100
0000
0000
0000
1000
0000
0000
1000
0000
0000
0001
0000
0001
0000
0000
0000
,  // measure 10
0100
0000
0000
0100
0000
0000
0100
0000
0100
0000
0000
0000
0010
0000
0000
0010
,  // measure 11
0000
0000
1000
0000
1000
0000
0000
0000
1000
0000
0000
1000
0000
0000
0100
0000
,  // measure 12
0001
0000
0000
0000
0100
0000
0000
0100
0000
0000
0100
0000
1000
0000
0000
0000
,  // measure 13
2001
0000
0000
0000
,  // measure 14
0000
0000
3020
0000
,  // measure 15
0000
0032
0000
0000
,  // measure 16
0023
0000
0000
2030
,  // measure 17
0000
0000
3200
0000
,  // measure 18
0000
0320
0000
0000
,  // measure 19
0032
0000
0000
0000
,  // measure 20
0000
0000
0203
0000
,  // measure 21
0000
0320
0000
0000
,  // measure 22
2030
0000
0000
3020
,  // measure 23
0000
0000
0032
0000
,  // measure 24
0000
0013
0100
0010
,  // measure 25
0110
0000
0000
0010
0000
0000
0010
0000
0010
0000
0000
0000
1000
0000
0000
0100
,  // measure 26
0000
0000
0100
0000
1000
0000
0000
0000
0001
0000
0000
0001
0000
0000
0001
0000
,  // measure 27
0001
0000
0000
0000
0010
0000
0000
0100
0000
0000
0100
0000
0010
0000
0000
0000
,  // measure 28
0100
0000
0000
0100
0000
0000
0100
0000
0100
0000
0000
0000
1000
0000
0000
0010
,  // measure 29
0000
0010
1000
0000
0101
0000
1001
0000
,  // measure 30
0110
0000
0000
0000
1000
0000
0000
1000
0000
0000
0100
0000
0020
0000
0000
0000
,  // measure 31
0032
0000
1003
0000
0001
1000
0100
0010
,  // measure 32
0100
1000
0001
0000
2000
0000
3001
0000
,  // measure 33
0001
0010
0100
0010
0001
1000
0001
0000
,  // measure 34
0200
0000
0310
0000
0100
0001
0010
0001
,  // measure 35
0100
0001
0100
0000
0020
0000
0130
0000
,  // measure 36
0010
1000
0100
1000
0010
1000
0000
1000
,  // measure 37
0002
0000
0000
0010
,  // measure 38
0010
0010
2003
0000
,  // measure 39
0000
0000
3001
0010
0001
1000
0000
1000
,  // measure 40
0020
0000
0000
0100
,  // measure 41
0100
0100
0230
0000
,  // measure 42
0000
0000
0301
0100
0001
2000
0000
3000
,  // measure 43
1000
0200
0310
0020
,  // measure 44
0001
0001
0031
0020
,  // measure 45
0130
0200
1000
1000
,  // measure 46
1300
0002
1003
0002
,  // measure 47
1000
1000
2003
0000
,  // measure 48
0000
0000
3001
1000
0001
0010
0000
0000
,  // measure 49
0010
0200
0310
0200
,  // measure 50
1000
1000
1300
0020
,  // measure 51
0130
0020
0100
0100
,  // measure 52
0130
0002
2003
0000
,  // measure 53
3001
1000
0001
0000
0220
0000
0000
0000
,  // measure 54
0330
2000
3200
0320
,  // measure 55
0031
1000
0010
0100
0100
0010
1000
0100
,  // measure 56
0100
0010
0001
0100
0001
0100
0100
0010
,  // measure 57
0010
1000
0002
0000
0000
2003
0000
0010
,  // measure 58
3010
0100
0001
0010
0010
0001
0200
0000
,  // measure 59
0010
0320
0000
1000
2030
0000
0000
0000
,  // measure 60
3001
0000
1000
0000
1002
0000
0000
1000
0000
0000
1003
0000
0001
0000
0000
0000
,  // measure 61
1000
0001
0100
0010
0010
0100
0001
0010
,  // measure 62
0010
0000
0100
0000
1000
0000
0010
0000
1000
0000
0000
1001
0000
0000
1001
0000
,  // measure 63
0100
0001
2000
0000
0000
3002
0000
0100
,  // measure 64
0103
0010
1000
0100
0100
1000
0020
0000
,  // measure 65
0100
0230
0000
0001
0302
0000
0000
0000
,  // measure 66
2003
3020
0230
0302
,  // measure 67
0023
0100
1000
0001
,  // measure 68
0100
0000
0031
1000
0200
0000
0001
0000
,  // measure 69
0010
0320
0001
0100
,  // measure 70
0032
0000
0100
0000
0013
0100
0020
0000
,  // measure 71
0100
1000
0230
1000
,  // measure 72
0010
2300
3002
2003
,  // measure 73
3001
0000
0000
1000
0000
0000
1000
0000
1000
0000
0000
0000
0010
0000
0000
0010
,  // measure 74
0000
0000
0010
0000
0010
0000
0000
0000
0100
0000
0000
0100
0000
0000
0100
0000
,  // measure 75
0100
0000
0000
0000
0001
0000
0000
0001
0000
0000
0001
0000
0001
0000
0000
0000
,  // measure 76
0010
0000
0000
0010
0000
0000
0010
0000
0010
0000
0000
0000
0100
0000
0000
0100
,  // measure 77
0000
0000
0100
0000
0100
0000
0000
0000
1000
0000
0000
0001
0000
0000
1000
0000
,  // measure 78
1000
0000
0000
0000
0001
0000
0000
1000
0000
0000
0001
0000
0002
0000
0000
0000
,  // measure 79
1003
0000
0000
1100
0000
0000
0011
0000
0010
0000
0000
0000
1001
0000
0000
0110
,  // measure 80
0000
0110
0100
0000
0000
0000
0000
0000
;
