#TITLE:Ring of Fortune;
#SUBTITLE:プラスティック・メモリーズ OP;
#ARTIST:佐々木恵梨;
#TITLETRANSLIT:Ring of Fortune;
#SUBTITLETRANSLIT:Plastic Memories OP;
#ARTISTTRANSLIT:Sasaki Eri;
#GENRE:PLASTIC POP;
#CREDIT:;
#BANNER:Ring of Fortune.png;
#BACKGROUND:Ring of Fortune-bg.png;
#LYRICSPATH:;
#CDTITLE:cdtitle.png;
#MUSIC:Ring of Fortune.mp3;
#MENUCOLOR:0,0,1,1;
#METERTYPE:DDR X;
#OFFSET:-0.777;
#SAMPLESTART:54.116;
#SAMPLELENGTH:12.000;
#SELECTABLE:YES;
#BPMS:0.000=158.000;
#STOPS:;
#BGCHANGES:;

//---------------dance-single - ----------------
#NOTES:
     dance-single:
     :
     Hard:
     13:
     0.728,0.875,0.736,0.725,0.121:
0000
0000
0000
0000
,
0000
0000
0000
0000
,
0000
0000
0000
0000
,
1001
0000
0001
0000
0001
0000
0000
0010
0100
0000
0100
0000
0000
0000
1100
0000
,
1000
0000
0000
0000
0001
0000
0011
0000
0000
0000
0100
0000
0001
0100
0001
0000
,
2010
0000
3001
0011
0000
1100
0000
0110
,
0000
0011
0000
2001
0000
0000
0000
0000
,
0000
0000
0001
0001
,
3001
0000
0000
0100
1000
0000
0100
0002
,
0000
0000
2003
3020
,
0031
0010
1000
0200
0000
0000
0000
0010
,
0010
0010
0010
0010
0000
0000
0000
0000
,
1300
1000
0001
0200
0000
0000
0301
0020
,
0000
0000
0031
2000
0000
3010
0100
0010
,
0200
0000
0000
0001
0001
0000
0000
0000
,
0310
0000
0000
0000
1000
0000
0000
0000
0100
1000
0100
0000
0010
0000
0000
0000
,
0001
0010
0100
0001
0100
0010
0000
0001
,
1000
2000
3020
0230
,
2300
0000
0000
3100
0020
0000
1030
0200
,
0010
0000
0001
0000
1000
0000
1300
0001
,
0020
0000
0130
2000
0000
0000
3100
0200
,
0010
0000
1000
1300
0000
0000
0001
1000
,
0100
0000
0100
0010
0000
0010
0001
0000
,
0001
0000
0000
0000
1000
0000
0000
0000
0100
0000
0010
0000
0100
1000
0100
0000
,
0022
0033
2020
3030
0010
1000
0101
1000
,
0002
0000
0000
0000
0200
0303
0000
0000
0220
0000
0330
0000
1000
0000
0100
0000
,
2200
0000
3300
0000
0022
0000
0033
0000
0100
0000
1001
0000
0000
0000
0100
1000
,
0100
1000
0100
0000
0011
0000
0000
0000
1002
0000
1003
0000
0100
0010
0001
0000
,
1100
0010
1000
0001
0000
0100
0002
0000
,
0100
0000
0100
0000
0010
0000
1003
0100
,
1000
0001
0010
0002
0003
0002
0003
1000
,
2000
0100
0010
0010
,
3001
0000
0100
0010
1000
0000
1010
0000
0000
0000
0110
0000
0000
0000
2100
0000
,
0000
0000
3001
0000
1000
0000
0120
0000
0000
0000
1030
0010
0100
0000
1002
0000
,
0000
0103
0010
1000
0001
0010
0100
0120
,
0000
0031
0020
0000
0100
0000
0031
0000
,
1100
0000
0100
0000
0010
0000
0001
0010
0001
0000
0100
0000
0010
0000
1010
0000
,
0000
1010
0020
1000
2030
0001
3200
0010
,
0320
0000
0001
0000
0130
0000
0010
0100
1000
0000
0001
0000
0010
0000
0021
0000
,
0000
0031
1000
0001
1100
0110
0011
1010
,
0101
0000
0000
0000
1000
0100
1000
0100
1000
0000
0011
0000
0101
0000
1100
0000
,
0000
0010
2000
0100
3020
1000
0230
0001
,
0302
0000
0000
0000
0013
0000
0100
0010
0200
0000
1000
0000
1300
0000
0001
0000
,
1001
0000
0010
0000
0110
0000
0101
0000
0000
0000
1010
0000
0001
1000
0100
0000
,
0110
0010
0001
2000
0010
3002
0100
0013
,
0000
0001
0200
0001
0302
1000
0023
0100
,
0230
0000
0001
0000
0010
0000
1300
0001
0100
0000
0110
0000
0010
0000
1100
0000
,
0000
0000
1001
0000
0000
0000
0012
0000
0000
0000
0103
0000
0010
0100
0010
0000
,
0110
0100
0100
0022
0033
1100
0000
1000
,
0201
0000
0310
0110
0000
1001
0000
0012
,
0000
0000
0103
0000
0100
0000
0000
0001
0010
0000
0100
0000
1000
0000
1001
0000
,
0000
1000
0100
1000
0001
0010
0001
0210
,
0000
0301
0100
0000
0020
0000
1030
0110
,
0000
0000
0101
0000
0000
0000
1100
0000
0000
0000
0010
0000
0101
0000
0010
0100
,
0010
1000
0001
0000
0100
0010
1000
0110
,
0101
0000
0100
0000
1010
0000
1100
0000
0001
0000
1000
0000
0001
0010
0001
0000
,
0010
0000
0100
0001
0100
0001
0100
0000
0000
0000
0110
0000
0000
0000
0011
0000
,
0000
0110
0010
2002
0000
0000
0000
0000
,
0000
0000
0000
0000
,
3003
0000
0000
0000
;

//---------------dance-single - ----------------
#NOTES:
     dance-single:
     :
     Medium:
     9:
     0.442,0.486,0.242,0.549,0.000: // measure 1
0000
0000
0000
0000
,  // measure 2
0000
0000
0000
0000
,  // measure 3
0000
0000
0000
0000
,  // measure 4
0000
1000
0100
0000
0100
0010
0000
0010
,  // measure 5
0001
0000
0001
0010
0000
0001
1000
0001
,  // measure 6
0020
0000
0130
0010
0000
0001
0000
0101
,  // measure 7
0000
1001
0000
0012
0000
0000
0000
0000
,  // measure 8
0000
0000
0000
0000
,  // measure 9
0103
0000
0000
0010
1000
0000
0001
0200
,  // measure 10
0000
0000
0300
0001
,  // measure 11
0020
0000
0001
0032
0000
0000
0000
0000
,  // measure 12
1003
0000
1000
0001
0000
0000
0000
0000
,  // measure 13
0100
0010
1000
0010
0000
0000
0100
0002
,  // measure 14
0000
0000
0013
0001
0000
0100
0001
1000
,  // measure 15
0200
0000
0302
0000
,  // measure 16
0000
0103
1000
0100
,  // measure 17
1000
0000
0010
0000
0100
0001
0000
0010
,  // measure 18
0000
1000
0010
0001
,  // measure 19
0200
0000
0000
0000
0310
0000
1000
0002
,  // measure 20
0000
0000
0000
0000
0000
0000
0103
0200
,  // measure 21
0000
0000
0000
0301
0000
0000
0010
0020
,  // measure 22
0000
0000
0000
0130
0000
0000
0000
0000
,  // measure 23
1000
0000
0001
1000
0000
1000
0001
0000
,  // measure 24
0000
0001
0200
2300
,  // measure 25
3100
0000
0101
0000
0011
0000
0010
0001
,  // measure 26
0200
0000
0000
0000
1300
0000
0000
1000
,  // measure 27
0100
0000
0110
0000
0110
0000
0000
0001
,  // measure 28
0010
0100
1000
0000
0020
0000
0000
0030
,  // measure 29
1000
0100
1000
0100
0000
0020
0001
0000
,  // measure 30
0000
0000
0000
0000
0000
0000
0000
0001
,  // measure 31
0130
0010
0001
0020
0000
2030
0000
3002
,  // measure 32
0000
0000
0103
0010
,  // measure 33
1000
0100
0010
0001
0000
0100
0000
0210
,  // measure 34
0000
0301
0010
0200
0000
0302
0000
0203
,  // measure 35
0000
0300
0000
1000
0100
0010
0100
0010
,  // measure 36
0000
0002
0103
1001
,  // measure 37
1000
0010
0100
0020
0000
0130
0001
0100
,  // measure 38
0000
0002
0103
0200
,  // measure 39
0302
0000
0000
0023
0000
0000
0000
0000
,  // measure 40
0000
0000
0000
0031
1000
0001
1000
0100
,  // measure 41
0010
0000
0001
0001
0001
0100
0001
0100
,  // measure 42
0000
2000
3200
0320
,  // measure 43
0032
0000
0000
0103
0001
0000
0000
0001
,  // measure 44
0010
0100
1000
1000
0000
0000
0000
0000
,  // measure 45
0001
0100
0001
0200
0000
0320
0000
1030
,  // measure 46
0000
2000
3200
0320
,  // measure 47
0032
0000
0003
1000
0001
1000
0000
0101
,  // measure 48
0000
0110
0000
1010
0000
1001
0000
0000
,  // measure 49
1000
0100
0010
0100
0000
0110
0000
0010
,  // measure 50
0002
0000
0103
0020
0000
1030
0000
0220
,  // measure 51
0000
0000
0000
0000
,  // measure 52
0330
0000
0000
1000
0010
1000
0001
0200
,  // measure 53
0000
0000
0000
0000
1300
0000
0100
0001
,  // measure 54
0000
0110
0000
1100
0000
0110
0001
0000
,  // measure 55
0020
0000
0000
0000
0000
0000
0031
2000
,  // measure 56
0000
0000
0000
0000
0000
3010
0100
0010
,  // measure 57
0200
0000
0301
1000
0000
0011
0000
0101
,  // measure 58
0000
1001
0000
2002
0000
0000
0000
0000
,  // measure 59
0000
0000
0000
0000
,  // measure 60
3003
0000
0000
0000
;

//---------------dance-single - ----------------
#NOTES:
     dance-single:
     :
     Beginner:
     2:
     0.125,0.220,0.033,0.066,0.000:
0000
0000
0000
0000
,
0000
0000
0000
0000
,
0000
0000
0000
0000
,
1000
0000
0000
0000
,
1000
0000
0000
0000
,
0010
0000
0000
0000
,
0000
0020
0000
0000
,
0000
0000
0000
0000
,
0030
0000
0000
0100
,
0100
0000
0000
0000
,
0001
0000
0000
0000
,
0001
0000
0000
0000
,
0010
0000
0000
0000
,
0100
0000
0000
0000
,
1000
0000
0000
0000
,
0000
0000
0001
0000
,
0001
0000
0000
0000
,
0100
0000
0000
0000
,
0010
0000
0000
0000
,
1000
0000
0000
0000
,
0001
0000
0000
0000
,
0001
0000
0000
0000
,
0010
0000
0000
0100
,
0000
0000
0000
0000
,
0100
0000
0000
0000
,
1000
1000
1000
0000
,
0010
0010
0010
0000
,
0100
0100
0100
0000
,
0001
0000
0001
0000
,
0002
0000
0000
0000
,
0003
0000
1000
0000
,
2000
0000
0000
0000
,
3000
0000
0000
0000
,
0000
0000
0000
0000
,
0001
0000
0000
1000
,
0000
0000
0000
0000
,
0100
0100
0000
0010
,
0000
0000
0100
0100
,
0200
0000
0000
0000
,
0300
0000
0001
0001
,
0001
0000
0000
0001
,
0001
0000
0010
0010
,
0020
0000
0030
0000
,
0100
0100
0100
0000
,
1000
0000
1000
0000
,
0001
0000
0100
0000
,
0020
0000
0030
0000
,
0000
0100
0100
0000
,
0100
0000
0000
0000
,
0001
0000
0000
0001
,
0000
0000
0000
0000
,
0001
0000
0000
0000
,
0000
0000
0010
0000
,
0000
0100
0000
0000
,
1001
0000
0000
0000
,
0010
0000
0000
0000
,
0110
0000
0000
0000
,
0000
0110
0000
0000
;

//---------------dance-single - ----------------
#NOTES:
     dance-single:
     :
     Easy:
     5:
     0.256,0.324,0.077,0.176,0.000:
0000
0000
0000
0000
,
0000
0000
0000
0000
,
0000
0000
0000
0000
,
0010
0000
0010
0000
,
0100
0000
0100
0000
,
0001
0000
0000
1000
0000
1000
0000
1000
,
0000
0000
0000
0020
0000
0000
0000
0000
,
0000
0000
0000
0000
,
0030
0000
0000
0100
,
0100
0000
0000
0000
,
0001
0001
0000
0000
,
0000
0000
0000
0000
,
0010
0010
0000
0100
,
0100
0000
0000
1000
,
2000
0000
0000
3000
0001
0000
0000
0000
,
0000
0001
0001
0001
,
0010
0000
0010
0000
,
0100
0000
0100
0000
,
1000
0000
1000
0000
,
1000
0000
0000
0010
,
0010
0100
0100
0001
,
0001
0100
0100
0001
,
0001
0010
0010
0010
,
0000
0100
0100
0000
,
1001
0001
0001
0000
,
0100
0100
0100
0000
,
0010
0010
0010
0000
,
1000
0100
0010
0000
,
0010
0010
0001
0002
,
0000
0000
0000
0000
,
1003
1000
1000
0010
,
0020
0000
0000
0000
,
0130
0000
0000
0100
0000
0100
0000
0100
,
0000
0000
0000
0010
0000
0010
0000
0010
,
0000
0000
0100
0100
,
0000
0001
0001
0001
,
2000
0000
3020
0000
,
0130
0010
0010
0100
,
0200
0000
0302
0000
,
0013
0000
0010
0010
,
0011
0001
0001
0001
,
1000
0010
0010
0100
,
0200
0000
0320
0000
,
1030
0100
0010
0001
,
0001
0001
0100
0100
,
0001
1000
0100
1000
,
0020
0000
0000
0000
2030
0000
0000
3100
,
0000
0010
0000
0010
0000
0000
0000
0000
,
0010
0000
0000
0010
0000
0010
0000
0000
,
0001
0000
0000
0001
0000
0001
0000
0001
,
0000
0000
0010
0000
,
0010
0000
0100
0100
,
0000
0000
0000
0000
0010
0000
0000
1001
,
0000
1001
0000
1001
0000
0000
0000
0000
,
0020
0000
0000
0032
,
0000
0000
0000
1003
,
1001
0000
0000
0010
0000
0010
0000
1000
,
0000
0001
0000
0220
0000
0000
0000
0000
,
0000
0000
0000
0000
,
0330
0000
0000
0000
;
