#TITLE:海色 (Indonesian ver.);
#SUBTITLE:艦隊これくしょん -艦これ- OP;
#ARTIST:fleurishana;
#TITLETRANSLIT:Miiro (Indonesian ver.);
#SUBTITLETRANSLIT:Kantai Collection -KanColle- OP;
#ARTISTTRANSLIT:fleurishana;
#GENRE:KANMUSU ROCK;
#CREDIT:;
#BANNER:Miiro (Indonesian ver.).png;
#BACKGROUND:Miiro (Indonesian ver.)-bg.png;
#LYRICSPATH:;
#CDTITLE:cdtitle.png;
#MUSIC:Miiro (Indonesian ver.).mp3;
#METERTYPE:DDR X;
#MENUCOLOR:0,0,1,1;
#OFFSET:-0.467;
#SAMPLESTART:54.877;
#SAMPLELENGTH:12.000;
#DISPLAYBPM:98:380;
#BPMS:0.000=390.000,104.000=195.000,136.000=390.000,200.000=97.500,216.000=389.998,272.000=194.999,276.000=389.998,427.000=194.999,431.000=389.998;
#STOPS:;
#BGCHANGES:;

//---------------dance-single - ----------------
#NOTES:
     dance-single:
     :
     Beginner:
     3:
     0.122,0.334,0.000,0.054,0.000: // measure 1
0000
0000
0000
0000
,  // measure 2
0000
0000
0000
0000
,  // measure 3
0000
0000
0000
0000
,  // measure 4
0000
0000
0000
0000
,  // measure 5
0000
0000
0000
0000
,  // measure 6
0000
0000
0000
0000
,  // measure 7
0000
0000
0000
0000
,  // measure 8
0000
0000
0000
0000
,  // measure 9
0000
0000
0000
0000
,  // measure 10
0000
0000
0000
0000
,  // measure 11
0000
0000
0000
0000
,  // measure 12
0000
0000
0000
0000
,  // measure 13
0000
0000
0000
0000
,  // measure 14
0000
0000
0000
0000
,  // measure 15
0000
0000
0000
0000
,  // measure 16
0000
0000
0000
0000
,  // measure 17
0000
0000
0000
0000
,  // measure 18
0000
0000
0000
0000
,  // measure 19
0000
0000
0000
0000
,  // measure 20
0000
0000
0000
0000
,  // measure 21
0000
0000
0000
0000
,  // measure 22
0000
0000
0000
0000
,  // measure 23
0000
0000
0000
0000
,  // measure 24
0000
0000
0000
0000
,  // measure 25
0000
0000
0000
0000
,  // measure 26
0000
0000
0000
0000
,  // measure 27
0001
0000
0000
0000
,  // measure 28
0000
0000
0000
0000
,  // measure 29
0100
0000
0000
0000
,  // measure 30
0000
0000
0000
0000
,  // measure 31
0001
0000
0000
0000
,  // measure 32
0000
0000
0000
0000
,  // measure 33
1000
0000
0000
0000
,  // measure 34
0010
0000
0000
0000
,  // measure 35
0100
0000
0000
0000
,  // measure 36
0000
0000
0000
0000
,  // measure 37
0100
0000
0000
0000
,  // measure 38
0000
0000
0000
0000
,  // measure 39
0100
0000
0000
0000
,  // measure 40
0000
0000
0000
0000
,  // measure 41
0000
0000
0000
0000
,  // measure 42
0000
0000
0000
0000
,  // measure 43
0001
0000
0000
0000
,  // measure 44
0000
0000
0000
0000
,  // measure 45
0001
0000
0000
0000
,  // measure 46
0000
0000
0000
0000
,  // measure 47
0001
0000
0000
0000
,  // measure 48
0000
0000
0000
0000
,  // measure 49
0000
0000
0000
0000
,  // measure 50
0000
0000
0000
0000
,  // measure 51
2000
0000
0000
0000
,  // measure 52
3200
0000
0000
0000
,  // measure 53
0320
0000
0000
0000
,  // measure 54
0032
0000
0000
0000
,  // measure 55
1003
0000
0000
0000
,  // measure 56
0000
0000
0000
0000
,  // measure 57
1000
0000
0000
0000
,  // measure 58
0000
0000
0000
0000
,  // measure 59
0100
0000
0000
0000
,  // measure 60
0000
0000
0000
0000
,  // measure 61
0100
0000
0000
0000
,  // measure 62
0000
0000
0000
0000
,  // measure 63
1000
0000
0000
0000
,  // measure 64
1000
0000
0000
0000
,  // measure 65
1000
0000
0000
0000
,  // measure 66
0000
0000
0000
0000
,  // measure 67
0001
0000
0000
0000
,  // measure 68
0001
0000
0000
0000
,  // measure 69
0001
0000
0000
0000
,  // measure 70
0100
0000
0000
0000
,  // measure 71
0100
0000
0000
0000
,  // measure 72
0100
0000
0000
0000
,  // measure 73
0010
0000
0000
0000
,  // measure 74
0010
0000
0000
0000
,  // measure 75
0010
0000
0000
0000
,  // measure 76
0100
0000
0000
0000
,  // measure 77
0000
0000
0000
0000
,  // measure 78
0001
0000
0000
0000
,  // measure 79
0001
0000
0000
0000
,  // measure 80
1000
0000
0000
0000
,  // measure 81
1000
0000
0000
0000
,  // measure 82
0001
0000
0000
0000
,  // measure 83
0000
0000
0000
0000
,  // measure 84
1000
0000
0000
0000
,  // measure 85
0000
0000
0000
0000
,  // measure 86
0010
0000
0000
0000
,  // measure 87
0010
0000
0000
0000
,  // measure 88
0100
0000
0000
0000
,  // measure 89
0100
0000
0000
0000
,  // measure 90
0010
0000
0000
0000
,  // measure 91
0010
0000
0000
0000
,  // measure 92
1000
0000
0000
0000
,  // measure 93
1000
0000
0000
0000
,  // measure 94
0100
0000
0000
0000
,  // measure 95
0100
0000
0000
0000
,  // measure 96
1000
0000
0000
0000
,  // measure 97
1000
0000
0000
0000
,  // measure 98
0001
0000
0000
0000
,  // measure 99
0001
0000
0000
0000
,  // measure 100
0010
0000
0000
0000
,  // measure 101
0010
0000
0000
0000
,  // measure 102
0001
0000
0000
0000
,  // measure 103
1000
0000
0000
0000
,  // measure 104
0001
0000
0000
0000
,  // measure 105
0100
0000
0000
0000
,  // measure 106
0020
0000
0000
0000
,  // measure 107
0000
0000
0000
0000
0000
0000
0000
0130
,  // measure 108
0000
0000
0000
0000
,  // measure 109
0000
0000
0000
0000
,  // measure 110
0100
0000
0000
0000
,  // measure 111
0100
0000
0000
0000
,  // measure 112
0100
0000
0000
0000
,  // measure 113
0100
0000
0000
0000
,  // measure 114
0010
0000
0000
0000
,  // measure 115
0010
0000
0000
0000
,  // measure 116
1000
0000
0000
0000
,  // measure 117
0001
0000
0000
0000
,  // measure 118
1000
0000
0000
0000
,  // measure 119
0010
0000
0000
0000
,  // measure 120
0010
0000
0000
0000
,  // measure 121
0010
0000
0000
0000
,  // measure 122
0000
0000
0000
0000
,  // measure 123
1000
0000
0000
0000
,  // measure 124
0001
0000
0000
0000
;

//---------------dance-single - ----------------
#NOTES:
     dance-single:
     :
     Easy:
     6:
     0.285,0.467,0.011,0.043,0.000: // measure 1
0000
0000
0000
0000
,  // measure 2
0000
0000
0000
0000
,  // measure 3
0000
0000
0000
0000
,  // measure 4
0000
0000
0000
0000
,  // measure 5
0000
0000
0000
0000
,  // measure 6
0000
0000
0000
0000
,  // measure 7
0000
0000
0000
0000
,  // measure 8
0000
0000
0000
0000
,  // measure 9
0000
0000
0000
0000
,  // measure 10
0000
0000
0000
0000
,  // measure 11
0000
0000
0000
0000
,  // measure 12
0000
0000
0000
0000
,  // measure 13
0000
0000
0000
0000
,  // measure 14
0000
0000
0000
0000
,  // measure 15
0000
0000
0000
0000
,  // measure 16
0000
0000
0000
0000
,  // measure 17
0000
0000
0000
0000
,  // measure 18
0000
0000
0000
0000
,  // measure 19
0000
0000
0000
0000
,  // measure 20
0000
0000
0000
0000
,  // measure 21
0000
0000
0000
0000
,  // measure 22
0000
0000
0000
0000
,  // measure 23
0000
0000
0000
0000
,  // measure 24
0000
0000
0000
0000
,  // measure 25
0000
0000
0000
0000
,  // measure 26
0000
0000
0000
0000
,  // measure 27
1000
0100
1000
0100
,  // measure 28
0010
0000
0000
0000
,  // measure 29
0001
0010
0001
0010
,  // measure 30
0100
0000
0000
0000
,  // measure 31
1000
0001
1000
0000
,  // measure 32
0001
1000
0001
0000
,  // measure 33
0100
0010
0100
0000
,  // measure 34
0010
0000
0100
0000
,  // measure 35
0010
0000
1000
0000
,  // measure 36
0100
0000
1000
0000
,  // measure 37
0100
0000
1000
0000
,  // measure 38
0100
0000
1000
0000
,  // measure 39
0010
0000
1000
0000
,  // measure 40
0010
0000
1000
0000
,  // measure 41
0010
0000
0000
0000
,  // measure 42
0100
0000
0100
0000
,  // measure 43
0100
0000
0000
0000
,  // measure 44
0001
0000
0001
0000
,  // measure 45
0001
0000
0000
0000
,  // measure 46
0010
0000
0010
0000
,  // measure 47
0010
0000
0000
0000
,  // measure 48
0100
0000
0100
0000
,  // measure 49
0100
0000
0000
0000
,  // measure 50
1000
0000
1000
0000
,  // measure 51
2000
0000
0001
0000
,  // measure 52
0010
0000
0001
0000
,  // measure 53
3002
0000
0100
0000
,  // measure 54
1000
0000
0100
1000
,  // measure 55
1003
0000
0100
0000
,  // measure 56
0010
0000
0000
0000
,  // measure 57
0010
0000
0001
0000
,  // measure 58
0010
0000
0000
0000
,  // measure 59
0100
0000
1000
0000
,  // measure 60
0100
0000
0000
0000
,  // measure 61
0100
0000
1000
0000
,  // measure 62
0100
0000
0010
0000
,  // measure 63
0100
0000
1000
0000
,  // measure 64
0010
0000
1000
0000
,  // measure 65
0010
0000
0100
0000
,  // measure 66
0001
0000
0100
0000
,  // measure 67
0001
0000
0010
0000
,  // measure 68
0100
0000
1000
0000
,  // measure 69
1000
0000
0000
0000
,  // measure 70
1000
0000
1000
0000
,  // measure 71
0010
0000
0010
0000
,  // measure 72
0100
0000
0100
0000
,  // measure 73
0001
0000
0010
0000
,  // measure 74
0100
0000
1000
0000
,  // measure 75
0100
0000
0010
0000
,  // measure 76
0002
0000
0000
0000
,  // measure 77
1000
0000
1000
0000
,  // measure 78
1003
0000
0100
0000
,  // measure 79
0010
0000
0001
0000
,  // measure 80
0010
0000
0100
0000
,  // measure 81
1000
0000
0000
0000
,  // measure 82
1000
0000
0010
0000
,  // measure 83
1000
0000
0000
0000
,  // measure 84
0001
0000
0100
0000
,  // measure 85
0001
0000
0000
0000
,  // measure 86
1000
0000
0010
0000
,  // measure 87
0100
0000
0010
0000
,  // measure 88
0001
0000
0010
0000
,  // measure 89
0100
0000
0010
0000
,  // measure 90
0100
0000
1000
0000
,  // measure 91
0100
0000
0010
0000
,  // measure 92
0100
0000
0001
0000
,  // measure 93
0010
0000
0100
0000
,  // measure 94
1000
0000
1000
0000
,  // measure 95
1000
0000
0001
0000
,  // measure 96
0001
0000
0100
0000
,  // measure 97
0100
0000
0000
0000
,  // measure 98
0010
0000
0010
0000
,  // measure 99
0010
0000
0000
0000
,  // measure 100
0100
0000
0100
0000
,  // measure 101
0100
0000
0000
0000
,  // measure 102
0001
0000
0010
0000
,  // measure 103
0001
0000
0000
0000
,  // measure 104
0001
0000
0100
0000
,  // measure 105
0001
0000
0000
0000
,  // measure 106
1000
0000
0100
0000
,  // measure 107
1000
0000
0000
0000
0000
0000
0000
2000
,  // measure 108
0000
0000
0000
3001
0000
0000
0000
0000
,  // measure 109
0001
0000
0100
0000
,  // measure 110
0001
0000
0100
0000
,  // measure 111
0001
0000
0010
0000
,  // measure 112
0001
0000
0010
0000
,  // measure 113
0001
0000
1000
0000
,  // measure 114
0010
0000
1000
0000
,  // measure 115
0001
0000
1000
0000
,  // measure 116
0100
0000
0010
0000
,  // measure 117
0001
0000
0100
0000
,  // measure 118
0010
0000
1000
0000
,  // measure 119
0010
0000
0100
0000
,  // measure 120
0010
0000
0000
0000
,  // measure 121
0100
0000
0100
0000
,  // measure 122
0100
0000
0000
0000
,  // measure 123
0010
0000
0000
0000
,  // measure 124
0110
0000
0000
0000
;

//---------------dance-single - ----------------
#NOTES:
     dance-single:
     :
     Medium:
     10:
     0.516,1.000,0.315,0.195,0.038: // measure 1
0000
0000
0000
0000
,  // measure 2
0000
0000
0000
0000
,  // measure 3
0000
0000
0000
0000
,  // measure 4
0000
0000
0000
0000
,  // measure 5
0000
0000
0000
0000
,  // measure 6
0000
0000
0000
0000
,  // measure 7
0000
0000
0000
0000
,  // measure 8
0000
0000
0000
0000
,  // measure 9
0000
0000
0000
0000
,  // measure 10
0000
0000
0000
1001
,  // measure 11
0000
0000
0001
0000
,  // measure 12
0100
0010
0100
0000
,  // measure 13
0001
1000
0001
1000
,  // measure 14
0000
1010
0000
0101
,  // measure 15
0000
1000
0100
0000
,  // measure 16
0010
1000
0010
0000
,  // measure 17
0100
1000
0010
1000
,  // measure 18
0000
1100
0000
0011
,  // measure 19
0000
1000
0001
0000
,  // measure 20
0100
0010
0100
0000
,  // measure 21
0001
0010
0100
0010
,  // measure 22
0000
0110
0000
1001
,  // measure 23
0000
0001
0010
0000
,  // measure 24
0100
0010
0000
0001
,  // measure 25
1000
0000
1100
0000
,  // measure 26
0010
0100
0000
0000
,  // measure 27
0001
0000
0100
0010
0000
0100
0000
0020
,  // measure 28
0000
0000
0000
0030
0000
0000
1000
0001
,  // measure 29
1000
0000
0010
0100
0000
0010
0000
0100
,  // measure 30
0000
0020
0000
0000
0000
0000
1030
0001
,  // measure 31
0000
0000
1000
0000
0100
0000
0010
0001
,  // measure 32
0000
1000
0000
0100
0000
0000
0001
1000
,  // measure 33
0000
0010
0000
0100
0000
0000
1000
0001
,  // measure 34
0000
0010
0000
0100
0000
0010
0100
0010
,  // measure 35
0000
0000
0001
0000
,  // measure 36
0100
0000
0010
0100
,  // measure 37
0000
0010
0000
1000
,  // measure 38
0000
0100
0000
0010
,  // measure 39
0000
0002
0000
0203
,  // measure 40
0000
0320
0000
1030
,  // measure 41
0000
0000
0000
0000
,  // measure 42
0002
0000
0000
0000
,  // measure 43
0203
0000
0000
0000
,  // measure 44
0310
0000
0000
0000
,  // measure 45
0020
0000
0000
0000
,  // measure 46
2030
0000
0000
0000
,  // measure 47
3002
0000
0000
0000
,  // measure 48
0000
0000
0000
0100
,  // measure 49
0003
0001
0000
0100
,  // measure 50
0000
0001
0100
0000
,  // measure 51
2001
0000
0000
0000
3010
0000
0100
0000
0020
0000
0000
0000
0000
0000
0000
0030
,  // measure 52
0200
0000
0000
0000
0000
0000
0000
0000
0301
0000
0000
0010
0000
0000
0001
0000
,  // measure 53
1000
0000
0010
0000
0010
0000
0100
0000
0020
0000
0000
0100
0000
0000
0100
0000
,  // measure 54
0230
0000
0000
0001
0000
0000
0001
0000
0301
0000
0000
0011
0000
0000
1001
0000
,  // measure 55
1000
0100
1000
0100
,  // measure 56
1000
0000
0000
0001
,  // measure 57
0010
0001
0010
0000
,  // measure 58
0000
0110
0000
0110
,  // measure 59
0000
0100
0001
0100
,  // measure 60
0001
0000
0000
1000
,  // measure 61
0010
1000
0010
0000
,  // measure 62
1000
0001
0000
0001
,  // measure 63
1000
0000
0100
0000
,  // measure 64
0010
0000
0000
0010
,  // measure 65
0100
0010
0100
0000
,  // measure 66
1000
0001
0000
0000
,  // measure 67
1000
0000
0100
0000
,  // measure 68
1000
0100
0010
0001
,  // measure 69
0000
0000
0000
0000
0000
0000
0000
0000
0000
0010
0000
0000
0000
0000
0000
0000
0000
0000
0000
0000
0001
0000
0000
0000
0000
0000
0010
0000
0000
0000
0000
0000
0000
0000
0000
0000
0000
0000
0000
0000
0000
0000
0000
0000
0000
0000
0000
0000
,  // measure 70
0110
0000
0100
0010
,  // measure 71
0000
1000
0000
0010
,  // measure 72
0000
0001
0000
1000
,  // measure 73
0001
0000
1100
0000
,  // measure 74
0110
0000
1000
0100
,  // measure 75
0000
0010
0001
0200
,  // measure 76
0000
0000
0000
0000
,  // measure 77
0310
0000
0010
0000
,  // measure 78
0000
1000
0010
0100
,  // measure 79
0010
0000
0001
0010
,  // measure 80
0100
0000
0100
0001
,  // measure 81
0000
0000
0000
1000
,  // measure 82
0000
0010
0100
0000
,  // measure 83
0101
0000
0001
0010
,  // measure 84
0100
0000
1100
0000
,  // measure 85
1000
0001
0000
1000
,  // measure 86
0001
0000
0010
0100
,  // measure 87
0000
1000
0000
0010
,  // measure 88
0000
0100
0000
0010
,  // measure 89
1000
0000
0110
0000
,  // measure 90
0011
0000
0100
0010
,  // measure 91
0000
1000
0100
0020
,  // measure 92
0000
0000
0000
0000
,  // measure 93
0130
0000
0001
0000
,  // measure 94
0000
1000
0010
0001
,  // measure 95
1000
0000
0100
0000
,  // measure 96
0010
0000
0010
0001
,  // measure 97
0000
0000
0000
0100
,  // measure 98
0000
0010
0100
0000
,  // measure 99
0110
0000
1000
0100
,  // measure 100
0010
0000
1001
0000
,  // measure 101
0100
0001
0000
0000
,  // measure 102
0000
0000
1000
0000
,  // measure 103
0100
0000
0010
0002
,  // measure 104
0010
0000
0000
0100
,  // measure 105
0003
0000
0001
0000
,  // measure 106
1000
0100
0010
0001
,  // measure 107
0100
0000
0001
0100
,  // measure 108
0000
0000
0000
1000
0100
0000
0110
0000
,  // measure 109
0000
0000
0100
0000
,  // measure 110
0010
0100
0010
0000
,  // measure 111
1000
0001
0010
0001
,  // measure 112
0000
1100
0000
0101
,  // measure 113
0000
1000
0100
0000
,  // measure 114
0010
0001
0010
0000
,  // measure 115
0001
0100
0010
1000
,  // measure 116
0000
0100
0000
1001
,  // measure 117
0000
0000
1000
0000
,  // measure 118
0001
0100
0001
0000
,  // measure 119
1001
0000
0011
0000
,  // measure 120
0100
0010
0100
0010
,  // measure 121
0000
1000
0100
0000
,  // measure 122
0010
0000
0000
0100
,  // measure 123
0010
0000
0110
0000
,  // measure 124
1000
0001
0000
0000
;

//---------------dance-single - ----------------
#NOTES:
     dance-single:
     :
     Hard:
     12:
     0.702,1.000,1.000,0.152,0.071: // measure 1
0000
0000
0000
0000
,  // measure 2
0000
0000
0000
0000
,  // measure 3
0000
0000
0000
0000
,  // measure 4
0000
0000
0000
0000
,  // measure 5
0000
0000
0000
0000
,  // measure 6
0000
0000
0000
0000
,  // measure 7
0000
0000
0000
0000
,  // measure 8
0000
0000
0000
0000
,  // measure 9
0000
0000
0000
0000
,  // measure 10
0000
0000
0000
0011
,  // measure 11
0000
1010
0010
0000
,  // measure 12
0011
0010
0001
0000
,  // measure 13
1100
1000
0100
1000
,  // measure 14
0000
0101
0000
1100
,  // measure 15
0000
0110
0010
0000
,  // measure 16
1001
1000
0001
0000
,  // measure 17
0011
0010
0100
1000
,  // measure 18
0000
0101
0000
0110
,  // measure 19
0000
1100
0010
0000
,  // measure 20
0011
0100
0001
0000
,  // measure 21
1100
0001
1000
0001
,  // measure 22
0000
0110
0000
0001
,  // measure 23
0011
0000
1001
0000
,  // measure 24
1000
1100
0000
1001
,  // measure 25
0001
0000
0110
0000
,  // measure 26
1100
0001
1000
0000
,  // measure 27
1000
0000
0100
0010
0000
0001
1000
0020
,  // measure 28
0000
0000
0000
0030
0000
0000
0001
0010
,  // measure 29
0100
0000
0001
1000
0000
0100
0000
0010
,  // measure 30
0000
2000
0000
0001
3000
0000
0100
0010
,  // measure 31
0000
0000
0020
0000
0130
0000
0001
0100
,  // measure 32
0000
0010
0000
2000
0000
0000
3001
0010
,  // measure 33
0000
0100
0000
0020
0000
0000
1030
0010
,  // measure 34
0000
0100
0000
1000
0000
0010
0100
0100
,  // measure 35
0101
0000
1000
0000
,  // measure 36
0100
0001
1000
0000
,  // measure 37
1001
0000
0110
0000
,  // measure 38
0010
1000
0001
0000
,  // measure 39
1001
0000
0101
0000
,  // measure 40
1000
0001
1000
0100
,  // measure 41
0000
0010
0001
0000
,  // measure 42
0100
0001
1000
0000
,  // measure 43
1100
0000
0011
0000
,  // measure 44
1000
0001
0010
0000
,  // measure 45
1001
0000
0101
0000
,  // measure 46
0001
1000
0010
0000
,  // measure 47
0110
0000
1010
0000
,  // measure 48
0100
0010
0100
0010
,  // measure 49
0000
0100
0000
0010
,  // measure 50
0001
0010
1000
0000
,  // measure 51
2000
0000
0000
0000
0010
0000
0001
0000
0010
0000
0000
0001
0000
0000
0100
0000
,  // measure 52
3002
0000
0000
0100
0000
0000
1000
0000
0010
0000
0000
1000
0000
0000
1000
0000
,  // measure 53
0203
0000
0010
0000
0001
0000
0010
0000
1000
0000
0000
0010
0000
0000
0001
0000
,  // measure 54
0320
0000
0000
0001
0000
0000
1030
0000
1100
0000
0000
0011
0000
0000
0100
0000
,  // measure 55
1000
0100
1000
0100
,  // measure 56
0110
0000
0000
0010
,  // measure 57
0001
0010
0110
0000
,  // measure 58
0100
0110
0000
0110
,  // measure 59
0000
1000
0010
1000
,  // measure 60
0110
0000
0000
0100
,  // measure 61
0001
0100
1001
0000
,  // measure 62
0010
0001
0000
0001
,  // measure 63
1001
0100
0110
0000
,  // measure 64
1010
0000
0001
0101
,  // measure 65
0000
0101
0001
0000
,  // measure 66
0010
1010
0100
0001
,  // measure 67
1100
0100
0010
0001
,  // measure 68
0100
0000
0010
0000
0100
1000
0100
1000
,  // measure 69
0000
0000
0000
0000
0000
0000
0000
0000
0000
0010
0000
0000
0000
0000
0000
0000
0000
0000
0000
0000
0100
0000
0000
0000
0000
0000
0010
0000
0000
0000
0000
0000
0000
0000
0000
0000
0000
0000
0000
0000
0000
0000
0000
0000
0000
0000
0000
0000
,  // measure 70
1001
0000
0110
0100
,  // measure 71
0000
0100
0100
0110
,  // measure 72
0000
0100
0000
1000
,  // measure 73
0010
0000
0000
0000
1000
0000
0000
0000
0001
0000
0000
0000
,  // measure 74
0110
0000
1000
0010
,  // measure 75
0000
0001
0010
0002
,  // measure 76
0000
0000
0000
0000
,  // measure 77
1003
1000
0101
0000
,  // measure 78
1000
0001
0010
1000
,  // measure 79
1010
0000
1000
0010
,  // measure 80
0011
0000
1000
0001
,  // measure 81
0000
0100
0010
0110
,  // measure 82
0000
1000
1100
0000
,  // measure 83
1001
0000
0001
1000
,  // measure 84
1100
0000
0011
0000
,  // measure 85
0110
0110
0000
1000
,  // measure 86
0011
0000
1010
0010
,  // measure 87
0000
0010
0010
1010
,  // measure 88
0000
1000
0000
0001
,  // measure 89
0010
0000
0000
0000
1000
0000
0000
0000
0010
0000
0000
0000
,  // measure 90
1001
0000
1000
0010
,  // measure 91
0000
0100
0001
0200
,  // measure 92
0000
0000
0000
0000
,  // measure 93
0301
0001
1001
0000
,  // measure 94
0001
1000
0010
1000
,  // measure 95
1010
0000
0001
0010
,  // measure 96
0011
0000
0001
0100
,  // measure 97
0000
1000
0010
1001
,  // measure 98
0000
0001
1001
0000
,  // measure 99
0110
0000
0010
0010
,  // measure 100
0110
0000
0110
0000
,  // measure 101
0101
0101
0000
1001
,  // measure 102
0000
0000
2001
0000
,  // measure 103
3200
0000
0310
0002
,  // measure 104
0010
0000
0000
1000
,  // measure 105
0003
0000
0100
0000
,  // measure 106
1000
1000
1000
0100
,  // measure 107
0100
0000
0100
0000
0010
0000
0010
0001
,  // measure 108
0010
0100
0000
0100
0010
0000
0011
0000
,  // measure 109
0000
0110
0010
0000
,  // measure 110
0010
0001
0011
0000
,  // measure 111
0110
0010
0100
0010
,  // measure 112
0000
0100
1000
1100
,  // measure 113
0000
0100
0110
0000
,  // measure 114
0011
0001
0010
0000
,  // measure 115
1000
0010
0001
0010
,  // measure 116
0000
0001
1000
0110
,  // measure 117
0000
1000
0110
0000
,  // measure 118
0001
0100
1001
0000
,  // measure 119
0001
0010
0100
1000
,  // measure 120
0100
0010
0001
1000
,  // measure 121
0100
0000
1100
0000
,  // measure 122
0011
0000
0010
0110
,  // measure 123
0000
0100
0110
0000
,  // measure 124
1100
1001
0000
0000
;

//---------------dance-single - ----------------
#NOTES:
     dance-single:
     :
     Challenge:
     17:
     1.000,1.000,1.000,0.152,0.103: // measure 1
0000
0000
0000
0000
,  // measure 2
0000
0000
0000
0000
,  // measure 3
0000
0000
0000
0000
,  // measure 4
0000
0000
0000
0000
,  // measure 5
0000
0000
0000
0000
,  // measure 6
0000
0000
0000
0000
,  // measure 7
0000
0000
0000
0000
,  // measure 8
0000
0000
0000
0000
,  // measure 9
0000
0000
0000
0000
,  // measure 10
0000
0000
0000
0110
,  // measure 11
0000
1010
0100
0000
,  // measure 12
0011
0100
0001
0000
,  // measure 13
1100
0010
0100
0011
,  // measure 14
0000
0101
0010
1100
,  // measure 15
0000
0110
0001
0000
,  // measure 16
0110
1000
1100
0000
,  // measure 17
0011
0001
0010
0110
,  // measure 18
0000
0100
1000
1100
,  // measure 19
0000
0010
0110
0000
,  // measure 20
0011
1000
0101
0000
,  // measure 21
1100
0001
0010
0100
,  // measure 22
0000
1010
0000
1001
,  // measure 23
0011
0000
1001
0000
,  // measure 24
0110
1010
0000
0101
,  // measure 25
1001
0000
0110
0000
,  // measure 26
1100
1001
1000
0000
,  // measure 27
1000
0100
1000
0100
0010
1000
0010
0100
,  // measure 28
1000
0010
1000
0001
0010
0001
0100
0010
,  // measure 29
1000
0100
0001
0100
1000
0010
0001
0010
,  // measure 30
1000
0010
0100
0001
0010
0001
0100
0010
,  // measure 31
0100
0001
0010
0100
0010
0001
0100
1000
,  // measure 32
0100
0010
1000
0001
0100
0010
0100
0001
,  // measure 33
1000
0010
0100
0010
1000
0001
0010
0001
,  // measure 34
1100
0000
0110
0000
0011
0000
1010
0000
0101
0000
0011
0000
,  // measure 35
1001
0000
0011
0000
,  // measure 36
1010
0100
1100
0100
,  // measure 37
0000
1000
0110
0100
,  // measure 38
0001
1000
0110
0010
,  // measure 39
0101
0100
0011
1000
,  // measure 40
1001
0101
0010
1100
,  // measure 41
0000
0101
0011
0000
,  // measure 42
2001
0100
3010
0000
,  // measure 43
0110
0000
1010
0000
,  // measure 44
0101
0010
0110
0000
,  // measure 45
1001
0000
0110
0000
,  // measure 46
0101
0010
1100
0000
,  // measure 47
1010
0000
1001
0000
,  // measure 48
0101
0000
0010
1000
0001
0000
1000
0000
,  // measure 49
0000
0011
0000
1010
,  // measure 50
0001
0000
1000
0010
1000
0001
1000
0100
,  // measure 51
2000
0000
0000
0000
0010
0000
3002
0000
0020
0000
0003
0002
0000
0030
0010
0000
,  // measure 52
2003
0000
0000
0100
0000
0000
3020
0000
1000
0000
0000
2000
0000
0030
0001
0000
,  // measure 53
3200
0000
0010
0000
0001
0000
0010
0000
2000
0000
0300
3002
0000
0000
1000
0000
,  // measure 54
0023
0000
0000
0001
0000
0000
0130
0000
1100
0000
0000
0011
0000
0000
0100
0000
,  // measure 55
1010
1000
1000
1000
,  // measure 56
1100
0000
0000
0110
,  // measure 57
0010
0010
0011
0000
,  // measure 58
0100
0110
0100
0110
,  // measure 59
0000
0011
0001
0001
,  // measure 60
1001
0000
0000
0100
,  // measure 61
0100
0100
0110
0000
,  // measure 62
0010
1001
0000
0001
,  // measure 63
1001
0100
0110
0001
,  // measure 64
1010
1000
1000
0101
,  // measure 65
0001
0101
0001
0100
,  // measure 66
0010
1010
0100
0001
,  // measure 67
1100
0000
0100
1000
0010
0000
0001
0010
,  // measure 68
0100
0000
0010
1000
0100
0001
0100
1000
,  // measure 69
0000
0000
0000
0000
0000
0000
0000
0000
0000
0010
0000
0000
0000
0000
0000
0000
0000
0000
0000
0000
0010
0000
0000
0000
0000
0000
0010
0000
0000
0000
0000
0000
0000
0000
0000
0000
0000
0000
0000
0000
0000
0000
0000
0000
0000
0000
0000
0000
,  // measure 70
1010
0000
0001
0000
0100
0001
1000
0000
,  // measure 71
1000
0001
0010
0100
0010
1000
0010
0000
,  // measure 72
0001
0010
0100
0000
0001
0100
1000
0001
,  // measure 73
0010
0000
0000
0100
1000
0000
0000
0001
0010
0000
0000
0000
,  // measure 74
0110
0000
0010
0000
0100
1000
0001
0000
,  // measure 75
0010
0000
0001
1000
0010
0100
0001
0000
,  // measure 76
1000
0100
0001
0100
,  // measure 77
1100
0000
0011
0000
1001
0000
1000
0100
,  // measure 78
1000
0000
0010
0001
0010
0000
1010
0000
,  // measure 79
0110
0000
0001
0000
1000
0100
0010
0100
,  // measure 80
0010
0000
0010
0001
0010
0001
0100
0000
,  // measure 81
1000
0000
0100
0001
0010
0000
1100
0000
,  // measure 82
0000
0110
0011
0000
,  // measure 83
1010
0000
0101
1010
,  // measure 84
0011
0000
0011
0000
,  // measure 85
1001
0000
0010
1000
0010
0000
1000
0100
,  // measure 86
1000
0000
1000
0000
0010
1000
0010
0000
,  // measure 87
0100
0001
0100
0001
1000
0010
0100
0000
,  // measure 88
0001
0010
0001
0000
1000
0100
1000
0100
,  // measure 89
1000
0000
0000
0000
0000
0000
0100
0000
1000
0000
0000
0000
0000
0000
0001
0000
0010
0000
0001
0000
0000
0100
0000
0000
,  // measure 90
0010
0000
0010
0000
0100
0001
0100
0000
,  // measure 91
0001
0000
1000
0010
0100
0010
1000
0000
,  // measure 92
0001
0100
0001
0010
,  // measure 93
1100
0000
0001
0100
0010
0000
0100
0010
,  // measure 94
1000
0000
0100
1000
0001
0000
1100
0000
,  // measure 95
0011
0000
0010
0000
1000
0100
0010
0100
,  // measure 96
0010
0000
0100
0010
0100
0010
0001
0000
,  // measure 97
1000
0000
0100
0001
0010
0000
1100
0000
,  // measure 98
0000
0110
1100
0000
,  // measure 99
1100
0000
0110
1010
,  // measure 100
0011
0000
0011
0000
,  // measure 101
0110
0000
0100
1000
0001
0000
1001
0000
,  // measure 102
0001
0000
2001
0000
,  // measure 103
3100
0000
0011
0001
,  // measure 104
0012
0000
0000
1000
,  // measure 105
0000
0000
0100
0000
,  // measure 106
1003
1100
1100
0100
,  // measure 107
0110
0000
0110
0000
0010
0000
0011
0011
,  // measure 108
0010
0100
1000
0110
1001
0000
1010
0000
,  // measure 109
0000
0000
0100
1000
0100
0000
1000
0000
,  // measure 110
0010
0100
0001
0100
0010
0000
0100
0000
,  // measure 111
0001
1000
0010
0001
0010
1000
0001
0000
,  // measure 112
0100
0000
0010
0100
0010
0000
1001
0000
,  // measure 113
0001
0000
0010
0001
0010
0000
0100
0000
,  // measure 114
0010
0100
0010
0100
1000
0000
0011
0000
,  // measure 115
0001
0100
0001
0000
1000
0000
1000
0010
,  // measure 116
0100
0001
0010
0000
1100
0000
0011
0000
,  // measure 117
0001
1000
0001
0000
1000
0000
1000
0100
,  // measure 118
0010
0001
1000
0000
0001
0000
1001
0000
,  // measure 119
0001
0011
0010
0110
,  // measure 120
0100
1100
1000
1001
,  // measure 121
0001
0000
1100
0000
,  // measure 122
1100
0000
1010
0110
,  // measure 123
0000
0011
0110
0000
,  // measure 124
0110
1100
0000
0000
;
