#TITLE:吹雪 (Indonesian ver.);
#SUBTITLE:艦隊これくしょん -艦これ- ED;
#ARTIST:fleurishana;
#TITLETRANSLIT:Fubuki (Indonesian ver.);
#SUBTITLETRANSLIT:Kantai Collection -KanColle- ED;
#ARTISTTRANSLIT:fleurishana;
#CREDIT:;
#GENRE:KANMUSU ROCK 2;
#BANNER:Fubuki (Indonesian ver.).png;
#BACKGROUND:Fubuki (Indonesian ver.)-bg.png;
#LYRICSPATH:;
#CDTITLE:cdtitle.png;
#MUSIC:Fubuki (Indonesian ver.).mp3;
#METERTYPE:DDR X;
#MENUCOLOR:0,0,1,1;
#OFFSET:-1.001;
#SAMPLESTART:60.232;
#SAMPLELENGTH:12.000;
#SELECTABLE:YES;
#BPMS:0.000=180,44.000=360,236.000=180,252.000=360,294.000=90,295.000=180,296.000=360;
#STOPS:396.000=0.167
,397.000=0.167
,402.000=0.167
,403.000=0.167
;
#BGCHANGES:;

//---------------dance-single - ----------------
#NOTES:
     dance-single:
     :
     Hard:
     13:
     0.651,1.000,0.075,0.639,0.122: // measure 1
0000
0000
0000
0000
,  // measure 2
0000
0000
0000
0000
,  // measure 3
0000
0000
0000
0000
,  // measure 4
0000
0000
0000
0000
,  // measure 5
0000
0000
0000
0000
,  // measure 6
0200
0000
0000
0000
,  // measure 7
0320
0000
0000
0000
,  // measure 8
2030
0000
0000
0000
,  // measure 9
3002
0000
0000
0000
,  // measure 10
2003
0000
0000
0000
,  // measure 11
3001
1000
0001
1000
0001
1000
0001
1000
0010
0100
0010
0100
0010
0100
0010
0100
,  // measure 12
0001
0000
0000
0000
1000
0000
0100
0001
,  // measure 13
0200
0000
0000
0000
0310
0000
0001
1000
,  // measure 14
0002
0000
0000
0000
0013
0000
0010
0100
,  // measure 15
0010
0000
0001
0000
0200
0000
0000
0310
,  // measure 16
1000
0000
0000
0000
0001
0000
1000
0100
,  // measure 17
2000
0000
0000
0000
3001
0000
0010
0001
,  // measure 18
0200
0000
0000
0000
1300
0000
0100
0001
,  // measure 19
0100
0000
0010
0000
0002
0000
0000
1003
,  // measure 20
0100
0000
0000
0000
0010
0000
0100
1000
,  // measure 21
0200
0000
0000
0000
0310
0000
0001
0100
,  // measure 22
0002
0000
0000
0000
0203
0000
0310
2000
,  // measure 23
0010
0000
3010
0000
0100
0000
0000
0001
,  // measure 24
1000
0000
0000
0000
0010
0000
0100
1000
,  // measure 25
0200
0000
0000
0000
1300
0000
0001
0010
,  // measure 26
0002
0000
0013
0000
,  // measure 27
0100
0100
1001
0000
,  // measure 28
0010
0000
2000
0000
,  // measure 29
3001
0000
0001
0010
,  // measure 30
0200
0000
1300
0100
,  // measure 31
0200
0000
0320
0000
,  // measure 32
1030
0000
0020
0000
,  // measure 33
0032
0000
0203
0000
,  // measure 34
2300
0000
3200
0000
,  // measure 35
0310
0100
0010
0000
,  // measure 36
1000
0000
0100
0010
,  // measure 37
0110
0000
0010
0001
,  // measure 38
0101
0000
0100
0010
,  // measure 39
1010
1000
0200
0000
,  // measure 40
0310
0000
0001
0010
,  // measure 41
1000
0000
1000
0010
,  // measure 42
0001
0000
1000
0100
,  // measure 43
0001
0001
0200
0000
,  // measure 44
1300
0000
0200
0000
,  // measure 45
1300
0010
0100
0010
,  // measure 46
2000
0000
3100
0010
,  // measure 47
0100
0000
0020
0000
,  // measure 48
0031
0000
2000
0000
,  // measure 49
3200
0000
0320
0000
,  // measure 50
0230
0000
0301
0000
,  // measure 51
0100
0010
0100
0000
,  // measure 52
2000
0000
3001
0010
,  // measure 53
0200
0000
0310
0001
,  // measure 54
0020
0000
0130
0010
,  // measure 55
0100
0001
0200
0000
,  // measure 56
1300
0000
0100
0010
,  // measure 57
0200
0000
0310
1000
,  // measure 58
0002
0000
0203
0000
,  // measure 59
0020
0300
0032
0000
,  // measure 60
0103
0000
0000
1000
0100
0000
0000
0100
,  // measure 61
0001
0000
0000
0001
0010
0000
0010
0000
,  // measure 62
0020
0000
0000
0000
0000
0100
0030
0000
0010
0000
0000
0000
0100
0000
0000
0000
,  // measure 63
2000
0000
3100
0000
0010
0001
1000
0000
,  // measure 64
0001
0000
0100
0001
,  // measure 65
0100
0000
0010
1000
,  // measure 66
0020
0000
0130
0000
,  // measure 67
1000
0100
0010
0000
,  // measure 68
1000
0100
1000
0100
,  // measure 69
0010
0100
0010
0001
,  // measure 70
0010
0100
0010
0100
,  // measure 71
1000
0100
0010
0001
,  // measure 72
0100
0010
1000
0100
,  // measure 73
0010
0001
0100
0010
,  // measure 74
1000
0000
1000
0000
0001
0200
0000
0310
,  // measure 75
2000
0000
3100
0000
,  // measure 76
0010
0100
0010
0100
,  // measure 77
2000
0000
3100
0000
,  // measure 78
0010
0100
0001
0100
,  // measure 79
0020
0000
0031
0100
,  // measure 80
0020
0000
0130
0001
,  // measure 81
2000
0000
3100
0000
,  // measure 82
0010
0000
0100
0000
,  // measure 83
1000
0000
0100
0000
1000
0000
0100
0000
0010
0000
0001
0000
,  // measure 84
0010
0000
0000
0000
0001
0000
0000
0000
1000
0000
0000
0000
0001
0000
0000
0000
0000
0000
0001
0000
0000
1000
0000
0000
,  // measure 85
0001
0000
1000
0100
,  // measure 86
0010
0000
0001
0000
,  // measure 87
1000
0100
0010
0100
,  // measure 88
1000
0100
0010
0001
,  // measure 89
1000
0000
1001
0000
,  // measure 90
0020
0000
0000
0130
,  // measure 91
0002
0000
0013
0000
,  // measure 92
0100
0010
0100
0010
,  // measure 93
0002
0000
0013
0000
,  // measure 94
0100
0010
1000
0010
,  // measure 95
0200
0000
1300
0010
,  // measure 96
0200
0000
0310
1000
,  // measure 97
0002
0000
0013
0000
,  // measure 98
0100
0000
0010
0000
,  // measure 99
0001
0000
0010
0000
1000
0000
0001
0000
0100
0000
0010
0000
,  // measure 100
0100
0000
0000
0110
0000
0000
1000
0000
0100
0000
0010
0000
,  // measure 101
0001
0000
1000
0000
0100
0000
0001
0000
0000
0110
0000
0000
,  // measure 102
1000
0100
0010
0000
,  // measure 103
0001
0010
0100
1000
,  // measure 104
0020
0000
0130
0000
,  // measure 105
1000
1000
0100
0010
,  // measure 106
1000
0100
0010
0001
,  // measure 107
1000
0100
0010
0001
,  // measure 108
0010
0100
1000
0100
,  // measure 109
0010
0001
0100
0010
,  // measure 110
1000
0000
1000
0010
1000
0000
0100
0001
,  // measure 111
0100
0000
0010
1000
0010
0000
1000
0001
,  // measure 112
0100
0000
0010
1000
0001
0000
1000
0001
,  // measure 113
1000
0000
0000
0000
;

//---------------dance-single - ----------------
#NOTES:
     dance-single:
     [LEGGENDARIA]:
     Challenge:
     16:
     0.873,1.000,0.660,0.660,0.128: // measure 1
0000
0000
0000
0000
,  // measure 2
0000
0000
0000
0000
,  // measure 3
0000
0000
0000
0000
,  // measure 4
0000
0000
0000
0000
,  // measure 5
0000
0000
0000
0000
,  // measure 6
2000
0000
0000
0000
,  // measure 7
3200
0000
0000
0000
,  // measure 8
0320
0000
0000
0000
,  // measure 9
0032
0000
0000
0000
,  // measure 10
2000
0000
0000
0000
0000
0000
0000
0003
,  // measure 11
3001
0010
0001
0010
0100
0010
0100
1000
0100
1000
0100
0010
0100
0010
0001
0010
,  // measure 12
0001
0000
0000
0000
1010
0000
0100
1000
,  // measure 13
0010
0000
0000
0000
0011
0000
0100
0001
,  // measure 14
0010
0000
0000
0000
1001
0000
1000
0001
,  // measure 15
1000
0100
0220
0330
,  // measure 16
1001
0000
0000
0000
0101
0000
0010
0001
,  // measure 17
0100
0000
0000
0000
1100
0000
0010
1000
,  // measure 18
0100
0000
0000
0000
0110
0000
0100
0010
,  // measure 19
0100
1000
2002
3003
,  // measure 20
0110
0000
0000
0000
1010
0000
0100
0010
,  // measure 21
0001
0000
0000
0000
0011
0000
0100
0010
,  // measure 22
2000
0000
3000
0000
0012
0000
0103
0010
,  // measure 23
0100
0100
0202
0303
,  // measure 24
0110
0000
0000
0000
0101
0000
0010
0100
,  // measure 25
1000
0000
0000
0000
1100
0000
0010
0100
,  // measure 26
0001
0010
0011
0010
,  // measure 27
1010
0000
0010
0001
0100
0000
0100
0001
,  // measure 28
1000
0001
1000
0100
,  // measure 29
0020
0001
0130
1000
,  // measure 30
0002
0010
1003
0001
,  // measure 31
0020
0032
0103
0120
,  // measure 32
1030
0001
1000
0010
,  // measure 33
0200
0001
0310
0100
,  // measure 34
0002
0010
1003
0010
,  // measure 35
2000
3100
0020
0031
,  // measure 36
2000
0000
0001
0000
3100
0000
0010
0001
,  // measure 37
0200
0000
1000
0000
0310
0000
1000
0001
,  // measure 38
0020
0000
0001
0000
0130
0000
0010
0001
,  // measure 39
0100
0100
0220
0330
,  // measure 40
0002
0000
1000
0000
0013
0000
0100
1000
,  // measure 41
0020
0000
0001
0000
0130
0000
0001
1000
,  // measure 42
0200
0000
1000
0000
0310
0000
0100
1000
,  // measure 43
0010
0010
0220
0330
,  // measure 44
1001
0001
1000
0100
,  // measure 45
0010
0002
0010
0103
,  // measure 46
0020
0100
1030
0100
,  // measure 47
0020
0130
0200
2300
,  // measure 48
3001
0010
0200
0010
,  // measure 49
1300
0001
0020
0100
,  // measure 50
0032
0100
1003
0001
,  // measure 51
0010
0100
0010
0010
,  // measure 52
0200
0000
0010
0000
0301
0000
0001
0010
,  // measure 53
2000
0000
0010
0000
3010
0000
0001
0100
,  // measure 54
2000
0000
0100
0000
3100
0000
1000
0100
,  // measure 55
0001
0010
2002
3003
,  // measure 56
0020
0000
0100
0000
1030
0000
1000
0100
,  // measure 57
0002
0000
0100
0000
0103
0000
1000
0010
,  // measure 58
0002
0000
0010
0000
0013
0000
0001
0010
,  // measure 59
1000
0100
2002
3003
,  // measure 60
2000
0000
0000
0100
0100
0000
0000
0001
,  // measure 61
0001
0000
0000
0010
0010
0000
0000
3010
,  // measure 62
0102
0000
0000
0000
0000
0100
0000
0000
0100
0000
0000
0000
0010
0000
0000
0000
,  // measure 63
1000
0000
0100
0000
0100
0103
0101
0000
,  // measure 64
1100
0000
1000
0100
,  // measure 65
0010
0001
0110
0000
,  // measure 66
0110
0001
0010
0100
,  // measure 67
1000
0100
0110
0000
,  // measure 68
0110
1000
1000
0100
,  // measure 69
0010
0010
0001
0100
,  // measure 70
0011
1000
0100
0001
,  // measure 71
0100
1000
0010
0100
,  // measure 72
0101
0010
0100
1000
,  // measure 73
0001
1000
0100
0010
,  // measure 74
1001
0000
1001
0000
1001
0200
0000
0310
,  // measure 75
0100
0010
1100
1000
,  // measure 76
0100
0010
0110
0001
,  // measure 77
0100
0001
0011
0100
,  // measure 78
0010
1000
0110
0001
,  // measure 79
0100
0001
1100
0010
,  // measure 80
0001
0100
1010
0100
,  // measure 81
0001
1000
0101
1000
,  // measure 82
0100
0010
0001
1000
,  // measure 83
1000
0000
0010
0000
0010
0000
0001
0000
0010
0000
0010
0000
,  // measure 84
1000
0000
0000
0000
0100
0000
0000
0000
0100
0000
0000
0000
0001
0000
0000
0000
0100
0000
1000
0000
0000
0001
0000
0000
,  // measure 85
0100
0000
1001
0101
,  // measure 86
1010
0000
0002
0000
,  // measure 87
2003
3200
0302
2003
,  // measure 88
3020
0032
2003
3100
,  // measure 89
0001
0010
0100
0010
,  // measure 90
0001
0010
0100
0010
0001
1000
0100
0010
,  // measure 91
0100
1000
0011
1000
,  // measure 92
0010
0100
0110
1000
,  // measure 93
0001
0100
1100
0100
,  // measure 94
0010
1000
1010
0001
,  // measure 95
0001
0100
0101
0100
,  // measure 96
0001
0100
1001
0100
,  // measure 97
0010
1000
1001
1000
,  // measure 98
0010
0100
1001
0000
,  // measure 99
1000
0000
0100
0000
0100
0000
0001
0000
0100
0000
0100
0000
,  // measure 100
1000
0000
0000
1001
0000
0000
1000
0000
0010
0000
0010
0000
,  // measure 101
0001
0000
0010
0000
0010
0000
1000
0000
0000
1001
0000
0000
,  // measure 102
1001
0100
0001
1000
,  // measure 103
0100
0010
0001
0010
,  // measure 104
0002
1000
0103
0001
,  // measure 105
0100
0000
1000
0001
0100
0000
0010
0001
,  // measure 106
1000
0100
0011
0001
,  // measure 107
0100
0010
0101
0010
,  // measure 108
0001
0100
1010
0100
,  // measure 109
0010
0001
1100
0001
,  // measure 110
0001
0000
1000
0100
0010
0000
0100
0010
,  // measure 111
0001
0000
0010
0100
1000
0000
0001
0100
,  // measure 112
0010
0000
1000
0100
1000
0001
0010
0001
,  // measure 113
1000
0000
0000
0000
;

//---------------dance-single - ----------------
#NOTES:
     dance-single:
     :
     Medium:
     8:
     0.392,0.656,0.064,0.447,0.000: // measure 1
0000
0000
0000
0000
,  // measure 2
0000
0000
0000
0000
,  // measure 3
0000
0000
0000
0000
,  // measure 4
0000
0000
0000
0000
,  // measure 5
0000
0000
0000
0000
,  // measure 6
0002
0000
0000
0000
,  // measure 7
1003
0000
0000
0000
,  // measure 8
0020
0000
0000
0000
,  // measure 9
0130
0000
0000
0000
,  // measure 10
0002
0000
0000
0000
,  // measure 11
1003
0001
1000
0001
0100
0010
0100
0010
,  // measure 12
0001
0000
0000
0100
,  // measure 13
0010
0000
0000
1000
,  // measure 14
0100
0000
0000
0010
,  // measure 15
0001
0001
0100
0000
,  // measure 16
0100
0000
0000
0010
,  // measure 17
0100
0000
0000
0001
,  // measure 18
0010
0000
0000
0100
,  // measure 19
1000
1000
0010
0000
,  // measure 20
0100
0000
0000
0100
,  // measure 21
0001
0000
0000
1000
,  // measure 22
0200
0000
0320
0000
,  // measure 23
0032
0000
2003
0000
,  // measure 24
3100
0000
0000
1000
,  // measure 25
0100
0000
0000
0001
,  // measure 26
0200
0000
1300
0000
,  // measure 27
0020
0000
0031
0000
,  // measure 28
0010
0000
0010
0000
,  // measure 29
0020
0000
0130
0000
,  // measure 30
0001
0000
0100
0000
,  // measure 31
2000
0000
3100
0000
,  // measure 32
0010
0000
0001
0000
,  // measure 33
0010
0000
0100
0000
,  // measure 34
0002
0000
1003
0000
,  // measure 35
0100
0000
1000
0000
,  // measure 36
2000
0000
0000
0000
,  // measure 37
0100
0000
0000
0000
,  // measure 38
0001
0000
0000
0000
,  // measure 39
0100
0000
0000
0000
,  // measure 40
3002
0000
0000
0000
,  // measure 41
0100
0000
0000
0000
,  // measure 42
1000
0000
0000
0000
,  // measure 43
0100
0000
0000
0000
,  // measure 44
1003
0000
0100
0000
,  // measure 45
0010
0000
0001
0000
,  // measure 46
0010
0000
0100
0000
,  // measure 47
0010
0000
0010
0000
,  // measure 48
0000
0000
0100
0000
,  // measure 49
0010
0000
0100
0000
,  // measure 50
2000
0000
3100
0000
,  // measure 51
0010
0000
0100
0000
,  // measure 52
0002
0000
0000
0000
,  // measure 53
0200
0000
0000
0000
,  // measure 54
0000
0000
0303
0000
,  // measure 55
1000
0000
0200
0000
,  // measure 56
0000
0000
0020
0000
,  // measure 57
0000
0000
0000
0330
,  // measure 58
2000
0000
3200
0000
,  // measure 59
0320
0000
0032
0000
,  // measure 60
0203
0000
0302
0000
,  // measure 61
2003
0000
3100
0000
,  // measure 62
0020
0000
0032
0000
,  // measure 63
0203
0000
0320
0000
,  // measure 64
1030
0000
0100
0000
,  // measure 65
0010
0100
0010
0000
,  // measure 66
1000
0000
0010
0000
,  // measure 67
0001
0000
0100
0000
,  // measure 68
2000
0000
0000
0000
,  // measure 69
0000
0000
0000
0000
,  // measure 70
0200
0000
0000
0000
,  // measure 71
0000
0000
3300
0000
,  // measure 72
0202
0000
0000
0000
,  // measure 73
0000
0000
0303
0000
,  // measure 74
1000
0100
0010
0000
,  // measure 75
0110
0000
1001
0000
,  // measure 76
1000
0100
0010
0000
,  // measure 77
0001
0000
0010
0000
,  // measure 78
0100
0010
0100
0000
,  // measure 79
0011
0000
0110
0000
,  // measure 80
1000
0100
0010
0000
,  // measure 81
1000
0000
0010
0000
,  // measure 82
0001
0100
0010
0000
,  // measure 83
2000
0000
3100
0000
,  // measure 84
0020
0000
0031
0000
,  // measure 85
0100
0000
0001
1000
,  // measure 86
0001
0000
0100
0000
,  // measure 87
0002
0000
0013
0000
,  // measure 88
0200
0000
1300
0000
,  // measure 89
0010
0000
1000
0000
,  // measure 90
0020
0000
0000
0000
,  // measure 91
0130
0000
0001
0000
,  // measure 92
1000
0010
1000
0000
,  // measure 93
0100
0000
0010
0000
,  // measure 94
0100
0001
0100
0000
,  // measure 95
1000
0100
0010
0000
,  // measure 96
0100
0010
0001
0000
,  // measure 97
2000
0000
0001
0000
,  // measure 98
0001
0000
0000
0000
,  // measure 99
3001
1000
0001
0000
,  // measure 100
1000
0000
1000
0001
,  // measure 101
1000
0000
0010
0000
,  // measure 102
0100
0010
0100
0000
,  // measure 103
0010
0100
0010
0000
,  // measure 104
2000
0000
3100
0000
,  // measure 105
0010
0100
0010
0100
,  // measure 106
0020
0000
1000
0000
,  // measure 107
0000
0000
0100
0000
,  // measure 108
0100
0000
0001
0000
,  // measure 109
0000
0000
0000
0000
,  // measure 110
0031
0100
0010
0100
,  // measure 111
0010
0100
0010
1000
,  // measure 112
0100
0010
0001
0000
,  // measure 113
0110
0000
0000
0000
;

//---------------dance-single - ----------------
#NOTES:
     dance-single:
     :
     Easy:
     5:
     0.251,0.358,0.011,0.138,0.000: // measure 1
0000
0000
0000
0000
,  // measure 2
0000
0000
0000
0000
,  // measure 3
0000
0000
0000
0000
,  // measure 4
0000
0000
0000
0000
,  // measure 5
0000
0000
0000
0000
,  // measure 6
1000
0000
0000
0000
,  // measure 7
1000
0000
0000
0000
,  // measure 8
0100
0000
0000
0000
,  // measure 9
0010
0000
0000
0000
,  // measure 10
0010
0000
0000
0000
,  // measure 11
0002
0000
0000
0000
,  // measure 12
0013
0000
0000
0000
,  // measure 13
0010
0000
0000
0000
,  // measure 14
0010
0000
0000
0000
,  // measure 15
0100
0000
0100
0000
,  // measure 16
0001
0000
0000
0000
,  // measure 17
0001
0000
0000
0000
,  // measure 18
0001
0000
0000
0000
,  // measure 19
0010
0000
0010
0000
,  // measure 20
0100
0000
0000
0000
,  // measure 21
0100
0000
0000
0000
,  // measure 22
0100
0000
0000
0000
,  // measure 23
0100
0000
0100
0000
,  // measure 24
1000
0000
0000
0000
,  // measure 25
1000
0000
0000
0000
,  // measure 26
2000
0000
3010
0000
,  // measure 27
0100
0000
0010
0000
,  // measure 28
0000
0000
0010
0000
,  // measure 29
0010
0000
0100
0000
,  // measure 30
0100
0000
0001
0000
,  // measure 31
0001
0000
0001
0000
,  // measure 32
0000
0000
0001
0000
,  // measure 33
0001
0000
0010
0000
,  // measure 34
0010
0000
0100
0000
,  // measure 35
0100
0000
1000
0000
,  // measure 36
1000
0000
0000
0000
,  // measure 37
0001
0000
0000
0000
,  // measure 38
0100
0000
0000
0000
,  // measure 39
0010
0000
0010
0000
,  // measure 40
0100
0000
0000
0000
,  // measure 41
0001
0000
0000
0000
,  // measure 42
0001
0000
0000
0000
,  // measure 43
0010
0000
0010
0000
,  // measure 44
0100
0000
0000
0000
,  // measure 45
0100
0000
0000
0000
,  // measure 46
0100
0000
1000
0000
,  // measure 47
0001
0000
1000
0000
,  // measure 48
0000
0000
0010
0000
,  // measure 49
1000
0000
0010
0000
,  // measure 50
1000
0000
0001
0000
,  // measure 51
0100
0000
0001
0000
,  // measure 52
0100
0000
0000
0000
,  // measure 53
0001
0000
0000
0000
,  // measure 54
0010
0000
0000
0000
,  // measure 55
0100
0000
0100
0000
,  // measure 56
1000
0000
0000
0000
,  // measure 57
0001
0000
0000
0000
,  // measure 58
1000
0000
0100
0000
,  // measure 59
0010
0000
0001
0000
,  // measure 60
2000
0000
0000
0000
,  // measure 61
0001
0000
0000
0000
,  // measure 62
3020
0000
0000
0000
,  // measure 63
0100
0000
0000
0000
,  // measure 64
1030
0000
0100
0000
,  // measure 65
0010
0000
0001
0000
,  // measure 66
0100
0000
0001
0000
,  // measure 67
0100
0000
0001
0000
,  // measure 68
0020
0000
0000
0000
,  // measure 69
0000
0000
0000
0000
,  // measure 70
0000
0000
0000
0000
,  // measure 71
0000
0000
0000
0000
,  // measure 72
0230
0000
0000
0000
,  // measure 73
0000
0000
0000
0000
,  // measure 74
1300
0000
0000
0000
,  // measure 75
1000
0000
0100
0000
,  // measure 76
1000
0000
0100
0000
,  // measure 77
0010
0000
0001
0000
,  // measure 78
0010
0000
0001
0000
,  // measure 79
0010
0000
0100
0000
,  // measure 80
1000
0000
0100
0000
,  // measure 81
0020
0000
0000
0000
,  // measure 82
0000
0000
0000
0000
,  // measure 83
0031
0000
0100
0000
,  // measure 84
0001
0000
0100
0000
,  // measure 85
0010
0000
1000
0000
,  // measure 86
0010
0000
1000
0000
,  // measure 87
0100
0000
0010
0000
,  // measure 88
0001
0000
0010
0000
,  // measure 89
0100
0000
0000
0000
,  // measure 90
0020
0000
0000
0000
,  // measure 91
0130
0000
0010
0000
,  // measure 92
0100
0000
0000
0000
,  // measure 93
0010
0000
0001
0000
,  // measure 94
0010
0000
0000
0000
,  // measure 95
0200
0000
0000
0000
,  // measure 96
2300
0000
0000
0000
,  // measure 97
3002
0000
0000
0000
,  // measure 98
0000
0000
0000
0000
,  // measure 99
0103
0000
0100
0000
,  // measure 100
0100
0000
0010
0000
,  // measure 101
0010
0000
0010
0000
,  // measure 102
1000
0000
0100
0000
,  // measure 103
1000
0000
0001
0000
,  // measure 104
0100
0000
0001
0000
,  // measure 105
0010
0000
0001
0000
,  // measure 106
2000
0000
0000
0000
,  // measure 107
0001
0000
0000
0000
,  // measure 108
3002
0000
0000
0000
,  // measure 109
1000
0000
0000
0000
,  // measure 110
0103
0000
0010
0000
,  // measure 111
0100
0000
0010
0000
,  // measure 112
0100
0000
0100
0000
,  // measure 113
1001
0000
0000
0000
;

//---------------dance-single - ----------------
#NOTES:
     dance-single:
     :
     Beginner:
     2:
     0.145,0.239,0.000,0.085,0.000: // measure 1
0000
0000
0000
0000
,  // measure 2
0000
0000
0000
0000
,  // measure 3
0000
0000
0000
0000
,  // measure 4
0000
0000
0000
0000
,  // measure 5
0000
0000
0000
0000
,  // measure 6
0001
0000
0000
0000
,  // measure 7
0001
0000
0000
0000
,  // measure 8
1000
0000
0000
0000
,  // measure 9
1000
0000
0000
0000
,  // measure 10
0001
0000
0000
0000
,  // measure 11
0001
0000
0000
0000
,  // measure 12
1000
0000
0000
0000
,  // measure 13
1000
0000
0000
0000
,  // measure 14
1000
0000
0000
0000
,  // measure 15
0010
0000
0010
0000
,  // measure 16
0010
0000
0000
0000
,  // measure 17
0100
0000
0000
0000
,  // measure 18
0100
0000
0000
0000
,  // measure 19
0100
0000
0100
0000
,  // measure 20
0100
0000
0000
0000
,  // measure 21
0001
0000
0000
0000
,  // measure 22
0001
0000
0000
0000
,  // measure 23
0001
0000
0001
0000
,  // measure 24
0001
0000
0000
0000
,  // measure 25
1000
0000
0000
0000
,  // measure 26
0001
0000
0000
0000
,  // measure 27
1000
0000
0000
0000
,  // measure 28
0001
0000
0000
0000
,  // measure 29
0001
0000
0000
0000
,  // measure 30
0010
0000
0000
0000
,  // measure 31
0010
0000
0000
0000
,  // measure 32
0100
0000
0000
0000
,  // measure 33
0100
0000
0000
0000
,  // measure 34
1000
0000
0000
0000
,  // measure 35
1000
0000
0000
0000
,  // measure 36
0001
0000
0000
0000
,  // measure 37
0001
0000
0000
0000
,  // measure 38
0001
0000
0000
0000
,  // measure 39
0001
0000
0000
0000
,  // measure 40
0100
0000
0000
0000
,  // measure 41
0100
0000
0000
0000
,  // measure 42
0100
0000
0000
0000
,  // measure 43
0010
0000
0000
0000
,  // measure 44
1000
0000
0000
0000
,  // measure 45
1000
0000
0000
0000
,  // measure 46
0001
0000
0000
0000
,  // measure 47
1000
0000
0000
0000
,  // measure 48
0100
0000
0000
0000
,  // measure 49
1000
0000
0000
0000
,  // measure 50
0001
0000
0000
0000
,  // measure 51
0010
0000
0000
0000
,  // measure 52
0001
0000
0000
0000
,  // measure 53
1000
0000
0000
0000
,  // measure 54
0001
0000
0000
0000
,  // measure 55
1000
0000
0000
0000
,  // measure 56
0010
0000
0000
0000
,  // measure 57
0100
0000
0000
0000
,  // measure 58
0010
0000
0000
0000
,  // measure 59
0100
0000
0000
0000
,  // measure 60
0100
0000
0000
0000
,  // measure 61
0001
0000
0000
0000
,  // measure 62
0001
0000
0000
0000
,  // measure 63
0010
0000
0000
0000
,  // measure 64
0100
0000
0000
0000
,  // measure 65
0000
0000
0000
0000
,  // measure 66
0100
0000
0000
0000
,  // measure 67
0000
0000
0000
0000
,  // measure 68
0200
0000
0000
0000
,  // measure 69
0000
0000
0000
0000
,  // measure 70
0000
0000
0000
0000
,  // measure 71
0000
0000
0000
0000
,  // measure 72
0020
0000
0000
0000
,  // measure 73
0000
0000
0000
0000
,  // measure 74
0330
0000
0000
0000
,  // measure 75
0010
0000
0000
0000
,  // measure 76
0010
0000
0000
0000
,  // measure 77
0010
0000
0000
0000
,  // measure 78
0000
0000
0000
0000
,  // measure 79
0100
0000
0000
0000
,  // measure 80
0100
0000
0000
0000
,  // measure 81
0100
0000
0000
0000
,  // measure 82
0000
0000
0000
0000
,  // measure 83
0002
0000
0000
0000
,  // measure 84
0000
0000
0000
0000
,  // measure 85
0003
0000
0000
0000
,  // measure 86
0000
0000
0000
0000
,  // measure 87
2000
0000
0000
0000
,  // measure 88
0000
0000
0000
0000
,  // measure 89
3000
0000
0000
0000
,  // measure 90
0000
0000
0000
0000
,  // measure 91
0001
0000
0000
0000
,  // measure 92
0001
0000
0000
0000
,  // measure 93
0001
0000
0000
0000
,  // measure 94
0000
0000
0000
0000
,  // measure 95
0010
0000
0000
0000
,  // measure 96
0010
0000
0000
0000
,  // measure 97
0010
0000
0000
0000
,  // measure 98
0000
0000
0000
0000
,  // measure 99
0200
0000
0000
0000
,  // measure 100
0300
0000
0200
0000
,  // measure 101
0000
0000
0300
0000
,  // measure 102
1000
0000
0000
0000
,  // measure 103
1000
0000
0000
0000
,  // measure 104
0001
0000
0000
0000
,  // measure 105
0001
0000
0000
0000
,  // measure 106
2000
0000
0000
0000
,  // measure 107
0000
0000
0000
0000
,  // measure 108
0000
0000
0000
0000
,  // measure 109
0000
0000
0000
0000
,  // measure 110
0002
0000
0000
0000
,  // measure 111
0000
0000
0000
0000
,  // measure 112
0000
0000
0000
0000
,  // measure 113
3003
0000
0000
0000
;
