#TITLE:カラフル。;
#SUBTITLE:冴えない彼女の育てかた ED;
#ARTIST:沢井美空;
#TITLETRANSLIT:Colorful;
#SUBTITLETRANSLIT:Saenai Heroine no Sodatekata ED;
#ARTISTTRANSLIT:Miku Sawai;
#GENRE:SAEKANO POP 1;
#CREDIT:;
#BANNER:Colorful.png;
#BACKGROUND:Colorful-bg.png;
#LYRICSPATH:;
#CDTITLE:cdtitle.png;
#MUSIC:Colorful.mp3;
#METERTYPE:DDR X;
#MENUCOLOR:0,0,1,1;
#OFFSET:-1.203;
#SAMPLESTART:60.787;
#SAMPLELENGTH:15.000;
#SELECTABLE:YES;
#BPMS:0.000=153.000;
#STOPS:;
#BGCHANGES:;

//---------------dance-single - ----------------
#NOTES:
     dance-single:
     :
     Hard:
     9:
     0.364,0.505,0.000,0.223,0.000:
0000
0000
0000
0000
,
0000
0000
0000
0000
,
0000
0000
0000
0000
,
0000
0000
0000
0000
,
0000
0000
0000
0000
,
0000
0000
0000
0000
,
1000
0100
1000
0100
0000
0100
0010
0100
,
0010
0001
0010
0001
0000
0010
1000
0010
,
0001
0100
0100
0010
1000
0010
1000
0001
,
0100
1000
0000
0100
0000
0001
0000
0000
,
1000
0000
0010
0001
0000
0000
1000
0000
,
0100
0000
0001
0200
0000
0301
0000
0010
,
0001
1000
0001
0200
0000
0000
0000
0000
,
0300
0000
0000
0000
,
0010
0100
0010
2000
0000
3001
0010
0001
,
0020
0000
0031
0200
0000
0310
1000
0010
,
0100
0001
0100
0000
0001
0100
0010
0001
,
0010
1000
0000
0100
0000
1000
0000
0001
,
1000
0000
0100
0010
0000
0001
0000
0100
,
0010
0000
1000
0100
0000
0100
0000
0001
,
0100
0000
0100
0010
0000
0100
1000
1000
,
0000
0000
0000
0010
0100
0000
0010
0000
,
1000
0000
0000
1000
0001
0000
1000
0001
,
0000
0001
0000
0000
0000
0010
0001
0100
,
0020
0000
0130
1000
0000
0100
0000
0010
,
1000
0000
0000
0100
0010
0000
0100
0000
,
1000
0000
0000
0001
0100
0000
0010
1000
,
0000
0000
0000
0000
0000
0000
0000
0010
,
0100
1000
0000
0100
0010
0100
0000
0001
,
0000
0000
0000
0000
,
1000
0000
0100
0001
0000
0010
0000
1000
,
0000
0000
0000
0000
,
1000
0000
0010
0001
0000
0100
0000
1000
,
0000
0010
0010
0010
,
1000
0000
0001
0020
0000
0000
0000
0000
,
0000
0031
0001
0001
,
1000
0000
0001
0200
0000
0000
0000
0301
,
1000
0001
0100
0000
0000
0000
0000
0000
,
0001
0010
0100
1000
,
0002
0000
0000
0103
0010
0000
0000
1000
,
0100
0010
0200
0000
1300
0000
1000
0100
,
0001
0000
1000
0100
0001
0000
0001
0020
,
0000
0130
0010
0001
,
0010
0000
0100
2000
0000
0000
0000
0000
,
3000
0000
0000
1000
0010
0100
0010
1000
,
0200
0000
0310
0100
0000
1000
0002
0000
,
1003
0100
0010
0001
,
2000
0000
0000
3010
0100
0000
0000
0001
,
0010
0100
0020
0000
0031
0000
0001
0010
,
1000
0000
0001
0010
1000
0000
1000
0200
,
0000
0310
0100
1000
,
0001
0000
0100
0000
1000
0000
0001
0010
,
0000
1000
0000
0100
0000
0010
0002
0000
,
0003
0000
0000
0000
0000
0000
1000
0002
,
0000
0000
0103
0000
0100
0001
1000
0100
,
0020
0000
0230
0000
0000
1300
0001
0100
;

//---------------dance-single - ----------------
#NOTES:
     dance-single:
     :
     Medium:
     6:
     0.212,0.267,0.000,0.159,0.000:
0000
0000
0000
0000
,
0000
0000
0000
0000
,
0000
0000
0000
0000
,
0000
0000
0000
0000
,
0000
0000
0000
0000
,
0000
0000
0000
0000
,
1000
2000
0000
3010
,
0100
0200
0000
0301
,
0010
0001
0100
0010
,
1000
0000
1000
0000
,
0010
0010
0000
0100
,
0100
0010
0010
0000
,
1000
0200
0000
0000
,
0300
0000
0000
0000
,
0010
0020
0000
0031
,
0100
0200
0000
0310
,
1000
0100
0010
0001
,
1000
0000
0001
0000
,
0100
0010
0000
0010
,
0001
0010
1000
0000
,
1000
0100
1000
0010
,
0100
0000
0001
1000
,
2000
0000
0001
0000
,
3001
0000
0000
0000
,
0002
0000
1000
0000
,
1003
0000
0000
0000
,
0020
0000
0100
0000
,
0130
0000
0000
0000
,
1000
0100
0010
0001
,
1000
0000
0000
0000
,
0001
0010
0100
1000
,
0001
0000
0000
0000
,
1000
1000
0100
0100
,
0010
0000
0010
0000
,
0002
0000
0100
0000
,
0103
0000
0001
0000
,
2000
0000
0010
0000
,
3010
0000
0000
0000
,
0010
0000
0100
0010
,
2000
0000
3100
0000
,
1000
0100
0001
0000
,
0100
0000
1000
0000
,
0002
0000
0103
0010
,
1000
2000
0000
0000
,
3001
0000
0010
0100
,
1000
0001
0000
1000
,
0000
1000
0100
0010
,
0002
0000
1003
0000
,
1000
0001
0010
0000
,
0100
0000
1000
0000
,
0002
0000
0103
0010
,
1000
0001
0010
0001
,
1000
0100
1000
0010
,
0000
0000
0000
0000
,
1000
0000
0010
0100
,
0001
0010
0000
0001
;

//---------------dance-single - ----------------
#NOTES:
     dance-single:
     :
     Easy:
     2:
     0.094,0.147,0.000,0.053,0.000:
0000
0000
0000
0000
,
0000
0000
0000
0000
,
0000
0000
0000
0000
,
0000
0000
0000
0000
,
0000
0000
0000
0000
,
0000
0000
0000
0000
,
1000
0000
1000
0000
,
0100
0000
0100
0000
,
0010
0000
0010
0000
,
0001
0000
0000
0000
,
0001
0000
0000
0000
,
1000
0000
0000
0000
,
0002
0000
0000
0000
,
0003
0000
0000
0000
,
1000
0000
1000
0000
,
0001
0000
0001
0000
,
0100
0000
0100
0000
,
0010
0000
0010
0000
,
1000
0000
0000
0000
,
1000
0000
0000
0000
,
0100
0000
0000
0000
,
0010
0000
0000
0000
,
0001
0000
0000
0000
,
0001
0000
0000
0000
,
1000
0000
0000
0000
,
1000
0000
0000
0000
,
0010
0000
0000
0000
,
0010
0000
0000
0000
,
0100
0000
0000
0000
,
0100
0000
0000
0000
,
0001
0000
0000
0000
,
0001
0000
0000
0000
,
1000
0000
0000
0000
,
1000
0000
0000
0000
,
0200
0000
0000
0000
,
0300
0000
0000
0000
,
0020
0000
0000
0000
,
0030
0000
0000
0000
,
0001
0000
0000
0000
,
0002
0000
0000
0000
,
1003
0000
0000
0000
,
1000
0000
1000
0000
,
1000
0000
0000
0000
,
0100
0000
0100
0000
,
0100
0000
0000
0000
,
0010
0000
0000
0000
,
0010
0000
0000
0000
,
0002
0000
0000
0000
,
0003
0000
0000
0000
,
1000
0000
1000
0000
,
1000
0000
0000
0000
,
0100
0000
0000
0000
,
0010
0000
0000
0000
,
0001
0000
0000
0000
,
1000
0000
0000
0000
,
0100
0100
0000
0000
;

//---------------dance-single - ----------------
#NOTES:
     dance-single:
     :
     Beginner:
     1:
     0.068,0.088,0.000,0.053,0.000:
0000
0000
0000
0000
,
0000
0000
0000
0000
,
0000
0000
0000
0000
,
0000
0000
0000
0000
,
0000
0000
0000
0000
,
0000
0000
0000
0000
,
1000
0000
0000
0000
,
1000
0000
0000
0000
,
0001
0000
0000
0000
,
0001
0000
0000
0000
,
0100
0000
0000
0000
,
0100
0000
0000
0000
,
0010
0000
0000
0000
,
0000
0000
0000
0000
,
1000
0000
0000
0000
,
1000
0000
0000
0000
,
0001
0000
0000
0000
,
0001
0000
0000
0000
,
0100
0000
0000
0000
,
0100
0000
0000
0000
,
0010
0000
0000
0000
,
0010
0000
0000
0000
,
0000
0000
0000
0000
,
1000
0000
0000
0000
,
0001
0000
0000
0000
,
0001
0000
0000
0000
,
1000
0000
0000
0000
,
0100
0000
0000
0000
,
0010
0000
0000
0000
,
0010
0000
0000
0000
,
0001
0000
0000
0000
,
0001
0000
0000
0000
,
1000
0000
0000
0000
,
1000
0000
0000
0000
,
0200
0000
0000
0000
,
0300
0000
0000
0000
,
0020
0000
0000
0000
,
0030
0000
0000
0000
,
0000
0000
0000
0000
,
0002
0000
0000
0000
,
0003
0000
0000
0000
,
2000
0000
0000
0000
,
3000
0000
0000
0000
,
0100
0000
0000
0000
,
0100
0000
0000
0000
,
0010
0000
0000
0000
,
0000
0000
0000
0000
,
2000
0000
0000
0000
,
3000
0000
0000
0000
,
0001
0000
0000
0000
,
0001
0000
0000
0000
,
0010
0000
0000
0000
,
0100
0000
0000
0000
,
0000
0000
0000
0000
,
1000
0000
0000
0000
,
0010
0000
0000
0000
;

//---------------dance-single - [LEGGENDARIA]----------------
#NOTES:
     dance-single:
     [LEGGENDARIA]:
     Challenge:
     12:
     0.563,0.594,0.181,0.382,0.159: // measure 1
0000
0000
0000
0000
,  // measure 2
0000
0000
0000
0000
,  // measure 3
0000
0000
0000
0000
,  // measure 4
0000
0000
0000
0000
,  // measure 5
0000
0000
0000
0000
,  // measure 6
0000
0000
0000
0000
,  // measure 7
1000
0010
0101
1000
0000
0100
0011
0100
,  // measure 8
1000
0001
1010
0001
0000
0010
1100
0010
,  // measure 9
0001
0100
0100
0001
0010
0100
1000
0001
,  // measure 10
0010
0000
1000
0000
0000
0000
0010
0000
0000
0000
0001
0000
0100
0001
0010
0000
,  // measure 11
1100
0000
0002
1000
0000
0000
0023
0000
,  // measure 12
0100
0000
0001
0230
0000
1300
0000
0010
,  // measure 13
0001
0010
1000
0200
0000
0000
0000
0000
,  // measure 14
1300
0000
0001
0000
1000
0100
0010
0000
0100
0010
0001
0000
0100
0000
0001
1000
,  // measure 15
0100
0010
0001
2000
0000
3001
0110
0001
,  // measure 16
0020
0000
0031
0200
0000
0310
1000
0001
,  // measure 17
1100
0001
0110
0000
0011
0100
1001
0100
,  // measure 18
0010
0000
1000
0000
0000
0000
0200
0000
0000
0000
1300
0000
0100
0000
0001
0100
,  // measure 19
2000
0000
3200
0010
0000
0001
0000
1300
,  // measure 20
0010
0000
2000
0100
0000
3100
0000
0001
,  // measure 21
0100
0000
0100
0010
0000
0100
1000
1000
,  // measure 22
0000
0000
0000
0100
0010
0000
0010
0100
0010
0000
0000
1000
0010
0000
0010
0000
,  // measure 23
1001
0000
0000
0010
0110
0000
1000
0001
,  // measure 24
0001
0000
1010
0000
0000
0000
0010
0000
0100
0000
0010
0000
1000
0000
0100
0001
,  // measure 25
0200
0000
1300
0001
0010
1000
0000
0010
,  // measure 26
0001
0000
1000
0000
0000
0000
0001
0000
0100
0000
0000
0010
0100
0000
0100
0000
,  // measure 27
1001
0000
0000
0000
0000
0000
0001
0000
0100
0000
0000
0000
0010
0000
1000
0100
,  // measure 28
1000
0000
0001
0000
0000
0000
0100
0000
0001
0000
0000
1001
0000
0000
0101
0000
,  // measure 29
0001
1000
0000
0100
0010
0001
0000
0100
,  // measure 30
0100
0000
0100
0000
0000
0000
1000
0000
0001
1000
0001
0000
1000
0001
1000
0000
,  // measure 31
1001
0100
0100
0100
0000
0100
0010
0000
,  // measure 32
0001
0010
0010
0010
0000
0100
1000
0000
,  // measure 33
1000
0001
0001
0001
0000
0100
0001
0000
,  // measure 34
0100
0000
1000
0000
1000
0000
1000
0000
0100
0000
0000
0000
0010
0000
0001
0010
,  // measure 35
1000
0000
0001
0020
0000
0001
0001
0000
,  // measure 36
0000
0000
0031
0000
0001
1000
0001
0000
,  // measure 37
2000
0000
0001
3200
0000
0000
0000
0301
,  // measure 38
0100
0000
1000
0000
0010
0000
0000
0000
1000
0000
0100
0000
0010
0000
0001
1000
,  // measure 39
0001
0000
0000
0000
0020
0000
0000
0000
0230
0000
0000
1300
0001
0000
0000
0000
,  // measure 40
0020
0000
0000
0130
0001
0001
0100
0100
,  // measure 41
1000
0000
0010
0000
0200
0000
0000
0310
1000
0000
1000
0000
0002
0000
0100
0000
,  // measure 42
1003
0000
2000
0010
3001
0000
0001
0020
,  // measure 43
0000
0000
0000
0000
0130
0000
0000
0000
0010
0000
0000
0000
0001
0000
1000
0001
,  // measure 44
0010
0000
0100
2000
0000
0000
0000
0001
,  // measure 45
3001
0000
0000
1000
0010
0100
0010
1000
,  // measure 46
0200
0000
0000
0000
0301
0000
0100
0000
0000
0000
0010
0000
0002
0000
0000
0103
,  // measure 47
1000
0000
0100
0000
0100
0010
0100
0000
0010
0100
0010
0000
1000
0001
0100
0001
,  // measure 48
0200
0000
0000
0301
0010
0010
0001
0001
,  // measure 49
0100
0000
0010
0000
0020
0000
0000
0130
0001
0000
1000
0000
2000
0000
0010
0000
,  // measure 50
3001
0000
0002
0100
1003
0000
0010
2000
,  // measure 51
0000
0000
0000
0000
3001
0000
0000
0000
0002
0000
0000
0000
1003
0000
0100
0010
,  // measure 52
0001
0000
0100
0000
0020
0000
0100
0031
,  // measure 53
0000
1000
0000
0200
0000
0010
2300
0000
,  // measure 54
3001
0000
1000
0000
0100
0000
0000
0000
1000
0010
0100
0001
0010
0100
1000
0001
,  // measure 55
0010
0000
0100
0000
0100
1000
1000
0001
,  // measure 56
0020
0000
0230
0000
0000
1300
1000
1000
;
