#TITLE:Brand-new World;
#SUBTITLE:学戦都市アスタリスク OP;
#ARTIST:西沢幸奏;
#TITLETRANSLIT:Brand-new World;
#SUBTITLETRANSLIT:Gakusen Toshi Asterisk OP;
#ARTISTTRANSLIT:Shiena Nishizawa;
#GENRE:ASTERISK HARD STEP;
#CREDIT:;
#BANNER:Brand-new World.png;
#BACKGROUND:Brand-new World-bg.png;
#LYRICSPATH:;
#CDTITLE:cdtitle.png;
#MUSIC:Brand-new World.mp3;
#METERTYPE:DDR X;
#MENUCOLOR:0,0,1,1;
#OFFSET:-0.564;
#SAMPLESTART:51.332;
#SAMPLELENGTH:12.000;
#SELECTABLE:YES;
#BPMS:0.000=410,96.000=205,128.000=410,256.000=205,284.000=410;
#STOPS:;
#BGCHANGES:;

//---------------dance-single - [LEGGENDARIA]----------------
#NOTES:
     dance-single:
     [LEGGENDARIA]:
     Challenge:
     16:
     1.000,1.000,1.000,0.511,0.056: // measure 1
0000
0000
0000
0000
,  // measure 2
0000
0000
0000
0000
,  // measure 3
0000
0000
0000
0000
,  // measure 4
0000
0000
0000
0000
,  // measure 5
0000
0000
0000
0000
,  // measure 6
0000
0000
0000
0000
,  // measure 7
0000
0000
0000
0000
,  // measure 8
0000
1001
1001
1001
,  // measure 9
0000
1010
1000
0010
,  // measure 10
0100
0110
0100
0010
,  // measure 11
1100
0100
0010
0100
,  // measure 12
0010
1010
1000
0001
,  // measure 13
1001
0100
0010
0001
,  // measure 14
0100
0011
0001
1000
,  // measure 15
0011
0100
1000
0110
,  // measure 16
0001
1001
1000
0010
,  // measure 17
1001
0010
0010
1000
,  // measure 18
0100
0110
0010
1000
,  // measure 19
0110
1000
0100
0010
,  // measure 20
0100
1001
1000
0001
,  // measure 21
1100
0000
0110
0000
,  // measure 22
0011
0000
0110
0010
,  // measure 23
1001
0100
0110
0100
,  // measure 24
0010
1000
0001
0100
0020
0000
0000
0000
,  // measure 25
1030
0000
0100
0010
0000
0010
0002
0000
,  // measure 26
0103
0010
0100
0010
0200
1000
1300
0100
,  // measure 27
0020
0000
0031
0010
0000
0100
0001
0100
,  // measure 28
0020
0000
1030
0020
0000
1030
0200
0000
,  // measure 29
0010
0000
0301
0100
0010
0100
0001
0000
,  // measure 30
0100
0000
1000
0100
0000
0010
0001
0000
,  // measure 31
0100
0010
2000
0100
,  // measure 32
3002
0100
0013
0110
,  // measure 33
0110
1000
0100
0010
,  // measure 34
0100
1001
0002
0000
,  // measure 35
1003
0100
0010
0001
,  // measure 36
0100
0110
0100
0010
,  // measure 37
2100
0000
3100
0010
,  // measure 38
1000
1001
0200
0000
,  // measure 39
1300
0100
0010
0110
,  // measure 40
0001
0110
0010
0000
,  // measure 41
0120
0000
0031
0100
,  // measure 42
0010
0110
0001
0000
,  // measure 43
1001
0100
0001
0100
,  // measure 44
0010
1010
0010
0000
,  // measure 45
2100
0000
3100
0010
,  // measure 46
0100
1001
2000
3000
,  // measure 47
0110
0010
1000
1100
,  // measure 48
1000
1000
1000
1000
,  // measure 49
0011
0011
0010
0011
,  // measure 50
0000
0100
1100
1100
,  // measure 51
0100
0100
0100
0100
,  // measure 52
0110
0110
0100
0010
,  // measure 53
1100
1100
1000
1001
,  // measure 54
0000
0001
0101
0101
,  // measure 55
0001
0101
0000
0001
,  // measure 56
1010
1010
1010
0000
,  // measure 57
0101
0110
0100
0110
,  // measure 58
0000
1000
1100
1100
,  // measure 59
1000
1000
1000
1000
,  // measure 60
1001
0110
1001
1000
,  // measure 61
0102
0010
0100
2003
,  // measure 62
0100
3000
0021
0100
,  // measure 63
0001
0000
0001
0031
,  // measure 64
1100
0010
0100
0011
,  // measure 65
0001
0020
0000
0000
0000
0000
0000
0000
0031
0200
0000
0000
0000
0000
0000
0000
,  // measure 66
0310
2000
0000
0000
0000
0000
0000
0000
3001
2000
0000
0000
0000
0000
0000
0000
,  // measure 67
3100
0020
0000
0000
0000
0000
0000
0000
0031
0020
0000
0000
0000
0000
0000
0000
,  // measure 68
0130
2000
0000
0000
0000
0000
0000
0000
3001
0200
0000
0000
0000
0000
0000
0000
,  // measure 69
0310
0200
0000
0000
0000
0000
0310
0200
0000
0000
0000
0000
0000
0000
0000
0000
,  // measure 70
0000
0000
0000
0000
0310
1000
0000
2002
,  // measure 71
0000
0000
0000
0000
,  // measure 72
3003
0000
0000
1000
,  // measure 73
0001
1000
0000
1001
,  // measure 74
0000
1001
0001
1000
,  // measure 75
0101
0011
0010
0100
,  // measure 76
0000
1100
0001
0100
,  // measure 77
1001
0010
0000
0110
,  // measure 78
1000
1100
0100
0010
,  // measure 79
0110
0001
1010
0020
,  // measure 80
0000
1000
2030
0001
,  // measure 81
3002
0100
0103
0000
,  // measure 82
1100
1000
0110
0100
,  // measure 83
0010
1000
1001
0100
,  // measure 84
0100
1000
1001
0010
,  // measure 85
1000
0001
0110
0010
,  // measure 86
1000
0010
0110
1000
,  // measure 87
0010
0100
0110
1000
,  // measure 88
0100
0100
0011
0010
,  // measure 89
0001
1000
0011
1001
,  // measure 90
0000
0110
0010
0100
,  // measure 91
1100
0100
1100
0100
,  // measure 92
0000
0000
0010
0000
0001
0000
0100
0001
,  // measure 93
0010
0001
0100
0000
0010
0000
0120
0000
,  // measure 94
0000
1030
0100
0010
,  // measure 95
0100
0001
0100
0010
,  // measure 96
0200
0000
1000
0300
,  // measure 97
1000
0100
0010
0000
,  // measure 98
1100
1000
0110
0001
,  // measure 99
0100
0010
0110
1000
,  // measure 100
0010
0100
0011
1000
,  // measure 101
0100
0001
0110
0010
,  // measure 102
1000
0100
0011
0001
,  // measure 103
0100
0010
0110
0010
,  // measure 104
0010
0000
0100
0000
0010
1000
0001
0010
,  // measure 105
0100
1000
0010
0001
0200
0000
0000
0000
,  // measure 106
1300
0100
0101
0100
,  // measure 107
0100
0001
0000
0001
,  // measure 108
0100
0010
1010
0100
,  // measure 109
0010
1000
0000
0102
,  // measure 110
1000
1000
1003
0100
,  // measure 111
0012
0103
1001
2000
,  // measure 112
0000
3001
0010
0001
,  // measure 113
0100
1000
0100
0000
,  // measure 114
0101
0010
0100
0001
,  // measure 115
0100
0001
0100
0010
,  // measure 116
1000
0010
1000
0001
,  // measure 117
0100
0010
0100
0001
,  // measure 118
1100
1000
0110
0100
,  // measure 119
0011
0011
1001
1001
,  // measure 120
1000
0100
0001
0100
1000
0010
0001
0010
,  // measure 121
1000
0001
1000
0000
1000
0000
0110
0000
,  // measure 122
0000
1001
0100
0010
,  // measure 123
0001
0110
0010
1000
,  // measure 124
0011
0100
0010
0100
,  // measure 125
0001
1001
0010
0010
,  // measure 126
1100
1100
0011
0011
,  // measure 127
1010
1010
0101
0101
,  // measure 128
2000
3002
0203
2300
,  // measure 129
3002
0023
2030
3010
;

//---------------dance-single - ----------------
#NOTES:
     dance-single:
     :
     Beginner:
     3:
     0.222,0.358,0.178,0.044,0.000: // measure 1
0000
0000
0000
0000
,  // measure 2
0000
0000
0000
0000
,  // measure 3
0000
0000
0000
0000
,  // measure 4
0000
0000
0000
0000
,  // measure 5
0000
0000
0000
0000
,  // measure 6
0000
0000
0000
0000
,  // measure 7
0000
0000
0000
0000
,  // measure 8
0000
0000
0000
1001
,  // measure 9
0000
0000
0000
0000
,  // measure 10
0000
0000
0000
0000
,  // measure 11
0000
0000
0000
0000
,  // measure 12
0000
0000
0000
0000
,  // measure 13
0020
0000
0000
0000
,  // measure 14
0000
0000
0000
0000
,  // measure 15
0030
0000
0000
0000
,  // measure 16
0000
0000
0000
0000
,  // measure 17
0200
0000
0000
0000
,  // measure 18
0000
0000
0000
0000
,  // measure 19
0300
0000
0000
0000
,  // measure 20
0000
0000
0000
0000
,  // measure 21
0001
0000
0001
0000
,  // measure 22
0001
0000
0001
0000
,  // measure 23
2000
0000
0000
0000
,  // measure 24
0000
0000
3000
0000
,  // measure 25
0010
0000
0000
0000
,  // measure 26
0000
0000
0000
0000
,  // measure 27
0010
0000
0000
0000
,  // measure 28
0100
0000
0100
0000
,  // measure 29
0100
0000
0000
0000
,  // measure 30
0001
0000
0001
0000
,  // measure 31
0001
0000
0000
0000
,  // measure 32
0000
0000
0000
0010
,  // measure 33
0110
0000
0000
0000
,  // measure 34
0000
0000
0000
0000
,  // measure 35
0010
0000
0000
0000
,  // measure 36
0000
0000
0000
0000
,  // measure 37
0100
0000
0000
0000
,  // measure 38
0000
0000
0000
0000
,  // measure 39
0100
0000
0000
0000
,  // measure 40
0100
0000
0000
0000
,  // measure 41
1001
0000
0000
0000
,  // measure 42
0000
0000
0000
0000
,  // measure 43
1000
0000
0000
0000
,  // measure 44
0000
0000
0000
0000
,  // measure 45
0110
0000
0000
0000
,  // measure 46
0010
0000
0000
0000
,  // measure 47
0010
0000
0000
0000
,  // measure 48
0000
0000
0000
0000
,  // measure 49
1000
0000
1000
0000
,  // measure 50
0000
0000
0001
0000
,  // measure 51
0001
0000
0000
0000
,  // measure 52
0000
0000
0000
0000
,  // measure 53
0100
0000
0100
0000
,  // measure 54
0000
0000
0010
0000
,  // measure 55
0010
0000
0000
0000
,  // measure 56
0000
0000
0000
0000
,  // measure 57
0100
0000
0100
0000
,  // measure 58
0000
0000
0001
0000
,  // measure 59
0001
0000
0000
0000
,  // measure 60
0000
0000
1000
0000
,  // measure 61
1000
0000
0000
0000
,  // measure 62
0010
0000
0010
0000
,  // measure 63
0000
0000
0000
0000
,  // measure 64
0100
0000
0100
0000
,  // measure 65
0010
0000
0000
0000
,  // measure 66
0000
0000
0000
0000
,  // measure 67
0000
0000
0000
0000
,  // measure 68
0000
0000
0000
0000
,  // measure 69
0000
0000
0000
0000
,  // measure 70
0000
0000
0000
0000
,  // measure 71
0000
0000
0000
0000
,  // measure 72
0000
0000
0000
0000
,  // measure 73
0000
0000
0000
1001
,  // measure 74
0000
0000
0001
0000
,  // measure 75
0001
0000
0001
0000
,  // measure 76
0000
0000
0100
0000
,  // measure 77
0100
0000
0100
0000
,  // measure 78
0000
0000
0010
0000
,  // measure 79
0010
0000
0010
0000
,  // measure 80
0000
0000
0100
0000
,  // measure 81
0100
0000
0100
0000
,  // measure 82
0000
0000
1001
0000
,  // measure 83
0000
0000
1001
0000
,  // measure 84
0000
0000
1001
0000
,  // measure 85
0000
0000
0110
0000
,  // measure 86
0000
0000
0110
0000
,  // measure 87
0000
0000
0110
0000
,  // measure 88
0000
0000
1001
0000
,  // measure 89
0000
0000
0000
1000
,  // measure 90
0000
0000
1000
0000
,  // measure 91
1000
0000
1000
0000
,  // measure 92
0000
0000
0001
0000
,  // measure 93
0001
0000
0001
0000
,  // measure 94
0000
0000
0100
0000
,  // measure 95
0100
0000
0100
0000
,  // measure 96
0000
0000
0010
0000
,  // measure 97
0010
0000
0010
0000
,  // measure 98
0000
0000
0110
0000
,  // measure 99
0000
0000
0110
0000
,  // measure 100
0000
0000
1001
0000
,  // measure 101
0000
0000
1001
0000
,  // measure 102
0000
0000
0100
0000
,  // measure 103
0100
0000
0100
0000
,  // measure 104
0000
0000
0010
0000
,  // measure 105
0010
0000
0000
0000
,  // measure 106
1000
0000
1000
0000
,  // measure 107
0000
0000
0100
0000
,  // measure 108
0100
0000
0000
0000
,  // measure 109
0010
0000
0010
0000
,  // measure 110
0000
0000
0001
0000
,  // measure 111
0001
0000
0001
0000
,  // measure 112
0001
0000
0000
0000
,  // measure 113
0100
0000
0100
0000
,  // measure 114
0000
0000
0010
0000
,  // measure 115
0000
0000
0010
0000
,  // measure 116
0000
0000
0010
0000
,  // measure 117
0000
0000
0000
0000
,  // measure 118
1000
0000
0100
0000
,  // measure 119
0010
0000
0001
0000
,  // measure 120
1000
0000
0000
0000
,  // measure 121
0000
0000
0000
1000
,  // measure 122
0000
0000
1000
0000
,  // measure 123
1000
0000
1000
0000
,  // measure 124
0000
0000
0001
0000
,  // measure 125
0001
0000
0001
0000
,  // measure 126
0100
0000
0100
0000
,  // measure 127
0100
0000
0010
0000
,  // measure 128
2000
0000
0000
0000
,  // measure 129
0000
0000
0000
3000
;

//---------------dance-single - ----------------
#NOTES:
     dance-single:
     :
     Easy:
     7:
     0.419,0.644,0.267,0.300,0.000: // measure 1
0000
0000
0000
0000
,  // measure 2
0000
0000
0000
0000
,  // measure 3
0000
0000
0000
0000
,  // measure 4
0000
0000
0000
0000
,  // measure 5
0000
0000
0000
0000
,  // measure 6
0000
0000
0000
0000
,  // measure 7
0000
0000
0000
0000
,  // measure 8
0000
0000
0000
0110
,  // measure 9
0000
0000
1000
0000
,  // measure 10
1000
0000
0100
0000
,  // measure 11
0000
0100
0000
0100
,  // measure 12
0000
0000
0010
0000
,  // measure 13
0010
0000
0010
0000
,  // measure 14
0001
0000
0000
0001
,  // measure 15
0000
0001
0000
0000
,  // measure 16
0010
0000
0010
0000
,  // measure 17
0100
0000
0100
0000
,  // measure 18
1000
0000
0000
0001
,  // measure 19
0000
0001
0000
0000
,  // measure 20
0100
0000
0100
0000
,  // measure 21
0010
0000
0010
0000
,  // measure 22
1000
0000
1000
0000
,  // measure 23
1000
0100
0000
0000
,  // measure 24
0010
0001
0000
0000
,  // measure 25
2000
0000
0000
3002
0000
0000
0203
0000
,  // measure 26
0000
0000
0001
0001
,  // measure 27
0320
0000
0000
0000
,  // measure 28
2030
0000
0000
3200
0000
0000
2300
0000
,  // measure 29
0000
0000
0000
0000
,  // measure 30
3002
0000
0000
2003
0000
0000
3020
0000
,  // measure 31
0000
0000
2030
0000
,  // measure 32
3002
0000
0103
0001
,  // measure 33
1001
0000
0100
0000
,  // measure 34
0010
0000
0020
0000
,  // measure 35
0000
0000
0130
0000
,  // measure 36
0100
0000
0001
0000
,  // measure 37
0001
0000
0000
0000
,  // measure 38
0000
0000
1000
0000
,  // measure 39
1000
0000
0100
0000
,  // measure 40
0010
0000
0001
0000
,  // measure 41
1002
0000
0000
0103
,  // measure 42
0000
0000
0100
0000
,  // measure 43
0200
0000
0000
0310
,  // measure 44
0000
0000
0010
0000
,  // measure 45
0102
0000
0000
0103
,  // measure 46
0000
0000
0020
0000
,  // measure 47
0000
0000
1030
0000
,  // measure 48
0000
0100
0001
0000
,  // measure 49
0001
0000
0001
0100
,  // measure 50
0000
0000
1000
0000
,  // measure 51
0010
0000
0010
1000
,  // measure 52
0000
0000
0001
0000
,  // measure 53
0200
0000
0000
0320
,  // measure 54
0000
0000
2030
0000
,  // measure 55
0000
0000
0000
0000
,  // measure 56
0000
0000
3001
0000
,  // measure 57
1000
0000
0001
1000
,  // measure 58
0000
0000
0010
0000
,  // measure 59
0100
0000
0010
0100
,  // measure 60
0000
0000
0100
0000
,  // measure 61
0002
0000
0000
0203
,  // measure 62
0000
0000
0302
0000
,  // measure 63
0000
0000
0000
0000
,  // measure 64
0000
0000
0000
0000
,  // measure 65
1003
0000
1000
0000
,  // measure 66
0100
0000
0100
0000
,  // measure 67
0010
0000
0010
0000
,  // measure 68
0001
0000
0001
0000
,  // measure 69
1000
0000
0000
2000
0000
0000
0000
0000
,  // measure 70
0000
0000
0000
0000
0000
0000
0000
0002
,  // measure 71
0000
0000
0000
0000
0000
0000
0000
3003
,  // measure 72
0000
0000
0000
0000
,  // measure 73
0000
0000
0000
0110
,  // measure 74
0000
0000
0010
0000
,  // measure 75
0010
0000
0100
0000
,  // measure 76
0000
0100
0000
0100
,  // measure 77
0000
0010
0000
0000
,  // measure 78
1000
0000
1000
0000
,  // measure 79
0100
0000
0010
0000
,  // measure 80
0010
0000
0001
0000
,  // measure 81
0100
0000
0100
0000
,  // measure 82
0001
0000
0110
0000
,  // measure 83
0010
0000
0110
0000
,  // measure 84
1000
0000
1100
0000
,  // measure 85
0100
0000
0110
0000
,  // measure 86
0010
0000
0011
0000
,  // measure 87
0100
0000
0101
0000
,  // measure 88
1000
0000
1010
0000
,  // measure 89
0100
0000
0000
0110
,  // measure 90
0000
0000
1000
0000
,  // measure 91
0001
0000
0100
0000
,  // measure 92
0010
0000
0001
0000
,  // measure 93
0010
0000
1000
0000
,  // measure 94
0100
0000
0100
0000
,  // measure 95
0010
0000
1000
0000
,  // measure 96
0010
0000
0100
0000
,  // measure 97
1000
0000
0001
0000
,  // measure 98
1000
0000
1100
0000
,  // measure 99
0010
0000
0110
0000
,  // measure 100
0001
0000
0011
0000
,  // measure 101
0100
0000
0110
0000
,  // measure 102
1000
0000
1100
0000
,  // measure 103
0100
0000
0110
0000
,  // measure 104
0010
0000
0011
0000
,  // measure 105
2000
0000
0000
0000
,  // measure 106
3001
0000
0100
0000
,  // measure 107
0100
0000
0010
0000
,  // measure 108
1000
0000
0100
0000
,  // measure 109
0010
0000
0001
1000
,  // measure 110
0000
0000
1000
0000
,  // measure 111
0100
0000
0100
0000
,  // measure 112
0010
0000
0100
0000
,  // measure 113
0001
0000
0100
0000
,  // measure 114
1000
0000
1000
0000
,  // measure 115
0100
0000
0100
0000
,  // measure 116
0010
0000
0010
0000
,  // measure 117
0001
0000
0001
0000
,  // measure 118
1000
0100
0010
0000
,  // measure 119
0100
0010
0001
0000
,  // measure 120
0002
0000
0000
0000
,  // measure 121
0000
0000
0003
1000
,  // measure 122
0000
0000
1000
0000
,  // measure 123
0100
0000
0010
0000
,  // measure 124
0001
0000
0100
0000
,  // measure 125
0010
0000
0100
0000
,  // measure 126
1010
0000
0110
0000
,  // measure 127
0110
0000
0011
0000
,  // measure 128
1000
0000
0100
0000
,  // measure 129
1000
0000
0010
0001
;

//---------------dance-single - ----------------
#NOTES:
     dance-single:
     :
     Medium:
     10:
     0.536,0.715,0.122,0.478,0.000: // measure 1
0000
0000
0000
0000
,  // measure 2
0000
0000
0000
0000
,  // measure 3
0000
0000
0000
0000
,  // measure 4
0000
0000
0000
0000
,  // measure 5
0000
0000
0000
0000
,  // measure 6
0000
0000
0000
0000
,  // measure 7
0000
0000
0000
0000
,  // measure 8
0000
0100
0010
0100
,  // measure 9
0000
0001
0010
0000
,  // measure 10
0010
0000
0100
0001
,  // measure 11
0000
0100
1000
0010
,  // measure 12
0100
0000
0001
0000
,  // measure 13
1000
0000
0001
0000
,  // measure 14
1000
0000
0001
0100
,  // measure 15
0000
0100
0001
0010
,  // measure 16
0001
0000
1000
0000
,  // measure 17
0110
0000
1000
0000
,  // measure 18
0100
0000
0001
0100
,  // measure 19
0000
1000
0001
1000
,  // measure 20
0010
0000
0100
0000
,  // measure 21
1001
0000
0110
0000
,  // measure 22
0110
0000
0001
0100
,  // measure 23
0000
0010
0100
0010
,  // measure 24
0100
0010
0000
0000
,  // measure 25
1000
0000
1000
0100
0000
0100
0002
0000
,  // measure 26
0000
0000
0103
0000
1000
0000
0001
0200
,  // measure 27
0000
0000
0000
0000
0000
0000
0301
1000
,  // measure 28
0020
0000
0000
0230
0000
0000
0302
0000
,  // measure 29
0000
0000
0000
1003
,  // measure 30
0100
0000
0001
0100
0000
0100
0002
0000
,  // measure 31
0000
0000
0203
0000
,  // measure 32
0320
0000
1030
0210
,  // measure 33
0310
0000
1000
0001
,  // measure 34
0000
1000
0200
0000
,  // measure 35
0000
0000
0310
0000
,  // measure 36
0100
0000
1000
0200
,  // measure 37
0000
0000
0010
0000
,  // measure 38
0010
0000
0310
0000
,  // measure 39
0001
0000
1000
0010
,  // measure 40
0000
0000
0100
0000
,  // measure 41
0020
0000
1030
0100
,  // measure 42
0000
0000
0010
0000
,  // measure 43
0200
0000
1300
0001
,  // measure 44
0000
0000
0020
0000
,  // measure 45
0031
0000
0100
0001
,  // measure 46
0000
0010
0002
0000
,  // measure 47
0100
0000
0103
0000
,  // measure 48
0000
0001
0100
0001
,  // measure 49
0100
0001
1000
0001
,  // measure 50
0000
0100
0001
0100
,  // measure 51
0010
1000
0100
0010
,  // measure 52
0000
0001
0100
0010
,  // measure 53
0200
0000
0000
0302
,  // measure 54
0000
0000
2003
0000
,  // measure 55
0000
0000
0000
0000
,  // measure 56
0000
0000
3010
0000
,  // measure 57
0010
0000
0100
0001
,  // measure 58
0000
0010
0100
0010
,  // measure 59
0001
0100
0010
0100
,  // measure 60
0000
1000
0100
0001
,  // measure 61
2000
0000
0000
3200
,  // measure 62
0000
0000
0320
0000
,  // measure 63
0001
0000
0001
0000
,  // measure 64
0001
0000
0001
0000
,  // measure 65
0032
0000
2003
0000
,  // measure 66
3200
0000
0320
0000
,  // measure 67
0032
0000
0203
0000
,  // measure 68
0320
0000
2030
0000
,  // measure 69
3100
0000
0000
0020
0000
0000
0000
0000
,  // measure 70
0000
0000
0000
0030
0001
1000
0000
0002
,  // measure 71
0000
0000
0000
0000
,  // measure 72
0003
0000
0000
1000
,  // measure 73
0001
1000
0000
1001
,  // measure 74
0000
0001
0010
0001
,  // measure 75
0100
0010
0100
0010
,  // measure 76
0000
1000
0000
0100
,  // measure 77
1000
0100
0000
0100
,  // measure 78
1000
0000
0100
0010
,  // measure 79
0000
0001
0000
0002
,  // measure 80
0000
0000
1000
0000
,  // measure 81
1000
0000
1000
1000
,  // measure 82
1003
0000
0010
0100
,  // measure 83
0000
0010
0000
1000
,  // measure 84
0000
0001
0000
0000
,  // measure 85
1000
0000
0001
0000
,  // measure 86
0200
0000
0000
0302
,  // measure 87
0000
0000
2003
0000
,  // measure 88
0000
3100
0000
0010
,  // measure 89
0100
0010
0000
1001
,  // measure 90
0000
0000
1000
0000
,  // measure 91
0001
1000
0001
0100
,  // measure 92
0000
0001
0000
0020
,  // measure 93
0000
0031
0000
2001
,  // measure 94
0000
0000
3010
0100
,  // measure 95
0000
0001
0000
2000
,  // measure 96
0000
0000
0010
0000
,  // measure 97
0010
0000
0010
0000
,  // measure 98
3010
0000
0100
0001
,  // measure 99
0000
0001
0000
1000
,  // measure 100
0000
2000
0100
0000
,  // measure 101
0100
0000
0100
0000
,  // measure 102
3010
0000
0100
0001
,  // measure 103
0000
1000
0020
0000
,  // measure 104
0000
0100
0000
0000
,  // measure 105
1000
0000
0100
0000
,  // measure 106
1030
0000
0001
0100
,  // measure 107
0000
0100
0000
0010
,  // measure 108
1000
0000
1000
0001
,  // measure 109
0000
1000
0000
1000
,  // measure 110
0000
0001
0100
0001
,  // measure 111
1000
0001
0000
2000
,  // measure 112
0000
0000
0000
0000
,  // measure 113
0000
0000
3001
0000
,  // measure 114
0001
0000
1000
0100
,  // measure 115
0000
1000
0100
0000
,  // measure 116
0010
0001
0000
0010
,  // measure 117
0001
0200
0000
0000
,  // measure 118
1000
0000
0010
0000
,  // measure 119
0001
0000
0010
0000
,  // measure 120
0310
0100
0000
0001
,  // measure 121
0200
0010
0000
0301
,  // measure 122
0000
0001
0100
0000
,  // measure 123
0010
0000
1000
0100
,  // measure 124
0000
0010
0000
0001
,  // measure 125
0010
0000
0100
0000
,  // measure 126
1100
0000
0110
0000
,  // measure 127
0011
0000
0001
1000
,  // measure 128
0000
1000
0100
0010
,  // measure 129
0001
0010
0100
1000
;

//---------------dance-single - ----------------
#NOTES:
     dance-single:
     :
     Hard:
     13:
     0.841,1.000,0.922,0.689,0.000: // measure 1
0000
0000
0000
0000
,  // measure 2
0000
0000
0000
0000
,  // measure 3
0000
0000
0000
0000
,  // measure 4
0000
0000
0000
0000
,  // measure 5
0000
0000
0000
0000
,  // measure 6
0000
0000
0000
0000
,  // measure 7
0000
0000
0000
0000
,  // measure 8
0000
1000
0001
1001
,  // measure 9
0000
0002
2003
3002
,  // measure 10
0203
0320
0230
0301
,  // measure 11
0000
0020
0230
0320
,  // measure 12
0032
2003
3100
0000
,  // measure 13
2000
3002
2003
3020
,  // measure 14
0230
0320
2030
3001
,  // measure 15
0000
0200
0320
0230
,  // measure 16
0302
2003
3010
0000
,  // measure 17
2000
3020
0230
2300
,  // measure 18
3200
0320
2030
3001
,  // measure 19
0000
0002
0023
0230
,  // measure 20
0302
0203
0320
0031
,  // measure 21
1100
0000
0110
0000
,  // measure 22
0011
0000
1100
0100
,  // measure 23
0010
0010
0001
0001
,  // measure 24
1000
0001
1000
0001
1000
0000
0000
0000
,  // measure 25
1000
0000
1000
0010
0000
0010
0002
0000
,  // measure 26
0000
0000
0013
0000
0010
0000
1000
0200
,  // measure 27
0000
0000
0000
0000
0000
0000
0301
0100
,  // measure 28
0020
0000
0000
0230
0000
0000
0302
0000
,  // measure 29
0000
0000
0000
0103
,  // measure 30
1000
0000
0010
0100
0000
0001
0200
0000
,  // measure 31
0000
0000
0302
0000
,  // measure 32
2003
0000
3001
0110
,  // measure 33
1001
0000
1000
1000
,  // measure 34
0000
0011
0001
0000
,  // measure 35
0110
0000
1000
1000
,  // measure 36
0100
1001
0001
0100
,  // measure 37
0110
0000
0010
0010
,  // measure 38
0000
0110
0100
0001
,  // measure 39
1001
0000
1000
0110
,  // measure 40
0000
0110
0001
0000
,  // measure 41
0101
0000
0100
0100
,  // measure 42
0000
0101
0100
0000
,  // measure 43
1001
0000
0001
0001
,  // measure 44
0000
1100
0100
0000
,  // measure 45
0110
0000
1000
1000
,  // measure 46
0000
0011
0010
0000
,  // measure 47
1001
0001
0100
1010
,  // measure 48
1010
1000
0001
0100
,  // measure 49
1001
0001
0001
0001
,  // measure 50
0000
0010
0110
0110
,  // measure 51
0010
0010
0000
0100
,  // measure 52
1100
1100
0100
0000
,  // measure 53
1001
1000
1000
1000
,  // measure 54
0000
1000
1001
1001
,  // measure 55
1000
1000
0000
0100
,  // measure 56
0101
0101
0100
0000
,  // measure 57
0011
0011
0010
0010
,  // measure 58
0000
0001
0011
0011
,  // measure 59
0001
0001
0000
1000
,  // measure 60
1001
1001
1000
0000
,  // measure 61
0101
0101
0100
0000
,  // measure 62
0010
0000
0011
0011
,  // measure 63
0010
0000
0010
0000
,  // measure 64
0011
0011
0001
0001
,  // measure 65
0021
0000
2030
0000
,  // measure 66
3020
0000
0032
0000
,  // measure 67
0203
0000
2300
0000
,  // measure 68
3002
0000
0023
0000
,  // measure 69
2030
0000
0000
3200
0000
0000
0000
0000
,  // measure 70
0000
0000
0000
0000
0310
0001
0000
2000
,  // measure 71
0000
0000
0000
0000
,  // measure 72
3000
0000
0000
1000
,  // measure 73
0001
1000
0000
0110
,  // measure 74
0000
0100
0010
0100
,  // measure 75
0110
0001
1000
0001
,  // measure 76
0000
1000
0001
0010
,  // measure 77
0110
0100
0000
1100
,  // measure 78
0001
0000
1000
0100
,  // measure 79
0000
0011
0001
0100
,  // measure 80
0001
0000
1000
0000
,  // measure 81
1000
0010
0001
0000
,  // measure 82
0010
0100
0101
0000
,  // measure 83
1000
0010
0110
0000
,  // measure 84
0100
0010
0101
0000
,  // measure 85
0001
0100
0110
0000
,  // measure 86
1000
0001
0110
0000
,  // measure 87
0001
1000
0110
0000
,  // measure 88
1001
0000
0101
0010
,  // measure 89
1000
0010
0000
0110
,  // measure 90
0000
0001
0100
0001
,  // measure 91
0110
1000
0010
1000
,  // measure 92
0000
1000
0100
0010
,  // measure 93
0001
0001
0000
2001
,  // measure 94
0000
0000
3100
0010
,  // measure 95
0000
0110
0001
1000
,  // measure 96
0001
0000
1000
0000
,  // measure 97
0010
0010
1000
0000
,  // measure 98
1000
0001
1001
0000
,  // measure 99
0100
0010
0110
0000
,  // measure 100
0001
1000
1001
0000
,  // measure 101
0010
0100
0110
0000
,  // measure 102
1000
0100
1100
0000
,  // measure 103
0100
0010
0110
0000
,  // measure 104
0010
0001
1000
0010
,  // measure 105
1000
0001
1000
0001
1000
0000
0000
0000
,  // measure 106
1000
0010
0010
0100
,  // measure 107
0001
1001
0010
0000
,  // measure 108
0010
0001
0001
0100
,  // measure 109
0001
0010
0011
1000
,  // measure 110
0000
0001
0010
0010
,  // measure 111
0001
1000
1010
0010
,  // measure 112
0000
1000
0010
0100
,  // measure 113
0100
0110
0001
0000
,  // measure 114
1000
0100
1000
0100
,  // measure 115
0010
0100
0010
0100
,  // measure 116
0010
0001
0100
0001
,  // measure 117
1000
0010
0100
0010
,  // measure 118
1000
1000
0100
0100
,  // measure 119
0010
0010
0001
0001
,  // measure 120
1000
0100
0010
0001
,  // measure 121
0001
1000
0001
1000
0000
0000
0110
0000
,  // measure 122
0000
1100
0100
0010
,  // measure 123
1000
1010
0010
0010
,  // measure 124
0000
1000
0110
0001
,  // measure 125
0100
1001
1000
0000
,  // measure 126
1100
1000
0110
0100
,  // measure 127
0011
0010
1001
0001
,  // measure 128
0010
0020
0032
2003
,  // measure 129
3200
0320
0032
1003
;
