#TITLE:アガット;
#SUBTITLE:;
#ARTIST:Bazole;
#TITLETRANSLIT:Agate;
#SUBTITLETRANSLIT:;
#ARTISTTRANSLIT:Bazole;
#GENRE:ELECTRIC POP;
#CREDIT:;
#BANNER:Agate.png;
#BACKGROUND:Agate-bg.png;
#LYRICSPATH:;
#CDTITLE:cdtitle.png;
#MUSIC:Agate.mp3;
#MENUCOLOR:1,0,0,1;
#METERTYPE:DDR X;
#OFFSET:0.303;
#SAMPLESTART:70.000;
#SAMPLELENGTH:12.000;
#SELECTABLE:YES;
#BPMS:0.000=200.000;
#STOPS:;
#BGCHANGES:;

//---------------dance-single - ----------------
#NOTES:
     dance-single:
     :
     Hard:
     16:
     0.953,1.000,0.591,0.638,0.467: // measure 1
0000
0000
0000
0000
,  // measure 2
0000
0000
0000
0000
,  // measure 3
0000
0000
0000
0000
,  // measure 4
0000
0000
0000
0000
,  // measure 5
0000
0000
0000
0000
,  // measure 6
0000
0000
0000
0000
0001
0010
0100
0012
,  // measure 7
0000
0000
1000
0000
1003
0000
0000
0000
1000
0000
0010
1000
0100
0000
2001
0000
,  // measure 8
0000
0000
3001
0000
0100
0000
0001
0010
0100
0000
1000
0000
0010
0000
1020
0000
,  // measure 9
0000
1000
0100
0001
0100
1000
0130
0220
,  // measure 10
0000
0000
0000
0000
,  // measure 11
0000
0000
0000
0330
,  // measure 12
1010
0000
0100
0000
0000
0001
0001
0001
,  // measure 13
0000
1000
0000
1000
0100
0100
0100
0000
,  // measure 14
0010
0000
0001
0000
0000
0010
0010
0010
,  // measure 15
0000
0100
0000
0100
1000
1000
1000
0000
,  // measure 16
0001
0000
0100
0000
0000
0001
0001
0001
,  // measure 17
0000
0010
0000
0001
0010
0010
0010
0000
,  // measure 18
0001
0000
1000
0000
0000
0100
0100
0100
,  // measure 19
0000
0010
0000
0001
2000
0001
0001
0000
,  // measure 20
3002
0000
0010
0000
0000
1000
1000
1000
,  // measure 21
0000
0100
0000
1000
0010
0010
0010
0000
,  // measure 22
0203
0000
1000
0000
0000
0010
0010
0010
,  // measure 23
0000
0000
0001
0000
0000
0000
0010
0000
1000
0000
1000
0000
1000
0000
0310
0100
,  // measure 24
0020
0000
1000
0000
0000
0100
0100
0100
,  // measure 25
0000
0001
0000
0100
1000
1000
1000
0000
,  // measure 26
2030
0000
0010
0000
0000
0100
0100
0100
,  // measure 27
3000
0000
1000
0001
0000
0000
0000
0000
0000
0000
0000
0000
0000
0000
0000
0000
,  // measure 28
1001
0000
0010
0100
0010
0000
0010
0000
0000
0000
0100
0010
0100
0000
0100
0000
,  // measure 29
0000
0000
0010
0001
0100
0000
0010
0000
0100
0010
0100
0001
0010
0000
0100
0000
,  // measure 30
1000
0000
1000
0001
1000
0000
1000
0000
0000
0000
0001
1000
0001
0000
0001
0000
,  // measure 31
0000
0000
0100
0010
1000
0000
0100
0000
0010
0000
0010
0000
0100
0000
0000
0000
,  // measure 32
1000
0000
0100
0010
0100
0000
0100
0000
0000
0000
0010
0100
0010
0000
0010
0000
,  // measure 33
0000
0000
0100
1000
0010
0000
0100
0000
0010
0100
0010
1000
0100
0000
0010
0000
,  // measure 34
0001
0000
0001
1000
0001
0000
0001
0000
0000
0000
1000
0001
1000
0000
1000
0000
,  // measure 35
0000
0000
0010
0100
0001
0000
0010
0000
0100
0010
0100
0010
0100
0000
0010
0000
,  // measure 36
0101
0000
1000
0010
1000
0000
1000
0000
0000
0000
1000
0001
1000
0000
1000
0000
,  // measure 37
0000
0000
0100
0010
0100
0000
0100
0000
0100
1000
0100
1000
0100
0000
0100
0000
,  // measure 38
0010
0000
0010
0001
0010
0000
0010
0000
0000
0000
0010
0100
0010
0000
0010
0000
,  // measure 39
0000
0000
0001
0010
0001
0000
0001
0000
1000
0000
0001
0000
0100
0000
0000
0000
,  // measure 40
1010
0000
0001
0100
0001
0000
0001
0000
0000
0000
0001
0010
0001
0000
0001
0000
,  // measure 41
0000
0000
0010
0001
0010
0000
0010
0000
0010
0001
0010
0001
0010
0000
0010
0000
,  // measure 42
0110
0100
0000
0100
0110
0100
0000
1000
,  // measure 43
1010
0000
1000
0000
0010
0000
1000
0000
0010
0100
0001
0000
0010
0001
1000
0100
,  // measure 44
2000
0000
0010
0000
0001
0000
3100
0010
0001
0000
1000
0010
0100
0000
0001
1000
,  // measure 45
0010
0200
0302
2003
3020
0130
0100
0010
,  // measure 46
1000
0000
1000
0100
0010
0000
0200
0000
0000
0000
0301
0000
0100
0000
0020
0000
,  // measure 47
0000
0000
0130
0020
0001
0000
0001
0000
0031
0000
0000
0100
0000
0000
0001
0000
,  // measure 48
2000
3200
0320
0230
0000
0302
0203
0320
,  // measure 49
0230
0000
2300
3002
2003
3200
0000
0320
,  // measure 50
0032
0000
2003
0000
3200
0000
1300
0010
1000
0000
0001
0010
0001
0000
1000
0100
,  // measure 51
1000
0001
0001
0001
0100
0100
0010
0010
,  // measure 52
1001
0000
0020
0000
2030
0000
3020
0000
0000
0000
0130
0000
0001
0000
0100
0010
,  // measure 53
1000
0000
0001
1000
0010
0100
0010
1000
,  // measure 54
0110
0000
0100
0001
0100
0000
0120
0000
0000
0000
0130
0000
0001
0000
0102
0000
,  // measure 55
0000
1000
1000
0100
0100
0010
0013
0001
,  // measure 56
2001
0000
0000
0000
0000
0000
3001
1000
0200
0000
0000
0000
0000
0000
0310
0100
,  // measure 57
0020
0000
0000
0000
0000
0000
0032
0000
0013
0000
0000
0100
0000
0000
0010
0000
,  // measure 58
1100
1100
0000
0101
0101
0000
1010
1010
,  // measure 59
0110
0000
0000
0011
0000
0000
0011
0000
0000
0000
0100
0000
1000
0000
1001
0000
,  // measure 60
0000
0000
1000
0010
0100
0000
0010
1000
0001
0000
0001
0100
0010
0000
0100
0001
,  // measure 61
1000
0000
1000
0001
1000
0000
0000
0000
0100
0001
0010
0001
0100
0000
0120
0000
,  // measure 62
0000
0000
0130
0010
0100
0000
0001
0000
0100
0010
1000
0010
0100
0000
0020
0000
,  // measure 63
0000
0000
1030
0001
1000
0000
1000
0000
0000
0000
1100
0000
1001
0000
1100
0000
,  // measure 64
0000
0000
0001
0010
0100
0000
0100
0000
0100
0010
0001
0010
0100
0000
0200
0000
,  // measure 65
0000
0000
1300
0100
0010
0000
0100
0000
0000
0000
0010
0100
1000
0000
1020
0000
,  // measure 66
0000
0000
1030
0001
0100
0000
0010
1000
0001
0000
0100
0010
0100
0000
0202
0000
,  // measure 67
0303
1001
1100
0000
0000
0010
0001
1001
,  // measure 68
0000
0000
0001
0100
0010
0000
0100
0001
1000
0000
1000
0010
0100
0000
0010
1000
,  // measure 69
0001
0000
0001
1000
0001
0000
0000
0000
0010
1000
0100
1000
0010
0000
0210
0000
,  // measure 70
0000
0000
0310
0100
0010
0000
1000
0000
0010
0100
0001
0100
0010
0000
0200
0000
,  // measure 71
0000
0000
0301
1000
0001
0000
0000
0000
0000
0000
1000
0100
1000
0000
2200
0000
,  // measure 72
3300
0000
0100
0010
0100
0000
0220
0000
0330
0000
0010
0001
0010
0000
0022
0000
,  // measure 73
0033
0000
0001
0100
0001
0000
0101
0000
0000
0000
1100
0000
0000
0000
0220
0000
,  // measure 74
0300
0000
0130
0010
0100
0000
0220
0000
0330
0000
0001
0010
0001
0000
0022
0000
,  // measure 75
0033
0000
0100
0010
0100
0000
0001
0000
0110
0000
0000
1100
0000
0000
0110
0000
,  // measure 76
0020
0000
1000
0000
0100
1000
1000
0100
,  // measure 77
0030
0000
1100
0000
0100
0000
0010
0000
0110
0000
0000
0110
0000
0000
0011
0000
,  // measure 78
2000
0100
0010
0000
0001
0010
0100
0010
,  // measure 79
3000
0000
0110
0000
1000
0000
0100
0000
0011
0000
0000
1001
0000
0000
0110
0000
,  // measure 80
2000
0100
0100
0100
0010
0010
0001
0001
,  // measure 81
0010
0000
0010
0000
0100
0000
0100
0000
3001
0000
0000
1010
0000
0000
1010
0000
,  // measure 82
0012
0010
1000
1000
0010
0010
0100
0100
,  // measure 83
1000
0000
1000
0000
0100
0000
0103
0000
0010
1000
0010
1000
0001
1000
0001
1000
,  // measure 84
0001
0000
1001
0000
0000
0110
0110
0110
;

//---------------dance-single - ----------------
#NOTES:
     dance-single:
     :
     Medium:
     10:
     0.646,0.679,0.114,0.219,0.029:
0000
0000
0000
0000
,
0000
0000
0000
0000
,
0000
0000
0000
0000
,
0000
0000
0000
0000
,
0000
0000
0000
0000
,
0000
0000
0000
0000
1000
0001
0100
0001
,
0000
1000
0010
0000
1000
0001
0010
0001
,
0000
0100
0001
0000
1000
0100
1000
0020
,
0000
0000
0000
0000
0000
0000
0000
0230
,
0000
0000
0000
0000
,
0000
0000
0000
0300
,
1001
0000
0001
0000
0000
1000
0100
1000
,
0000
0010
0000
0000
0100
0000
0100
0000
,
0010
0000
0010
0000
0000
0100
0001
0100
,
0000
0001
0000
0000
1000
0000
1000
0000
,
0100
0000
0100
0000
0000
0010
0100
0010
,
0000
0010
0000
0000
0100
0000
0100
0000
,
1000
0000
1000
0000
0000
1000
0001
1000
,
0000
0010
0000
0100
0020
0000
0000
0000
,
2030
0000
0100
0000
0000
0001
0000
0001
,
0000
0010
0000
0010
0000
0000
0000
0000
,
0001
0000
0001
0000
0000
0100
0000
0100
,
0000
0001
0000
0001
0000
0000
0000
0000
,
3002
0000
0100
0000
0000
1000
0000
1000
,
0000
0000
0010
1000
,
0203
0000
0010
0000
0000
0001
0000
0010
,
0300
0001
0000
0000
0000
0000
0000
0000
,
0100
0010
0100
0001
0000
1000
0010
0100
,
0000
0100
0010
1000
0100
0001
0010
0001
,
0100
0010
0100
0010
0000
0100
0001
0010
,
0000
0010
0001
1000
0100
0010
0100
0000
,
1000
0010
0100
0001
0000
0010
0001
1000
,
0000
1000
0100
0010
0100
1000
0010
0100
,
0010
1000
0001
0010
0000
0001
0100
0010
,
0000
0100
0001
0010
0100
0010
0001
0010
,
0100
1000
0001
1000
0000
1000
0100
1000
,
0000
1000
0100
0010
0100
0010
0001
0010
,
0001
0010
0100
0010
0000
0100
0010
0100
,
0000
0100
0010
0100
0001
0100
0010
0000
,
0010
0001
1000
0001
0000
0001
0100
0001
,
0000
0001
0010
0100
0001
0100
0010
1000
,
0010
0100
0010
0100
0000
1000
0100
0010
,
0000
0100
0010
0001
2000
0000
0001
0000
,
3001
0000
0100
0000
0100
0000
0010
1000
,
0010
0000
1000
0100
0010
1000
0010
1000
,
0010
0001
0010
0002
0000
1003
0100
0020
,
0000
0000
0031
0000
0100
0000
0010
0000
0100
0000
0000
0100
0000
0000
0100
0000
,
0001
0100
1000
0200
0000
1300
0100
0001
,
0200
0000
0310
1000
0001
0020
0000
0031
,
0010
1000
0020
0000
0031
0100
0001
0000
,
1000
0010
0100
0001
0100
0001
0010
0000
,
0010
0001
1000
0002
0000
0013
0001
0100
,
0020
0000
1030
0010
0100
0001
0010
0001
,
1000
0100
1000
0200
0000
0310
0100
2000
,
0000
3001
0100
0001
0100
0001
0100
0000
,
0020
0000
0000
1030
0002
0000
0000
0103
,
0020
0000
0000
0000
0000
0000
1030
0000
0100
0000
0000
0010
0000
0000
0001
0000
,
1000
0001
0000
1000
0001
0000
1000
0001
,
1000
0000
0000
0110
0000
0000
1001
0000
0000
0000
0010
0000
0001
0000
1000
0000
,
0000
1000
0100
0010
0001
0100
0010
0100
,
0001
1000
0100
0000
0001
0100
0010
0001
,
0000
0001
0100
0010
1000
0100
1000
0200
,
0000
1300
0001
0010
0000
0010
0001
0100
,
0000
0100
0001
0100
0001
1000
0100
2000
,
0000
3100
0010
0100
0000
0010
0001
0010
,
0000
0001
0010
0001
1000
0001
0100
0010
,
0000
0010
0100
0000
0000
0100
0001
1000
,
0000
1000
0100
0001
0100
1000
0010
0001
,
0010
1000
0001
0000
1000
0010
1000
0010
,
0000
0100
0010
0001
0010
1000
0001
0200
,
0000
0301
1000
0000
0000
0010
0100
0010
,
0000
0001
0010
0100
0000
1000
0100
0010
,
0000
1000
0001
0100
0000
1100
0000
1001
,
0000
0100
0010
0100
0000
0001
1000
0001
,
0000
0000
0010
0000
0001
0000
0010
0000
0001
0000
0000
1000
0000
0000
1001
0000
,
0001
0000
0100
0000
0100
0001
1000
0100
,
0000
0000
1000
0000
0100
0000
1000
0000
0001
0000
0000
0110
0000
0000
1010
0000
,
0010
0000
0100
0000
0000
0001
1000
0001
,
0000
0000
0100
0000
0001
0000
0100
0000
0001
0000
0000
0110
0000
0000
1001
0000
,
0001
0010
0100
1000
0010
0001
0010
1000
,
0001
0010
0100
1000
0100
0001
0100
1000
,
0001
0100
0010
1000
0010
0001
0010
1000
,
0001
0100
0010
1000
0100
0001
0100
1000
,
0001
0000
0110
0000
0000
1000
0001
1001
;

//---------------dance-single - ----------------
#NOTES:
     dance-single:
     :
     Easy:
     5:
     0.325,0.400,0.200,0.171,0.000:
0000
0000
0000
0000
,
0000
0000
0000
0000
,
0000
0000
0000
0000
,
0000
0000
0000
0000
,
0000
0000
0000
0000
,
0000
0000
0000
0000
0000
0000
0000
1000
,
0000
0000
1000
0000
0000
0000
0000
0010
,
0000
0000
0010
0000
0000
0000
0000
0200
,
0000
0000
0000
0000
0000
0000
0000
0302
,
0000
0000
0000
0000
,
0000
0000
0000
0000
,
1003
0000
0000
0000
0000
0100
0000
0100
,
0000
0000
0010
0010
,
0000
0000
0001
0000
0000
0100
0000
0100
,
0000
0000
0010
0010
,
0000
0000
1000
0000
0000
0000
0000
0010
,
0000
0000
0100
0100
,
0000
0000
0001
0000
0000
0000
0000
0010
,
0000
0000
0200
0000
,
2300
0000
0000
0000
,
0000
0000
0000
0000
,
0000
0000
0000
0000
,
0000
0000
0000
0000
,
3002
0000
0000
0000
,
0000
0000
0000
0000
,
0023
0000
0000
0000
,
0030
0100
0000
0000
0000
0000
0000
0000
,
1000
0001
0010
0100
,
0010
1000
0010
0001
,
0100
0100
0010
0010
,
1000
0001
0100
0000
,
0010
0010
1000
1000
,
0100
0001
0100
1000
,
0001
0001
0100
0001
,
0010
1000
0010
0000
,
1001
0100
0001
0100
,
1000
0010
0001
0010
,
0000
1000
1000
0001
,
0001
0100
0100
0010
,
0000
1000
0100
0010
,
0001
1000
0100
0000
,
0010
0000
0001
0000
,
1000
1000
0100
0000
,
0010
0001
0010
0100
,
1000
0100
0010
0001
,
0002
0000
2003
0000
,
3010
0100
0010
0010
,
0100
0010
1000
0001
,
0010
0001
1000
0100
,
1000
0001
1000
0100
,
0010
0100
1000
0001
,
0200
0000
0320
0000
,
0130
0001
0010
0001
,
0002
0000
0000
2003
0000
0000
0000
3020
,
0000
0000
0130
0010
,
2000
0000
3200
0000
,
0320
0000
0000
0000
,
0031
0000
0000
1001
0000
0000
1010
0000
,
0000
0000
0000
0000
0000
0000
0000
1001
,
0000
0100
0100
0010
,
0010
0100
0001
0010
,
0010
0100
0100
0010
,
1000
0000
0010
0000
0000
0000
0000
1001
,
0000
1000
1000
0001
,
0001
0000
0100
0000
0010
0000
0000
1001
,
0000
0000
0000
0000
0000
0000
0000
1001
,
0000
0000
0000
0000
0000
0000
0000
1001
,
0000
0100
0010
0100
,
0010
0000
1000
0000
0100
0000
0000
1010
,
0000
0000
0001
0000
0010
0000
0000
1010
,
0000
0000
0001
0000
0000
0000
0000
1100
,
0000
0000
0000
0110
0000
0000
0000
0011
,
0000
0000
0000
0110
0000
0110
0000
0110
,
0000
0000
0000
1100
0000
0000
0000
0101
,
0000
0000
0011
0000
,
1001
0100
0010
0100
,
1000
0100
0001
0001
,
1001
0100
0010
1000
,
0100
0010
0001
1000
,
2000
0000
0000
0000
,
0001
0000
0001
0000
,
3002
0000
0000
0000
,
1000
0000
1000
0000
,
1003
0000
0100
0000
0000
0010
0000
0001
;

//---------------dance-single - ----------------
#NOTES:
     dance-single:
     :
     Beginner:
     2:
     0.142,0.200,0.057,0.105,0.000:
0000
0000
0000
0000
,
0000
0000
0000
0000
,
0000
0000
0000
0000
,
0000
0000
0000
0000
,
0000
0000
0000
0000
,
0000
0000
0000
0000
0000
0000
0000
1000
,
0000
0000
0000
0000
0000
0000
0000
0100
,
0000
0000
0000
0000
0000
0000
0000
0010
,
0000
0000
0000
0000
0000
0000
0000
0002
,
0000
0000
0000
0000
,
0000
0000
0000
0000
,
0003
0000
0000
0000
,
0000
0000
0000
0000
,
0000
0000
0000
0000
,
0000
0000
0000
0000
,
0000
0000
0000
0000
,
0000
0000
0000
0000
,
0000
0000
0000
0000
,
0000
0000
0000
0000
,
2000
0000
0000
0000
,
0000
0000
0000
0000
,
0000
0000
0000
0000
,
0000
0000
0000
0000
,
3002
0000
0000
0000
,
0000
0000
0000
0000
,
0203
0000
0000
0000
,
0000
0300
0000
0000
0000
0000
0000
0000
,
0010
0000
0010
0000
,
0010
0000
0000
0000
,
0100
0000
0100
0000
,
0100
0000
0000
0000
,
0001
0000
0001
0000
,
0001
0000
0000
0000
,
1000
0000
1000
0000
,
1000
0000
0000
0000
,
0100
0000
0100
0000
,
0100
0000
0010
0000
,
0010
0000
0001
0000
,
0001
0000
1000
0000
,
1000
0000
0001
0000
,
0001
0000
0100
0000
,
0100
0000
0010
0000
,
0010
0000
0000
0000
,
0200
0000
0000
0000
,
0301
0000
0001
0000
,
0010
0000
0010
0000
,
0200
0000
0000
0000
,
1300
0000
1000
0000
,
1000
0000
0001
0000
,
0001
0000
0100
0000
,
0001
0000
1000
0000
,
0020
0000
0000
0000
,
0130
0000
0001
0000
,
1001
0000
0000
0000
,
0000
0000
0000
0000
,
0010
0000
0010
0000
,
0010
0000
0000
0000
,
0110
0000
0000
0000
,
0000
0000
0000
0000
,
1000
0000
1000
0000
,
1000
0000
0100
0000
,
0010
0000
0001
0000
,
1000
0000
0000
0000
,
0001
0000
0001
0000
,
0100
0000
0010
0000
,
1000
0000
0000
0000
,
1001
0000
0000
0000
,
1001
0000
0000
0000
,
0001
0000
0001
0000
,
0010
0000
0010
0000
,
0100
0000
0000
0000
,
0200
0000
0000
0000
,
0300
0000
0000
0000
,
0020
0000
0000
0000
,
0030
0000
0000
0000
,
1001
0000
0000
0000
,
0001
0000
0001
0000
,
1000
0000
0000
0000
,
0010
0000
0010
0000
,
0200
0000
0000
0000
,
0000
0000
0000
0000
,
0320
0000
0000
0000
,
0000
0000
0000
0000
,
0130
0000
0000
0000
0000
0000
0000
1001
;
